osu file format v14

[General]
AudioFilename: audio.mp3
AudioLeadIn: 0
PreviewTime: 76187
Countdown: 0
SampleSet: Soft
StackLeniency: 0
Mode: 0
LetterboxInBreaks: 0
WidescreenStoryboard: 0

[Editor]
Bookmarks: 36520
DistanceSpacing: 1.4
BeatDivisor: 4
GridSize: 32
TimelineZoom: 1

[Metadata]
Title:Ready For The Madness
TitleUnicode:Ready For The Madness
Artist:RiraN
ArtistUnicode:RiraN
Creator:Fall
Version:Breakdown
Source:osu!
Tags:instrumental lose control electronic hardstyle mappers' guild mg featured artist fa Daycore Gordon123 Left Cris- _tranquility english
BeatmapID:2089486
BeatmapSetID:999054

[Difficulty]
HPDrainRate:5.5
CircleSize:4.2
OverallDifficulty:9
ApproachRate:9.5
SliderMultiplier:2
SliderTickRate:1

[Events]
//Background and Video events
0,0,"65604193_p0_waifu2x_art_noise1_scale_tta_1.jpg",0,0
//Break Periods
2,3053,7662
2,45720,50329
//Storyboard Layer 0 (Background)
//Storyboard Layer 1 (Fail)
//Storyboard Layer 2 (Pass)
//Storyboard Layer 3 (Foreground)
//Storyboard Layer 4 (Overlay)
//Storyboard Sound Samples

[TimingPoints]
1521,333.333333333333,4,2,0,80,1,0
1854,-500,4,2,0,80,0,0
2187,-100,4,2,0,80,0,0
2854,-100,4,2,0,55,0,0
13520,-100,4,2,2,70,0,0
18854,-83.3333333333333,4,2,2,70,0,0
22854,-83.3333333333333,4,2,0,70,0,0
24187,-83.3333333333333,4,2,1,80,0,0
34520,-133.333333333333,4,2,1,80,0,0
34854,-76.9230769230769,4,2,1,80,0,0
39854,-250,4,2,1,80,0,0
40187,-71.4285714285714,4,2,1,80,0,0
44187,-71.4285714285714,4,2,0,80,0,0
45187,-1000,4,2,1,80,0,0
45520,-1000,4,2,0,60,0,0
56187,-133.333333333333,4,2,0,60,0,0
66854,-111.111111111111,4,2,2,60,0,0
76187,-111.111111111111,4,2,0,60,0,0
77520,-100,4,2,1,90,0,1
85520,-86.9565217391304,4,2,1,90,0,0
88187,-80,4,2,1,90,0,1
100187,-58.8235294117647,4,2,1,80,0,0
103854,-500,4,2,1,80,0,0
104187,-58.8235294117647,4,2,1,80,0,0
108187,-58.8235294117647,4,2,0,80,0,0
108520,-133.333333333333,4,2,0,80,0,0
108854,-200,4,2,0,80,0,0
109187,-1000,4,2,0,80,0,0

[Colours]
Combo1 : 197,219,196
Combo2 : 132,132,255
Combo3 : 203,222,254
Combo4 : 129,207,120

[HitObjects]
23,120,1521,6,0,P|81:111|151:118,1,100,8|2,0:1|0:0,0:0:0:0:
222,117,1854,2,0,L|214:148,1,30,8|0,0:1|0:1,0:0:0:0:
222,117,2187,2,0,P|283:144|349:130,1,100,8|2,0:1|0:0,0:0:0:0:
453,20,2520,2,0,B|403:138|479:106|430:237,1,200,6|2,0:0|0:0,0:0:0:0:
370,303,8187,5,8,0:1:0:0:
352,294,8520,1,8,0:1:0:0:
335,283,8854,1,8,0:1:0:0:
317,274,9187,1,8,0:1:0:0:
259,218,9520,5,8,0:1:0:0:
241,227,9853,1,8,0:1:0:0:
224,238,10187,1,8,0:1:0:0:
206,247,10520,1,8,0:1:0:0:
134,350,10854,5,8,0:1:0:0:
129,310,11187,1,8,0:1:0:0:
93,262,11520,1,8,0:1:0:0:
19,229,11854,1,8,0:1:0:0:
80,178,12187,5,8,0:1:0:0:
119,173,12520,1,8,0:1:0:0:
155,157,12854,1,8,0:1:0:0:
183,128,13187,1,8,0:1:0:0:
139,38,13520,6,0,P|200:50|256:41,1,100,10|2,3:1|2:0,0:0:0:0:
345,24,13854,1,10,3:1:0:0:
345,24,13937,1,0,0:0:0:0:
345,24,14020,2,0,P|337:78|343:110,1,50,2|2,0:0|0:0,0:0:0:0:
380,134,14187,6,0,P|389:197|376:280,1,100,10|2,3:1|0:0,0:0:0:0:
345,313,14520,1,8,3:1:0:0:
345,313,14854,6,0,L|282:306,1,50,10|2,3:1|0:0,0:0:0:0:
221,293,15020,1,2,0:0:0:0:
73,261,15187,5,10,3:1:0:0:
78,226,15270,1,2,0:0:0:0:
138,180,15354,5,2,0:0:0:0:
133,145,15437,1,0,0:0:0:0:
71,102,15520,6,0,B|76:69|76:69|47:50,2,66.6666666666667,10|2|2,3:1|0:0|0:0,0:0:0:0:
20,171,15854,1,8,3:1:0:0:
133,145,16187,6,0,P|202:149|256:130,1,100,10|2,3:1|0:0,0:0:0:0:
296,17,16520,2,0,B|335:47|335:47|330:127,1,100,10|2,3:1|0:0,0:0:0:0:
307,216,16854,2,0,P|305:253|320:305,2,50,10|2|2,3:1|0:0|0:0,0:0:0:0:
395,169,17187,1,10,3:1:0:0:
306,265,17520,6,0,P|245:259|200:273,1,100,10|2,3:1|0:0,0:0:0:0:
345,333,17854,2,0,P|406:339|451:325,1,100,8|2,3:1|0:0,0:0:0:0:
395,169,18187,2,0,L|389:115,2,50,8|2|2,3:1|0:0|0:0,0:0:0:0:
478,224,18520,1,8,3:1:0:0:
457,75,18854,6,0,P|417:45|331:60,1,119.999996337891,10|10,0:1|0:0,0:0:0:0:
170,155,19187,2,0,P|229:161|278:129,1,119.999996337891,10|10,0:1|0:0,0:0:0:0:
56,31,19520,1,10,0:1:0:0:
274,57,19687,1,10,0:0:0:0:
50,175,19854,1,10,0:1:0:0:
202,92,20020,1,8,0:0:0:0:
103,352,20187,6,0,P|90:293|100:235,1,119.999996337891,10|10,0:1|0:0,0:0:0:0:
293,290,20520,2,0,P|235:303|177:293,1,119.999996337891,10|10,0:1|0:0,0:0:0:0:
359,169,20854,1,10,0:1:0:0:
176,292,21020,1,10,0:0:0:0:
376,299,21187,1,10,0:1:0:0:
154,172,21354,1,10,0:0:0:0:
416,90,21520,6,0,L|412:29,3,59.9999981689454,8|10|10|10,0:1|1:0|1:0|1:0,0:0:0:0:
359,169,21854,2,0,L|363:230,3,59.9999981689454,8|10|10|10,1:0|1:0|1:0|1:0,0:0:0:0:
309,83,22187,5,8,1:0:0:0:
279,83,22270,1,10,1:0:0:0:
249,87,22353,1,10,1:0:0:0:
220,95,22436,1,10,1:0:0:0:
192,106,22520,1,8,1:0:0:0:
164,116,22603,1,10,1:0:0:0:
134,121,22686,1,10,1:0:0:0:
104,122,22770,1,10,1:0:0:0:
74,121,22854,6,0,P|86:193|72:254,1,119.999996337891,8|2,0:0|0:0,0:0:0:0:
20,372,23187,2,0,B|46:308|46:308|210:309,1,179.999994506836,10|2,0:0|0:0,0:0:0:0:
228,311,23520,2,0,L|294:312,1,59.9999981689454,8|0,0:0|0:0,0:0:0:0:
360,314,23687,1,0,0:0:0:0:
377,138,23854,2,0,P|353:221|360:316,1,179.999994506836,8|0,0:3|0:0,0:0:0:0:
426,374,24187,5,8,3:1:0:0:
512,234,24354,1,2,2:0:0:0:
271,95,24520,2,0,P|353:139|413:124,1,119.999996337891,8|2,3:1|0:0,0:0:0:0:
212,20,24854,5,8,3:1:0:0:
450,94,25104,1,2,0:0:0:0:
450,94,25187,1,8,3:1:0:0:
276,216,25354,1,2,0:0:0:0:
419,21,25520,5,8,3:1:0:0:
266,237,25687,1,2,0:0:0:0:
126,35,25854,2,0,L|115:160,1,119.999996337891,8|2,3:1|0:0,0:0:0:0:
87,351,26187,2,0,P|40:292|126:296,1,179.999994506836,8|0,3:1|0:0,0:0:0:0:
168,332,26520,1,8,3:1:0:0:
209,349,26603,1,2,0:0:0:0:
253,352,26686,1,2,0:0:0:0:
297,341,26769,1,2,0:0:0:0:
334,316,26853,5,8,3:1:0:0:
113,274,27020,1,0,0:0:0:0:
336,210,27187,2,0,P|405:230|438:308,1,119.999996337891,8|2,3:1|0:0,0:0:0:0:
181,104,27520,5,8,3:1:0:0:
334,316,27770,1,2,0:0:0:0:
334,316,27854,1,8,3:1:0:0:
441,140,28020,1,2,0:0:0:0:
336,348,28187,5,8,3:1:0:0:
255,66,28354,1,2,0:0:0:0:
431,266,28520,1,8,3:1:0:0:
113,274,28687,1,2,0:0:0:0:
440,141,28854,2,0,L|277:153,1,119.999996337891,8|2,3:1|0:0,0:0:0:0:
248,157,29104,1,2,0:0:0:0:
248,157,29187,1,8,3:1:0:0:
113,274,29354,1,8,0:0:0:0:
33,20,29520,6,0,L|51:153,1,119.999996337891,8|2,3:1|2:0,0:0:0:0:
231,275,29854,2,0,L|247:156,1,119.999996337891,8|2,3:1|0:0,0:0:0:0:
174,337,30187,5,8,3:1:0:0:
254,79,30437,1,2,0:0:0:0:
254,79,30520,1,8,3:1:0:0:
339,240,30687,1,2,0:0:0:0:
190,40,30854,6,0,P|250:3|303:23,1,119.999996337891,8|2,3:1|0:0,0:0:0:0:
407,282,31187,2,0,P|347:319|294:299,1,119.999996337891,8|2,3:1|0:0,0:0:0:0:
109,48,31520,2,0,B|76:103|76:103|113:234,1,179.999994506836,8|0,3:1|0:0,0:0:0:0:
139,279,31854,1,8,3:1:0:0:
169,247,31937,1,2,0:0:0:0:
176,203,32020,1,2,0:0:0:0:
155,164,32103,1,2,0:0:0:0:
116,144,32187,6,0,P|44:183|37:223,1,119.999996337891,8|0,3:1|0:0,0:0:0:0:
157,364,32520,1,8,3:1:0:0:
234,139,32687,1,2,0:0:0:0:
52,294,32854,1,8,3:1:0:0:
309,162,33020,1,2,0:0:0:0:
323,151,33104,1,2,0:0:0:0:
338,141,33187,1,8,3:1:0:0:
390,351,33354,1,2,0:0:0:0:
450,80,33520,5,8,3:1:0:0:
388,333,33687,1,2,0:0:0:0:
375,63,33854,5,8,3:1:0:0:
312,346,34021,1,2,0:0:0:0:
300,46,34187,5,8,3:1:0:0:
290,90,34270,1,2,0:0:0:0:
281,134,34353,1,10,0:0:0:0:
272,178,34437,1,2,0:0:0:0:
262,222,34520,2,0,P|271:185|270:222,1,112.500004291535,8|0,3:1|0:0,0:0:0:0:
255,291,34854,5,2,3:1:0:0:
255,291,35187,5,8,3:1:0:0:
168,108,35354,1,10,0:0:0:0:
70,361,35520,1,8,3:1:0:0:
165,71,35770,1,2,0:0:0:0:
165,71,35854,1,8,3:1:0:0:
268,222,36020,1,2,0:0:0:0:
421,102,36187,6,0,L|282:114,1,129.999994049073,8|2,3:1|0:0,0:0:0:0:
19,268,36520,2,0,L|158:280,1,129.999994049073,8|2,3:1|0:0,0:0:0:0:
475,25,36854,6,0,L|267:42,1,194.999991073609,8|0,3:1|0:0,0:0:0:0:
209,52,37187,6,0,L|134:60,1,64.9999970245363,8|2,3:1|0:0,0:0:0:0:
215,248,37354,2,0,L|290:256,1,64.9999970245363,10|2,0:0|0:0,0:0:0:0:
71,69,37520,5,8,3:1:0:0:
280,255,37687,1,0,0:0:0:0:
471,20,37854,2,0,P|507:78|494:146,1,129.999994049073,8|2,3:1|0:0,0:0:0:0:
280,345,38187,5,8,3:1:0:0:
71,69,38437,1,10,0:0:0:0:
91,93,38520,1,8,3:1:0:0:
359,295,38687,1,10,0:0:0:0:
84,349,38854,5,8,3:1:0:0:
261,166,39020,1,10,0:0:0:0:
25,300,39187,5,8,3:1:0:0:
277,153,39354,1,10,0:0:0:0:
84,349,39520,5,8,3:1:0:0:
293,140,39687,5,10,0:0:0:0:
309,129,39770,1,10,0:0:0:0:
325,118,39854,2,0,P|317:134|321:113,1,60,2|0,3:1|0:0,0:0:0:0:
362,52,40187,5,8,3:1:0:0:
421,258,40354,1,2,2:0:0:0:
288,44,40520,2,0,P|211:31|163:68,1,139.999995727539,8|2,3:1|0:0,0:0:0:0:
72,288,40854,5,8,3:1:0:0:
164,65,41104,1,2,0:0:0:0:
164,65,41187,1,8,3:1:0:0:
223,257,41354,1,2,0:0:0:0:
24,133,41520,5,8,3:1:0:0:
288,213,41687,1,2,0:0:0:0:
20,353,41854,1,8,3:1:0:0:
218,181,42020,1,2,0:0:0:0:
395,360,42187,2,0,B|445:334|445:334|451:187,1,139.999995727539,8|0,3:1|0:0,0:0:0:0:
451,175,42437,1,8,0:0:0:0:
451,175,42520,1,8,3:1:0:0:
307,351,42687,1,10,0:0:0:0:
196,105,42854,5,8,3:1:0:0:
307,328,43020,1,10,0:0:0:0:
424,50,43187,1,10,0:0:0:0:
307,305,43354,1,10,0:0:0:0:
131,189,43520,5,10,0:0:0:0:
106,116,43604,1,10,0:0:0:0:
134,45,43687,1,10,0:0:0:0:
193,22,43770,1,10,0:0:0:0:
242,30,43854,1,10,0:0:0:0:
271,61,43937,1,10,0:0:0:0:
277,89,44020,1,10,0:0:0:0:
272,110,44104,1,10,0:0:0:0:
267,121,44187,6,0,P|270:155|285:187,1,69.9999978637696,10|0,0:0|0:0,0:0:0:0:
422,308,44354,2,0,P|418:273|403:241,1,69.9999978637696,10|0,0:0|0:0,0:0:0:0:
106,266,44520,2,0,B|168:292|168:292|330:258,1,209.999993591309,2|0,0:0|0:0,0:0:0:0:
404,242,44854,5,8,0:0:0:0:
380,247,44937,1,0,0:0:0:0:
356,253,45020,1,8,0:0:0:0:
332,258,45104,1,0,0:0:0:0:
308,263,45187,6,0,L|286:268,1,20,10|4,0:0|0:0,0:0:0:0:
129,316,50854,6,0,L|132:295,1,20,8|8,0:1|0:1,0:1:0:0:
201,235,51520,2,0,L|198:214,1,20,8|8,0:1|0:1,0:1:0:0:
112,164,52187,6,0,L|115:143,1,20,8|8,0:1|0:1,0:1:0:0:
184,83,52853,2,0,L|181:62,1,20,8|8,0:1|0:1,0:1:0:0:
279,18,53520,5,8,0:1:0:0:
286,45,53854,1,8,0:1:0:0:
352,116,54187,5,8,0:1:0:0:
345,143,54521,1,8,0:1:0:0:
271,222,54854,5,8,0:1:0:0:
283,240,55187,1,8,0:1:0:0:
321,257,55520,1,8,0:1:0:0:
381,254,55854,1,8,0:1:0:0:
456,205,56187,6,0,P|459:263|453:289,1,75.0000028610231,8|2,0:1|0:2,0:0:0:0:
283,240,56520,2,0,P|280:182|286:156,1,75.0000028610231,8|2,0:1|0:2,0:0:0:0:
384,319,56854,6,0,P|314:322|283:315,1,75.0000028610231,8|2,0:1|0:2,0:0:0:0:
342,111,57187,2,0,P|411:107|442:114,1,75.0000028610231,8|2,0:1|0:2,0:0:0:0:
309,321,57520,2,0,P|239:317|208:324,1,75.0000028610231,8|2,0:1|0:2,0:0:0:0:
283,165,57854,5,8,0:1:0:0:
456,205,58020,1,2,0:2:0:0:
234,318,58187,1,8,0:1:0:0:
384,319,58354,1,2,0:2:0:0:
171,373,58520,2,0,P|157:325|172:263,1,112.500004291535,8|0,0:1|0:0,0:0:0:0:
176,255,58854,6,0,P|190:198|184:160,1,75.0000028610231,8|2,0:1|0:2,0:0:0:0:
33,87,59187,2,0,P|19:144|25:182,1,75.0000028610231,8|2,0:1|0:2,0:0:0:0:
270,237,59520,6,0,P|284:180|278:142,1,75.0000028610231,8|2,0:1|0:2,0:0:0:0:
127,69,59853,2,0,P|113:126|119:164,1,75.0000028610231,8|2,0:1|0:2,0:0:0:0:
345,58,60187,2,0,P|359:115|353:153,1,75.0000028610231,8|2,0:1|0:2,0:0:0:0:
114,141,60520,5,8,0:1:0:0:
270,237,60687,1,2,0:2:0:0:
357,130,60854,1,8,0:1:0:0:
232,94,61020,1,2,0:2:0:0:
360,239,61187,2,0,P|338:297|283:331,1,112.500004291535,8|0,0:1|0:0,0:0:0:0:
287,328,61520,6,0,P|216:332|196:328,1,75.0000028610231,8|2,0:1|0:2,0:0:0:0:
357,130,61854,2,0,P|394:127|431:133,1,75.0000028610231,8|2,0:1|0:2,0:0:0:0:
241,205,62187,6,0,P|237:134|241:113,1,75.0000028610231,8|2,0:1|0:2,0:0:0:0:
439,275,62521,2,0,P|441:312|435:349,1,75.0000028610231,8|2,0:1|0:2,0:0:0:0:
357,130,62854,2,0,P|361:59|357:38,1,75.0000028610231,8|2,0:1|0:2,0:0:0:0:
339,236,63187,5,8,0:1:0:0:
512,127,63354,1,2,0:2:0:0:
439,275,63520,1,8,0:1:0:0:
354,185,63687,1,2,0:2:0:0:
241,205,63854,2,0,P|188:193|125:206,1,112.500004291535,8|0,0:1|0:0,0:0:0:0:
123,210,64187,6,0,P|99:179|91:138,1,75.0000028610231,8|2,0:1|0:2,0:0:0:0:
237,32,64520,2,0,P|261:63|269:104,1,75.0000028610231,8|2,0:1|0:2,0:0:0:0:
273,270,64854,6,0,P|249:239|241:198,1,75.0000028610231,8|2,0:1|0:2,0:0:0:0:
387,92,65187,2,0,P|411:123|419:164,1,75.0000028610231,8|2,0:1|0:2,0:0:0:0:
273,270,65520,2,0,P|249:301|241:342,1,75.0000028610231,8|2,0:1|0:2,0:0:0:0:
419,157,65854,5,8,0:1:0:0:
363,262,66020,1,2,0:2:0:0:
273,270,66187,1,8,0:1:0:0:
240,204,66354,1,2,0:2:0:0:
240,204,66520,2,0,L|108:204,1,112.500004291535,8|0,0:1|0:0,0:0:0:0:
113,204,66854,6,0,P|116:258|112:288,2,44.999998626709,10|2|2,1:0|0:0|2:0,0:0:0:0:
50,115,67187,1,10,1:0:0:0:
45,333,67354,1,2,2:0:0:0:
45,333,67437,1,2,0:0:0:0:
45,333,67520,2,0,P|95:324|136:342,1,89.9999972534181,10|2,1:0|2:0,0:0:0:0:
198,383,67854,1,10,1:0:0:0:
240,204,68187,6,0,L|235:156,2,44.999998626709,10|2|2,1:0|0:0|2:0,0:0:0:0:
314,294,68520,1,10,1:0:0:0:
322,298,68604,1,2,0:0:0:0:
330,299,68687,2,0,P|358:300|412:289,1,44.999998626709,2|0,2:0|0:0,0:0:0:0:
427,242,68854,6,0,P|457:237|494:242,2,59.9999981689454,10|2|2,1:0|0:0|0:0,0:0:0:0:
428,354,69187,1,10,1:0:0:0:
354,214,69520,6,0,P|368:161|361:108,1,89.9999972534181,8|2,1:0|2:0,0:0:0:0:
171,20,69854,2,0,P|169:64|182:107,1,89.9999972534181,10|2,1:0|2:0,0:0:0:0:
365,126,70187,2,0,P|364:97|370:81,2,44.999998626709,10|2|2,1:0|0:0|2:0,0:0:0:0:
164,192,70520,1,10,1:0:0:0:
320,320,70854,6,0,P|261:305|201:306,1,89.9999972534181,8|2,1:0|2:0,0:0:0:0:
76,175,71187,2,0,P|135:190|195:189,1,89.9999972534181,10|2,1:0|2:0,0:0:0:0:
365,126,71520,2,0,P|394:125|410:131,2,44.999998626709,10|2|2,1:0|0:0|2:0,0:0:0:0:
156,272,71854,1,10,1:0:0:0:
163,191,72187,5,14,1:0:0:0:
156,272,72354,1,2,0:0:0:0:
236,280,72520,1,10,1:0:0:0:
243,199,72687,1,2,0:0:0:0:
365,126,72854,5,10,1:0:0:0:
373,28,73021,1,2,0:0:0:0:
277,19,73187,1,10,1:0:0:0:
269,116,73354,1,0,0:0:0:0:
383,332,73520,5,12,1:0:0:0:
156,272,73687,1,2,0:0:0:0:
365,126,73854,1,10,1:0:0:0:
98,218,74020,1,2,0:0:0:0:
222,319,74187,5,8,1:0:0:0:
269,116,74354,1,2,0:0:0:0:
383,332,74520,1,10,1:0:0:0:
456,66,74687,1,0,0:0:0:0:
163,191,74854,5,10,1:0:0:0:
131,162,74937,1,8,1:0:0:0:
139,119,75020,1,10,1:0:0:0:
174,92,75103,1,8,1:0:0:0:
218,84,75187,1,10,1:0:0:0:
262,88,75270,1,10,1:0:0:0:
306,100,75353,1,10,1:0:0:0:
347,116,75437,1,8,1:0:0:0:
388,136,75521,5,10,1:0:0:0:
344,143,75604,1,10,1:0:0:0:
311,172,75687,1,10,1:0:0:0:
300,215,75770,1,8,1:0:0:0:
316,257,75854,1,10,1:0:0:0:
352,282,75937,1,10,1:0:0:0:
396,283,76020,1,10,1:0:0:0:
433,259,76104,1,10,1:0:0:0:
450,218,76187,6,0,P|454:190|448:157,1,44.999998626709,8|0,1:0|0:0,0:0:0:0:
303,55,76354,2,0,P|301:77|305:99,1,44.999998626709,2|0,0:0|0:0,0:0:0:0:
447,8,76520,1,8,1:0:0:0:
186,73,76770,5,2,0:0:0:0:
214,49,76854,2,0,P|283:49|334:68,1,89.9999972534181,8|2,1:0|0:0,0:0:0:0:
249,273,77187,2,0,P|235:221|245:135,1,134.999995880127,8|0,0:3|0:0,0:0:0:0:
250,134,77520,6,0,P|298:146|358:100,1,100,8|2,3:2|3:2,0:0:0:0:
190,337,77854,2,0,P|142:325|82:371,1,100,8|2,3:2|3:2,0:0:0:0:
145,157,78187,5,8,3:2:0:0:
267,345,78354,2,0,L|325:346,1,50,2|2,3:2|0:0,0:0:0:0:
390,346,78520,1,8,3:2:0:0:
249,273,78687,1,2,3:2:0:0:
414,79,78854,5,8,3:2:0:0:
348,226,79020,2,0,L|349:277,1,50,2|2,3:2|0:0,0:0:0:0:
390,346,79187,1,8,3:2:0:0:
341,124,79354,1,2,3:2:0:0:
249,273,79520,5,8,3:2:0:0:
186,24,79687,1,2,3:2:0:0:
140,83,79770,1,2,0:0:0:0:
183,144,79854,2,0,L|181:253,1,100,8|2,3:2|3:2,0:0:0:0:
98,346,80187,5,8,3:2:0:0:
341,124,80354,2,0,L|285:138,1,50,2|2,3:2|0:0,0:0:0:0:
237,85,80520,1,8,3:2:0:0:
452,241,80687,1,2,3:2:0:0:
353,34,80854,5,8,3:2:0:0:
249,273,81020,2,0,L|305:287,1,50,2|2,3:2|0:0,0:0:0:0:
371,268,81187,1,8,3:2:0:0:
216,351,81354,1,2,3:2:0:0:
183,144,81520,6,0,L|68:151,1,100,8|2,3:2|3:2,0:0:0:0:
371,268,81854,2,0,L|486:275,1,100,8|2,3:2|3:2,0:0:0:0:
216,351,82187,1,8,3:2:0:0:
183,144,82354,5,2,3:2:0:0:
200,247,82437,1,2,0:0:0:0:
216,351,82520,2,0,B|244:325|244:325|127:336,1,150,8|0,3:2|0:0,0:0:0:0:
57,347,82854,5,8,3:2:0:0:
200,247,83020,2,0,L|261:240,1,50,2|2,3:2|0:0,0:0:0:0:
306,191,83187,1,8,3:2:0:0:
105,184,83354,1,2,3:2:0:0:
57,347,83520,5,8,3:2:0:0:
229,118,83687,2,0,L|236:179,1,50,2|2,3:2|0:0,0:0:0:0:
306,191,83854,1,8,3:2:0:0:
103,103,84020,1,2,3:2:0:0:
216,351,84187,5,8,3:2:0:0:
439,173,84354,1,2,3:2:0:0:
367,127,84437,1,2,0:0:0:0:
306,191,84520,2,0,L|312:298,1,100,8|2,3:2|3:2,0:0:0:0:
439,173,84854,5,8,3:2:0:0:
415,367,85020,2,0,P|394:333|373:320,1,50,2|2,3:2|0:0,0:0:0:0:
311,290,85187,2,0,B|263:328|211:330|211:330|232:344|263:337,1,150,8|0,3:2|0:0,0:0:0:0:
139,305,85520,5,8,3:2:0:0:
89,134,85687,2,0,L|92:212,1,57.5000010967255,2|2,3:2|0:0,0:0:0:0:
162,230,85854,1,8,3:2:0:0:
150,30,86020,1,2,3:2:0:0:
7,214,86187,5,8,3:2:0:0:
236,250,86354,2,0,L|238:192,1,57.5000010967255,2|2,3:2|0:0,0:0:0:0:
242,101,86520,1,8,3:2:0:0:
162,230,86687,1,2,3:2:0:0:
150,30,86854,5,8,3:2:0:0:
370,247,87020,1,2,3:2:0:0:
304,303,87104,1,2,0:0:0:0:
236,250,87187,1,8,3:2:0:0:
242,101,87354,1,2,3:2:0:0:
389,335,87520,5,8,3:2:0:0:
386,76,87687,1,2,3:2:0:0:
378,161,87770,1,2,0:0:0:0:
370,247,87854,1,8,3:2:0:0:
478,173,88020,1,8,3:2:0:0:
242,101,88187,6,0,L|110:103,1,125,8|2,3:2|3:2,0:0:0:0:
39,129,88437,1,2,3:2:0:0:
80,196,88520,2,0,L|79:323,1,125,8|2,3:2|3:2,0:0:0:0:
337,307,88854,5,8,3:2:0:0:
285,237,88937,1,2,3:2:0:0:
203,215,89020,1,2,3:2:0:0:
124,247,89103,1,2,3:2:0:0:
79,320,89187,2,0,P|158:376|227:345,1,125,8|2,3:2|3:2,0:0:0:0:
228,97,89520,6,0,P|198:166|206:225,1,125,8|2,3:2|3:2,0:0:0:0:
423,337,89854,5,8,3:2:0:0:
397,253,89937,1,0,0:0:0:0:
371,169,90020,2,0,L|389:101,2,62.5,8|8|8,3:2|3:2|3:2,0:0:0:0:
303,225,90270,1,0,0:0:0:0:
237,284,90354,2,0,L|167:294,2,62.5,8|8|8,3:2|3:2|3:2,0:0:0:0:
237,284,90687,1,2,3:2:0:0:
371,169,90854,5,8,3:2:0:0:
217,47,91020,5,2,3:2:0:0:
136,38,91103,1,2,3:2:0:0:
55,27,91186,1,8,3:2:0:0:
289,192,91354,1,2,3:2:0:0:
42,350,91520,6,0,L|43:273,1,62.5,8|2,3:2|3:2,0:0:0:0:
128,184,91687,2,0,L|128:247,1,62.5,2|2,3:2|3:2,0:0:0:0:
208,335,91854,6,0,L|208:273,1,62.5,8|2,3:2|3:2,0:0:0:0:
289,192,92021,2,0,L|289:253,1,62.5,2|2,3:2|3:2,0:0:0:0:
358,316,92187,1,8,3:2:0:0:
310,108,92354,6,0,L|406:108,1,62.5,2|0,3:2|0:0,0:0:0:0:
495,188,92520,2,0,L|399:188,1,62.5,8|2,3:2|3:2,0:0:0:0:
289,254,92687,5,8,3:2:0:0:
358,316,92770,1,8,3:2:0:0:
441,271,92854,1,8,3:2:0:0:
310,108,93020,5,8,3:2:0:0:
241,46,93103,1,8,3:2:0:0:
158,91,93187,2,0,L|158:224,1,125,8|2,3:2|3:2,0:0:0:0:
83,362,93520,5,8,3:2:0:0:
289,254,93687,2,0,L|285:181,1,62.5,2|2,3:2|3:2,0:0:0:0:
310,108,93854,1,8,3:2:0:0:
441,271,94020,1,2,3:2:0:0:
83,362,94187,5,8,3:2:0:0:
30,306,94270,1,2,3:2:0:0:
10,233,94353,1,2,3:2:0:0:
27,158,94436,1,2,3:2:0:0:
77,101,94520,1,8,3:2:0:0:
83,362,94687,1,10,3:2:0:0:
351,255,94854,5,8,3:2:0:0:
4,89,95020,1,10,3:2:0:0:
384,35,95187,5,8,3:2:0:0:
339,100,95270,2,0,L|341:191,1,62.5,10|2,3:2|3:2,0:0:0:0:
351,255,95437,5,10,3:2:0:0:
351,255,95520,2,0,L|260:253,1,62.5,8|0,3:2|0:0,0:0:0:0:
212,251,95687,5,10,3:2:0:0:
145,216,95770,1,10,3:2:0:0:
109,149,95854,2,0,P|120:84|172:38,1,125,8|2,3:2|3:2,0:0:0:0:
145,216,96187,6,0,L|138:291,1,62.5,8|2,3:2|3:2,0:0:0:0:
362,298,96354,2,0,L|369:223,1,62.5,2|2,3:2|3:2,0:0:0:0:
160,43,96520,6,0,L|153:118,1,62.5,10|2,3:2|3:2,0:0:0:0:
377,125,96687,1,8,3:2:0:0:
379,93,96770,1,8,3:2:0:0:
382,62,96854,6,0,L|375:137,1,62.5,8|2,3:2|3:2,0:0:0:0:
362,298,97020,2,0,L|367:235,1,62.5,2|2,3:2|3:2,0:0:0:0:
160,43,97187,6,0,L|154:105,1,62.5,10|2,3:2|3:2,0:0:0:0:
139,278,97354,5,8,3:2:0:0:
141,246,97437,1,8,3:2:0:0:
143,215,97520,1,8,3:2:0:0:
236,381,97687,1,10,3:2:0:0:
376,124,97854,1,8,3:2:0:0:
47,180,98020,5,10,3:2:0:0:
141,246,98104,1,8,3:2:0:0:
234,306,98187,1,8,3:2:0:0:
473,191,98354,5,10,3:2:0:0:
376,124,98438,1,8,3:2:0:0:
282,58,98521,1,8,3:2:0:0:
234,306,98687,1,10,3:2:0:0:
473,191,98854,5,0,3:2:0:0:
47,180,99020,5,2,3:2:0:0:
117,173,99104,1,2,3:2:0:0:
189,169,99187,5,8,3:2:0:0:
455,119,99354,1,8,3:2:0:0:
234,306,99520,6,0,L|240:238,1,62.5,8|0,3:2|0:0,0:0:0:0:
293,174,99687,5,2,3:2:0:0:
293,174,99770,1,2,3:2:0:0:
293,174,99854,5,0,3:2:0:0:
234,306,100020,1,2,3:2:0:0:
430,365,100187,6,0,L|455:126,1,170.000003242493,8|2,3:2|3:2,0:0:0:0:
459,119,100437,1,2,3:2:0:0:
470,43,100520,1,8,3:2:0:0:
369,184,100687,1,2,3:2:0:0:
152,9,100854,2,0,P|168:82|268:112,1,170.000003242493,8|2,3:2|3:2,0:0:0:0:
144,352,101187,2,0,P|160:279|260:249,1,170.000003242493,8|2,3:2|3:2,0:0:0:0:
16,180,101520,6,0,L|111:180,1,85.0000016212464,8|2,3:2|3:2,0:0:0:0:
178,180,101687,1,2,3:2:0:0:
334,353,101854,6,0,L|309:114,1,170.000003242493,8|2,3:2|3:2,0:0:0:0:
249,116,102104,1,2,3:2:0:0:
320,52,102187,2,0,L|415:52,1,85.0000016212464,8|2,3:2|3:2,0:0:0:0:
476,113,102354,1,2,3:2:0:0:
316,183,102520,1,8,3:2:0:0:
182,49,102687,1,2,3:2:0:0:
156,48,102770,1,2,3:2:0:0:
130,48,102854,6,0,P|148:141|128:220,1,170.000003242493,8|2,3:2|3:2,0:0:0:0:
72,286,103104,1,2,3:2:0:0:
164,292,103187,2,0,P|216:277|258:292,1,85.0000016212464,8|0,3:2|0:0,0:0:0:0:
396,175,103354,2,0,P|344:190|302:175,1,85.0000016212464,2|0,3:2|0:0,0:0:0:0:
476,113,103520,5,8,3:2:0:0:
334,353,103687,1,2,3:2:0:0:
72,286,103854,2,0,P|56:284|39:292,1,30,2|0,3:2|0:0,0:0:0:0:
31,298,104187,5,0,3:2:0:0:
334,353,104354,1,2,3:2:0:0:
325,268,104437,1,2,3:2:0:0:
315,182,104520,1,8,3:2:0:0:
168,370,104687,1,10,3:2:0:0:
130,46,104854,6,0,L|140:149,1,85.0000016212464,8|2,3:2|3:2,0:0:0:0:
315,182,105020,2,0,L|304:77,1,85.0000016212464,10|10,3:2|3:2,0:0:0:0:
325,268,105187,1,2,3:2:0:0:
334,353,105354,1,2,3:2:0:0:
139,131,105520,6,0,L|317:95,1,170.000003242493,8|2,3:2|3:2,0:0:0:0:
376,76,105770,1,2,3:2:0:0:
449,52,105854,1,8,3:2:0:0:
203,237,106020,1,10,3:2:0:0:
45,19,106187,6,0,B|103:24|103:24|139:144,1,170.000003242493,8|10,3:2|3:2,0:0:0:0:
111,222,106437,1,8,3:2:0:0:
203,237,106520,2,0,B|207:295|207:295|327:331,1,170.000003242493,8|2,3:2|3:2,0:0:0:0:
464,331,106854,5,8,3:2:0:0:
390,273,106937,1,10,3:2:0:0:
314,327,107020,1,10,3:2:0:0:
482,203,107187,1,8,3:2:0:0:
376,76,107354,5,10,3:2:0:0:
430,140,107437,1,8,0:0:0:0:
481,202,107520,6,0,L|450:282,1,85.0000016212464,8|10,3:2|3:2,0:0:0:0:
430,140,107687,2,0,L|462:59,1,85.0000016212464,10|10,3:2|3:2,0:0:0:0:
345,164,107854,6,0,L|313:243,1,85.0000016212464,8|10,3:2|3:2,0:0:0:0:
257,99,108021,2,0,L|289:18,1,85.0000016212464,10|10,3:2|3:2,0:0:0:0:
203,237,108187,6,0,P|121:232|88:140,1,170.000003242493,8|2,3:2|3:2,0:0:0:0:
313,243,108520,2,0,P|283:309|293:352,1,112.500004291535,8|0,3:2|0:0,0:0:0:0:
464,331,108854,2,0,P|429:314|376:305,1,75,8|0,3:2|0:0,0:0:0:0:
290,345,109187,6,0,P|279:353|271:353,1,20,12|4,3:2|3:2,0:0:0:0:
