osu file format v14

[General]
AudioFilename: audio.mp3
AudioLeadIn: 0
PreviewTime: 40050
Countdown: 0
SampleSet: Soft
StackLeniency: 0.7
Mode: 0
LetterboxInBreaks: 0
WidescreenStoryboard: 1

[Editor]
Bookmarks: 3250,10450,16050,28850,35250,38450,40050,41650,52850,54450,67250,73650,80050,92850,99250,102450,104050,105650,118450,124850,132850,137650,144050
DistanceSpacing: 1
BeatDivisor: 4
GridSize: 8
TimelineZoom: 1

[Metadata]
Title:Daydream
TitleUnicode:Daydream
Artist:RiraN
ArtistUnicode:RiraN
Creator:Randy1235
Version:Mega
Source:Dynamix
Tags:Dynamix Daydream Hardstyle c4cat Electronic English
BeatmapID:1434812
BeatmapSetID:678575

[Difficulty]
HPDrainRate:6
CircleSize:5
OverallDifficulty:7
ApproachRate:9
SliderMultiplier:1.29999990463257
SliderTickRate:1

[Events]
//Background and Video events
0,0,"Daydream.jpg",0,0
//Break Periods
2,67250,79450
//Storyboard Layer 0 (Background)
//Storyboard Layer 1 (Fail)
//Storyboard Layer 2 (Pass)
//Storyboard Layer 3 (Foreground)
//Storyboard Sound Samples

[TimingPoints]
50,400,4,1,0,100,1,0
16050,-80,4,1,0,100,0,0
41450,-100,4,1,0,5,0,0
41650,-100,4,2,0,100,0,1
54250,-100,4,1,0,5,0,1
54450,-80,4,2,0,100,0,1
67050,-100,4,1,0,5,0,1
67250,-100,4,1,0,100,0,0
80050,-100,4,1,0,100,0,0
92850,-100,4,2,0,100,0,0
99250,-200,4,2,0,100,0,0
100050,-133.333333333333,4,2,0,100,0,0
100850,-100,4,2,0,100,0,0
101650,-80,4,2,0,100,0,0
102050,-100,4,2,0,100,0,0
105450,-100,4,1,0,5,0,0
105650,-66.6666666666667,4,2,0,100,0,1
132450,-200,4,2,0,100,0,1
132650,-66.6666666666667,4,2,0,100,0,1
144050,-100,4,1,0,100,0,0
146850,-100,4,1,0,5,0,0

[Colours]
Combo1 : 128,0,128
Combo2 : 0,0,255
Combo3 : 128,128,255
Combo4 : 0,0,160

[HitObjects]
240,104,3250,5,0,0:0:0:0:
184,184,3450,1,0,0:0:0:0:
280,152,3650,1,0,0:0:0:0:
184,120,3850,1,0,0:0:0:0:
240,200,4050,2,2,P|272:256|336:256,1,129.999990463257
424,88,4850,5,0,0:0:0:0:
328,56,5050,1,0,0:0:0:0:
288,144,5250,1,0,0:0:0:0:
376,184,5450,1,0,0:0:0:0:
320,264,5650,1,0,0:0:0:0:
400,296,5850,2,2,L|426:238,2,32.4999976158143
416,88,6450,5,0,0:0:0:0:
320,56,6650,1,0,0:0:0:0:
288,144,6850,1,0,0:0:0:0:
376,184,7050,1,0,0:0:0:0:
320,264,7250,2,2,P|288:296|200:288,1,129.999990463257
88,136,8050,5,0,0:0:0:0:
176,168,8250,1,0,0:0:0:0:
128,88,8450,1,0,0:0:0:0:
120,184,8650,1,0,0:0:0:0:
184,112,8850,2,2,P|256:72|304:80,1,129.999990463257
288,272,9650,5,8,0:0:0:0:
288,272,10050,1,8,0:0:0:0:
296,176,10250,5,0,0:0:0:0:
296,80,10450,2,0,P|240:80|208:96,1,64.9999952316285
144,120,10850,1,0,0:0:0:0:
192,208,11050,2,0,P|232:160|256:152,1,64.9999952316285
376,288,11650,1,0,0:0:0:0:
288,240,11850,2,0,L|224:192,1,64.9999952316285
160,144,12250,2,0,L|216:184,1,64.9999952316285
320,144,12850,5,8,0:0:0:0:
320,144,13250,1,8,0:0:0:0:
272,224,13450,5,0,0:0:0:0:
272,224,13550,1,0,0:0:0:0:
272,224,13650,2,0,P|224:264|192:272,2,64.9999952316285
208,184,14250,1,0,0:0:0:0:
120,208,14450,1,0,0:0:0:0:
56,152,14650,2,0,P|72:112|88:96,1,64.9999952316285
160,72,15050,1,0,0:0:0:0:
248,112,15250,1,0,0:0:0:0:
168,160,15450,1,0,0:0:0:0:
256,200,15650,1,0,0:0:0:0:
176,264,15850,2,0,L|200:296,1,32.4999976158143
240,336,16050,6,0,P|280:352|360:312,1,121.874991059303
336,144,16650,2,0,P|248:144|208:176,1,121.874991059303
288,240,17250,1,0,0:0:0:0:
80,224,17850,1,0,0:0:0:0:
144,208,18050,2,0,L|224:176,1,81.2499940395356
256,128,18450,1,0,0:0:0:0:
296,72,18650,1,0,0:0:0:0:
296,72,18750,1,0,0:0:0:0:
296,72,18850,2,0,P|368:72|400:96,1,81.2499940395356
416,120,19250,5,0,0:0:0:0:
416,200,19550,2,0,P|360:176|296:176,1,121.874991059303
128,224,20150,1,0,0:0:0:0:
216,192,20450,1,0,0:0:0:0:
416,56,21050,6,0,P|408:96|368:128,1,81.2499940395356
304,88,21450,2,0,P|264:128|264:168,1,81.2499940395356
240,232,21850,1,0,0:0:0:0:
240,232,21950,1,0,0:0:0:0:
240,232,22050,2,0,P|184:208|168:160,1,81.2499940395356
128,128,22450,1,0,0:0:0:0:
232,64,22750,1,0,0:0:0:0:
272,176,23050,1,0,0:0:0:0:
376,112,23350,1,0,0:0:0:0:
376,232,23650,1,0,0:0:0:0:
136,256,24250,6,0,P|136:208|160:176,1,81.2499940395356
160,104,24650,2,0,P|200:120|224:152,1,81.2499940395356
232,232,25050,1,0,0:0:0:0:
232,232,25150,1,0,0:0:0:0:
232,232,25250,2,0,P|232:272|176:320,1,81.2499940395356
152,248,25650,1,0,0:0:0:0:
64,328,25950,1,0,0:0:0:0:
184,344,26250,1,0,0:0:0:0:
88,264,26550,2,0,P|64:200|96:144,1,121.874991059303
304,56,27450,6,0,P|272:120|288:152,1,81.2499940395356
352,120,27850,2,0,P|344:168|320:192,1,81.2499940395356
248,216,28250,1,0,0:0:0:0:
248,216,28350,1,0,0:0:0:0:
248,216,28450,2,0,P|192:200|176:160,1,81.2499940395356
144,112,28850,5,2,0:0:0:0:
304,88,29250,1,2,0:0:0:0:
344,96,29350,1,0,0:0:0:0:
376,120,29450,2,0,P|408:152|416:200,1,81.2499940395356,0|2,0:0|0:0,0:0:0:0:
368,248,29850,1,8,0:0:0:0:
320,312,30050,1,10,0:0:0:0:
288,240,30250,1,8,0:0:0:0:
256,168,30450,6,0,P|240:96|208:80,1,81.2499940395356,2|0,0:0|0:0,0:0:0:0:
168,56,30850,1,2,0:0:0:0:
128,48,30950,1,0,0:0:0:0:
88,48,31050,2,0,P|40:88|40:136,1,81.2499940395356,0|2,0:0|0:0,0:0:0:0:
64,184,31450,1,8,0:0:0:0:
112,120,31650,1,10,0:0:0:0:
144,192,31850,1,8,0:0:0:0:
144,272,32050,5,2,0:0:0:0:
272,176,32450,1,2,0:0:0:0:
312,176,32550,1,0,0:0:0:0:
344,200,32650,2,0,P|368:240|368:280,1,81.2499940395356,0|2,0:0|0:0,0:0:0:0:
288,256,33050,1,8,0:0:0:0:
232,192,33250,1,10,0:0:0:0:
312,176,33450,1,8,0:0:0:0:
304,96,33650,6,0,P|368:96|384:120,1,81.2499940395356,2|0,0:0|0:0,0:0:0:0:
424,168,34050,1,2,0:0:0:0:
440,208,34150,1,0,0:0:0:0:
440,248,34250,2,0,P|416:288|384:304,1,81.2499940395356,0|2,0:0|0:0,0:0:0:0:
312,272,34650,1,8,0:0:0:0:
336,192,34850,1,10,0:0:0:0:
264,152,35050,1,8,0:0:0:0:
216,88,35250,2,0,P|144:64|112:80,1,81.2499940395356,2|0,0:0|0:0,0:0:0:0:
80,120,35650,5,2,0:0:0:0:
48,144,35750,1,0,0:0:0:0:
32,176,35850,2,0,P|24:232|40:264,1,81.2499940395356,0|2,0:0|0:0,0:0:0:0:
104,296,36250,1,8,0:0:0:0:
136,224,36450,1,10,0:0:0:0:
176,152,36650,1,8,0:0:0:0:
240,104,36850,6,0,P|280:96|288:152,1,81.2499940395356,2|0,0:0|0:0,0:0:0:0:
256,200,37250,1,2,0:0:0:0:
232,232,37350,1,0,0:0:0:0:
208,264,37450,2,0,P|224:320|264:328,1,81.2499940395356,0|2,0:0|0:0,0:0:0:0:
312,296,37850,1,8,0:0:0:0:
360,232,38050,1,10,0:0:0:0:
368,152,38250,1,8,0:0:0:0:
336,80,38450,6,0,P|288:56|248:56,1,81.2499940395356,2|0,0:0|0:0,0:0:0:0:
176,56,38850,1,2,0:0:0:0:
136,64,38950,1,0,0:0:0:0:
104,88,39050,2,0,P|72:128|72:168,1,81.2499940395356,0|2,0:0|0:0,0:0:0:0:
104,232,39450,5,0,0:0:0:0:
176,280,39650,1,2,0:0:0:0:
216,272,39750,1,0,0:0:0:0:
248,248,39850,2,0,P|272:208|272:176,1,40.6249970197678
256,192,40050,12,0,41450,0:0:0:0:
176,144,41650,5,2,0:0:0:0:
248,80,42050,1,2,0:0:0:0:
280,72,42150,1,0,0:0:0:0:
312,72,42250,1,0,0:0:0:0:
344,88,42350,1,0,0:0:0:0:
368,104,42450,1,2,0:0:0:0:
416,152,42650,2,0,P|448:192|448:232,1,64.9999952316285,0|2,0:0|0:0,0:0:0:0:
384,208,43050,1,0,0:0:0:0:
328,240,43250,6,0,P|304:200|280:184,1,64.9999952316285,2|0,0:0|0:0,0:0:0:0:
232,160,43650,1,2,0:0:0:0:
200,160,43750,1,0,0:0:0:0:
168,168,43850,1,0,0:0:0:0:
136,184,43950,1,0,0:0:0:0:
112,200,44050,1,2,0:0:0:0:
80,256,44250,2,0,P|88:288|128:304,1,64.9999952316285,0|2,0:0|0:0,0:0:0:0:
168,264,44650,1,0,0:0:0:0:
224,224,44850,5,2,0:0:0:0:
296,120,45250,1,2,0:0:0:0:
280,88,45350,1,0,0:0:0:0:
256,64,45450,1,0,0:0:0:0:
224,48,45550,1,0,0:0:0:0:
192,48,45650,1,2,0:0:0:0:
128,48,45850,2,0,P|96:80|96:112,1,64.9999952316285,0|2,0:0|0:0,0:0:0:0:
160,112,46250,1,0,0:0:0:0:
224,112,46450,6,0,P|272:80|304:80,1,64.9999952316285,2|0,0:0|0:0,0:0:0:0:
344,72,46850,1,2,0:0:0:0:
376,80,46950,1,0,0:0:0:0:
400,96,47050,1,0,0:0:0:0:
424,120,47150,1,0,0:0:0:0:
432,152,47250,1,2,0:0:0:0:
432,216,47450,2,4,P|416:272|392:280,1,64.9999952316285,4|4,3:0|3:0,3:0:0:0:
304,208,48050,5,2,0:0:0:0:
176,208,48450,1,2,0:0:0:0:
144,192,48550,1,0,0:0:0:0:
128,168,48650,1,0,0:0:0:0:
128,136,48750,1,0,0:0:0:0:
144,104,48850,1,2,0:0:0:0:
192,64,49050,2,0,P|240:56|256:64,2,64.9999952316285,0|2|0,0:0|0:0|0:0,0:0:0:0:
144,104,49650,2,0,P|120:160|128:176,1,64.9999952316285,2|0,0:0|0:0,0:0:0:0:
160,208,50050,5,2,0:0:0:0:
184,232,50150,1,0,0:0:0:0:
200,264,50250,1,0,0:0:0:0:
192,296,50350,1,0,0:0:0:0:
168,320,50450,1,2,0:0:0:0:
104,344,50650,2,0,P|64:352|32:336,2,64.9999952316285,0|2|0,0:0|0:0|0:0,0:0:0:0:
168,320,51250,5,2,0:0:0:0:
288,272,51650,1,2,0:0:0:0:
320,264,51750,1,0,0:0:0:0:
352,272,51850,1,0,0:0:0:0:
384,288,51950,1,0,0:0:0:0:
408,312,52050,1,2,0:0:0:0:
456,352,52250,2,0,P|480:328|480:296,2,64.9999952316285,0|2|0,0:0|0:0|0:0,0:0:0:0:
256,192,52850,12,0,54250,0:0:0:0:
176,176,54450,5,2,0:0:0:0:
192,48,54850,1,2,0:0:0:0:
224,56,54950,1,0,0:0:0:0:
256,72,55050,1,0,0:0:0:0:
280,88,55150,1,0,0:0:0:0:
304,112,55250,1,2,0:0:0:0:
344,168,55450,2,0,P|368:208|360:248,1,81.2499940395356,0|2,0:0|0:0,0:0:0:0:
328,312,55850,1,0,0:0:0:0:
384,248,56050,5,2,0:0:0:0:
448,200,56250,1,0,0:0:0:0:
440,136,56450,1,2,0:0:0:0:
408,120,56550,1,0,0:0:0:0:
384,96,56650,1,0,0:0:0:0:
368,72,56750,1,0,0:0:0:0:
360,40,56850,1,2,0:0:0:0:
312,88,57050,2,0,P|296:128|264:152,1,81.2499940395356,0|2,0:0|0:0,0:0:0:0:
208,192,57450,1,0,0:0:0:0:
128,176,57650,5,2,0:0:0:0:
208,32,58050,1,2,0:0:0:0:
224,64,58150,1,0,0:0:0:0:
232,104,58250,1,0,0:0:0:0:
224,144,58350,1,0,0:0:0:0:
208,184,58450,1,2,0:0:0:0:
160,248,58650,1,0,0:0:0:0:
80,240,58850,1,2,0:0:0:0:
40,168,59050,1,0,0:0:0:0:
80,96,59250,6,0,P|128:72|152:80,1,81.2499940395356,2|0,0:0|0:0,0:0:0:0:
224,120,59650,1,2,0:0:0:0:
256,144,59750,1,0,0:0:0:0:
280,176,59850,1,0,0:0:0:0:
288,216,59950,1,0,0:0:0:0:
280,256,60050,1,2,0:0:0:0:
224,320,60250,2,4,P|176:344|144:344,1,81.2499940395356,4|4,3:0|3:0,3:0:0:0:
216,192,60850,5,2,0:0:0:0:
304,328,61250,1,2,0:0:0:0:
336,304,61350,1,0,0:0:0:0:
360,272,61450,1,0,0:0:0:0:
376,240,61550,1,0,0:0:0:0:
384,200,61650,1,2,0:0:0:0:
376,120,61850,2,0,P|352:72|320:48,1,81.2499940395356,0|2,0:0|0:0,0:0:0:0:
288,128,62250,1,0,0:0:0:0:
344,192,62450,6,0,P|400:200|432:184,1,81.2499940395356,2|0,0:0|0:0,0:0:0:0:
472,128,62850,1,2,0:0:0:0:
456,88,62950,1,0,0:0:0:0:
432,56,63050,1,0,0:0:0:0:
392,40,63150,1,0,0:0:0:0:
352,40,63250,1,2,0:0:0:0:
280,72,63450,2,0,P|232:120|224:144,1,81.2499940395356,0|2,0:0|0:0,0:0:0:0:
208,208,63850,1,0,0:0:0:0:
248,280,64050,5,2,0:0:0:0:
368,328,64450,1,2,0:0:0:0:
384,296,64550,1,0,0:0:0:0:
384,256,64650,1,0,0:0:0:0:
360,224,64750,1,0,0:0:0:0:
328,200,64850,1,2,0:0:0:0:
256,168,65050,2,0,P|208:160|176:168,1,81.2499940395356,0|2,0:0|0:0,0:0:0:0:
256,192,65650,12,0,67050,0:0:0:0:
144,88,80050,6,0,P|104:120|104:176,1,97.4999928474428
256,232,80650,2,0,P|296:176|272:128,1,97.4999928474428
200,160,81250,1,0,0:0:0:0:
456,40,81850,6,0,P|432:64|400:72,1,64.9999952316285
344,88,82250,1,0,0:0:0:0:
280,96,82450,1,0,0:0:0:0:
216,88,82650,1,0,0:0:0:0:
216,88,82750,1,0,0:0:0:0:
216,88,82850,2,0,P|160:72|128:80,1,64.9999952316285
168,136,83250,6,0,P|200:168|208:232,1,97.4999928474428
80,304,83850,2,0,P|40:272|24:224,1,97.4999928474428
112,224,84450,1,0,0:0:0:0:
296,336,85050,6,0,P|248:320|224:288,1,64.9999952316285
208,256,85450,1,0,0:0:0:0:
200,192,85650,1,0,0:0:0:0:
208,128,85850,2,0,P|224:96|248:88,2,32.4999976158143
264,168,86250,1,0,0:0:0:0:
296,224,86450,6,0,P|368:256|392:256,1,97.4999928474428
440,96,87050,2,0,P|392:64|344:64,1,97.4999928474428
368,160,87650,1,0,0:0:0:0:
200,184,88250,2,0,P|192:232|216:264,1,64.9999952316285
240,296,88650,1,0,0:0:0:0:
304,296,88850,1,0,0:0:0:0:
336,240,89050,1,0,0:0:0:0:
336,208,89150,1,0,0:0:0:0:
328,176,89250,2,0,P|304:136|288:128,1,64.9999952316285
224,120,89650,6,0,P|248:80|296:64,1,97.4999928474428
384,96,90250,1,0,0:0:0:0:
432,184,90550,2,0,P|424:240|392:280,1,97.4999928474428
88,104,92850,5,0,0:0:0:0:
128,168,93150,1,0,0:0:0:0:
184,112,93450,1,0,0:0:0:0:
216,184,93750,1,0,0:0:0:0:
256,120,94050,2,0,B|277:133|277:133|278:122|284:117|284:117|299:136|321:139,1,64.9999952316285
328,176,94450,5,0,0:0:0:0:
296,264,94750,5,0,0:0:0:0:
376,208,95050,1,0,0:0:0:0:
280,208,95350,1,0,0:0:0:0:
360,264,95650,2,0,B|368:288|368:288|376:280|384:280|384:280|384:304|400:320,1,64.9999952316285
456,312,96050,5,0,0:0:0:0:
424,232,96350,1,0,0:0:0:0:
352,264,96650,1,0,0:0:0:0:
373,174,96950,1,0,0:0:0:0:
288,136,97250,2,0,B|280:120|280:120|272:120|264:128|264:128|264:112|256:96,1,64.9999952316285
176,80,97650,5,0,0:0:0:0:
88,176,97950,1,0,0:0:0:0:
216,160,98250,1,0,0:0:0:0:
104,104,98550,1,0,0:0:0:0:
152,224,98850,2,0,B|160:248|160:248|168:240|176:240|176:240|192:264,1,64.9999952316285
264,344,99250,6,0,P|296:328|312:312,1,48.7499964237214
328,296,99650,1,0,0:0:0:0:
408,304,99850,5,0,0:0:0:0:
424,224,100050,2,0,P|433:184|411:137,1,73.1249974250793
416,120,100450,1,0,0:0:0:0:
344,184,100650,5,0,0:0:0:0:
320,88,100850,2,0,P|265:33|227:25,1,97.4999928474428
216,16,101250,1,0,0:0:0:0:
232,104,101450,5,0,0:0:0:0:
152,72,101650,2,0,P|82:44|0:66,1,121.874991059303
24,56,102050,1,0,0:0:0:0:
40,152,102250,5,0,0:0:0:0:
136,160,102450,1,0,0:0:0:0:
152,56,102750,5,0,0:0:0:0:
176,80,102850,1,0,0:0:0:0:
320,72,103150,5,0,0:0:0:0:
288,96,103250,1,0,0:0:0:0:
224,216,103550,5,0,0:0:0:0:
224,184,103650,1,0,0:0:0:0:
256,192,104050,12,0,105450,0:0:0:0:
184,104,105650,5,0,0:0:0:0:
248,120,105850,1,0,0:0:0:0:
264,184,106050,1,0,0:0:0:0:
216,232,106250,1,0,0:0:0:0:
152,216,106450,1,0,0:0:0:0:
136,152,106650,1,0,0:0:0:0:
200,168,106850,1,0,0:0:0:0:
264,184,107050,2,0,P|312:200|368:208,1,97.4999965667725
416,192,107450,5,0,0:0:0:0:
464,152,107650,1,0,0:0:0:0:
440,88,107850,2,0,P|416:56|360:32,1,97.4999965667725
264,32,108250,2,0,P|232:32|200:48,2,48.7499982833862,0|0|0,3:0|3:0|3:0,3:0:0:0:
364,32,108650,1,0,0:0:0:0:
336,112,108850,1,0,0:0:0:0:
328,208,109050,5,0,0:0:0:0:
256,144,109250,1,0,0:0:0:0:
240,240,109450,1,0,0:0:0:0:
160,184,109650,1,0,0:0:0:0:
144,280,109850,1,0,0:0:0:0:
224,336,110050,1,0,0:0:0:0:
320,336,110250,2,0,P|369:327|404:290,1,97.4999965667725
424,200,110650,5,0,0:0:0:0:
440,104,110850,1,0,0:0:0:0:
352,152,111050,2,0,P|308:172|262:160,1,97.4999965667725
184,112,111450,1,0,3:0:0:0:
152,88,111550,1,0,3:0:0:0:
144,56,111650,2,0,P|128:40|56:32,1,97.4999965667725,0|0,3:0|0:0,0:0:0:0:
88,120,112050,5,0,0:0:0:0:
128,208,112250,1,0,0:0:0:0:
208,160,112450,1,0,0:0:0:0:
264,240,112650,1,0,0:0:0:0:
344,184,112850,1,0,0:0:0:0:
400,264,113050,1,0,0:0:0:0:
320,320,113250,1,0,0:0:0:0:
224,320,113450,2,0,L|120:320,1,97.4999965667725
32,272,113850,5,0,0:0:0:0:
120,224,114050,1,0,0:0:0:0:
24,208,114250,1,0,0:0:0:0:
96,280,114450,1,0,0:0:0:0:
80,184,114650,2,0,L|96:136,2,48.7499982833862,0|0|0,3:0|3:0|3:0,3:0:0:0:
96,280,115050,1,0,0:0:0:0:
192,248,115250,5,0,0:0:0:0:
160,160,115450,1,0,0:0:0:0:
72,208,115650,1,0,0:0:0:0:
160,304,115850,1,0,0:0:0:0:
216,192,116050,1,0,0:0:0:0:
104,128,116250,1,0,0:0:0:0:
32,256,116450,1,0,0:0:0:0:
160,224,116650,1,0,0:0:0:0:
304,112,117050,5,0,0:0:0:0:
392,64,117250,2,0,P|400:128|384:168,1,97.4999965667725
320,232,117650,1,0,0:0:0:0:
224,264,117850,1,0,3:0:0:0:
184,264,117950,1,0,3:0:0:0:
152,248,118050,2,0,B|96:216|96:216|120:216|136:208,1,97.4999965667725,0|0,3:0|0:0,0:0:0:0:
224,192,118450,6,0,P|272:176|304:128,1,97.4999965667725
216,96,118850,1,0,0:0:0:0:
312,112,119050,2,0,P|344:64|392:56,1,97.4999965667725
408,152,119450,1,0,0:0:0:0:
368,240,119650,2,0,P|328:208|312:160,1,97.4999965667725
216,176,120050,1,0,0:0:0:0:
304,136,120250,2,0,P|272:80|224:64,1,97.4999965667725
144,88,120650,2,0,P|112:144|120:192,1,97.4999965667725
232,328,121250,1,0,0:0:0:0:
360,184,121650,6,0,P|392:152|408:104,1,97.4999965667725
224,160,122250,2,0,P|176:224|224:320,1,194.999993133545
416,328,123050,6,0,B|272:336|240:224|328:192|344:128|272:8|224:-32|72:-48|-24:-8|72:288|256:288|240:8|320:16|368:64,1,779.99997253418
423,92,124850,2,0,P|399:148|359:172,1,97.4999965667725
285,78,125250,2,0,P|241:119|233:183,1,97.4999965667725
320,216,125650,2,2,B|248:128|321:123|384:128|384:72|336:24,1,194.999993133545
168,64,126450,2,0,P|120:104|104:144,1,97.4999965667725
136,232,126850,2,0,P|192:200|208:160,1,97.4999965667725
244,82,127250,1,0,0:0:0:0:
333,43,127450,2,2,P|373:27|411:36,2,48.7499982833862
168,64,128050,6,0,P|120:104|104:144,1,97.4999965667725
136,232,128450,2,0,P|192:200|208:160,1,97.4999965667725
241,81,128850,2,2,P|281:65|249:161,1,194.999993133545
160,288,129650,2,0,L|212:197,1,97.4999965667725
264,128,130050,2,0,L|320:224,1,97.4999965667725
360,296,130450,2,2,B|272:328|256:240|168:296,1,194.999993133545
217,137,131250,1,0,0:0:0:0:
212,214,131450,1,0,0:0:0:0:
280,240,131650,2,0,P|248:288|208:288,2,97.4999965667725
216,224,132450,2,0,L|184:192,1,32.4999976158143
152,160,132850,5,0,0:0:0:0:
312,56,133250,2,0,P|368:56|432:112,1,97.4999965667725
336,144,133650,1,0,0:0:0:0:
336,144,134050,1,0,0:0:0:0:
152,200,134450,6,2,P|144:144|168:104,1,97.4999965667725
288,264,134850,2,2,P|232:272|192:248,1,97.4999965667725
360,136,135250,2,2,P|368:184|344:224,1,97.4999965667725
224,72,135650,2,2,P|288:64|320:80,1,97.4999965667725
216,192,136050,6,2,P|240:264|272:280,1,97.4999965667725
288,200,136450,2,2,P|360:176|376:144,1,97.4999965667725
296,128,136850,2,2,P|272:56|240:40,1,97.4999965667725
224,128,137250,2,2,P|152:151|136:184,1,97.4999965667725
104,256,137650,6,0,P|136:296|184:312,1,97.4999965667725
264,264,138050,1,0,0:0:0:0:
360,288,138250,2,0,P|416:256|440:208,1,97.4999965667725
400,136,138650,1,0,0:0:0:0:
328,64,138850,2,0,L|256:136,1,97.4999965667725
192,208,139250,1,0,0:0:0:0:
192,208,139650,2,0,P|248:232|288:224,2,97.4999965667725
192,208,140450,1,0,0:0:0:0:
160,152,140850,6,2,P|152:104|176:64,1,97.4999965667725
248,128,141250,2,2,P|296:120|336:144,1,97.4999965667725
264,216,141650,2,2,P|272:264|248:304,1,97.4999965667725
176,240,142050,2,2,P|128:248|88:224,1,97.4999965667725
176,63,142450,6,2,P|120:55|80:79,1,97.4999965667725
336,144,142850,2,2,P|344:88|320:48,1,97.4999965667725
247,304,143250,2,2,P|295:312|335:288,1,97.4999965667725
87,223,143650,2,2,P|79:287|95:319,1,97.4999965667725
256,192,144050,12,0,146850,0:0:0:0:
