osu file format v14

[General]
AudioFilename: mahoiku.mp3
AudioLeadIn: 0
PreviewTime: 46383
Countdown: 0
SampleSet: Soft
StackLeniency: 0.7
Mode: 0
LetterboxInBreaks: 0
WidescreenStoryboard: 1

[Editor]
Bookmarks: 5230,81845
DistanceSpacing: 0.8
BeatDivisor: 4
GridSize: 4
TimelineZoom: 1.4

[Metadata]
Title:DESTRUCTION
TitleUnicode:DESTRUCTION
Artist:Ripple(CV:Numakura Manami)xTop Speed(CV:Uchiyama Yumi)
ArtistUnicode:リップル(CV:沼倉愛美)×トップスピード(CV:内山夕実)
Creator:xNyamx
Version:Insane
Source:魔法少女育成計画
Tags:mahou shoujo ikusei keikaku character song Musica Magica Shapy Narcissu Evanescent- InfiWong
BeatmapID:1172417
BeatmapSetID:552608

[Difficulty]
HPDrainRate:7
CircleSize:4
OverallDifficulty:7.8
ApproachRate:9.2
SliderMultiplier:1.7
SliderTickRate:1

[Events]
//Background and Video events
0,0,"BG.jpg",0,0
//Break Periods
//Storyboard Layer 0 (Background)
//Storyboard Layer 1 (Fail)
//Storyboard Layer 2 (Pass)
//Storyboard Layer 3 (Foreground)
//Storyboard Sound Samples

[TimingPoints]
307,307.692307692308,4,2,1,15,1,0
5230,-133.333333333333,4,2,1,15,0,0
13230,-200,4,2,1,20,0,0
13768,-200,4,2,1,5,0,0
13845,-200,4,2,1,20,0,0
14383,-200,4,2,1,5,0,0
14460,-200,4,2,1,20,0,0
14999,-200,4,2,1,5,0,0
15076,-133.333333333333,4,2,1,40,0,0
15537,-133.333333333333,4,2,1,20,0,0
17537,-133.333333333333,4,2,1,40,0,0
17999,-133.333333333333,4,2,1,20,0,0
19999,-133.333333333333,4,2,1,40,0,0
20460,-133.333333333333,4,2,1,20,0,0
22460,-133.333333333333,4,2,1,40,0,0
24153,-133.333333333333,4,2,1,5,0,0
24307,-100,4,2,1,50,0,0
24768,-100,4,2,1,70,0,0
47076,-100,4,2,1,70,0,1
71076,-161.290322580645,4,2,1,70,0,1
71383,-161.290322580645,4,2,1,40,0,1
71537,-100,4,2,1,70,0,0

[Colours]
Combo1 : 255,149,255
Combo2 : 0,13,130
Combo3 : 255,149,62
Combo4 : 38,0,77

[HitObjects]
51,77,5230,6,0,P|54:144|65:226,1,127.500004863739
125,277,5691,2,0,P|121:312|114:350,1,63.7500024318696
213,246,5999,2,0,P|218:214|227:171,1,63.7500024318696
296,307,6307,2,0,P|392:242|289:267,1,318.750012159348
107,353,7383,5,0,0:0:0:0:
168,287,7537,1,0,0:0:0:0:
111,213,7691,2,0,P|82:213|29:220,1,63.7500024318696
187,155,7999,1,0,0:0:0:0:
261,215,8153,2,0,P|266:236|262:282,1,63.7500024318696
337,347,8460,2,0,P|353:306|354:268,1,63.7500024318696
417,218,8768,2,0,P|452:213|487:211,1,63.7500024318696
368,133,9076,6,0,P|297:140|220:127,1,127.500004863739
151,75,9537,2,0,P|147:102|144:146,1,63.7500024318696
183,229,9845,1,0,0:0:0:0:
46,303,10153,1,0,0:0:0:0:
167,358,10460,6,0,L|256:352,1,63.7500024318696
324,254,10768,2,0,L|251:262,1,63.7500024318696
125,199,11076,2,0,L|206:192,1,63.7500024318696
286,113,11383,5,0,0:0:0:0:
371,156,11537,1,0,0:0:0:0:
439,106,11691,1,0,0:0:0:0:
512,156,11845,2,0,P|514:189|511:225,1,63.7500024318696
453,295,12153,2,0,P|419:302|377:300,1,63.7500024318696
311,354,12460,2,0,P|298:266|313:158,1,191.250007295609
101,65,13230,6,0,B|208:39|208:39|253:56,1,148.75
223,99,13845,6,0,B|219:205|219:205|258:170,1,148.75
296,174,14460,6,0,B|395:153|395:153|446:188,1,148.75
434,256,15076,5,2,0:0:0:0:
357,332,15230,1,2,0:0:0:0:
252,282,15383,1,2,0:0:0:0:
148,343,15537,2,0,L|155:279,1,63.7500024318696
56,244,15845,2,0,L|65:171,1,63.7500024318696
136,96,16153,2,0,P|246:97|137:131,1,318.750012159348
229,275,17230,6,0,P|262:280|311:266,1,63.7500024318696
440,248,17537,1,2,0:0:0:0:
357,329,17691,1,2,0:0:0:0:
398,168,17845,1,2,0:0:0:0:
303,73,17999,2,0,P|271:74|232:79,1,63.7500024318696
151,144,18306,2,0,P|152:172|159:216,1,63.7500024318696
268,273,18614,6,0,P|267:237|256:193,1,63.7500024318696
177,347,18922,2,0,P|108:354|26:342,1,127.500004863739
1,241,19383,2,0,P|38:237|86:243,1,63.7500024318696
186,264,19691,1,0,0:0:0:0:
341,345,19999,5,2,0:0:0:0:
409,260,20153,1,2,0:0:0:0:
336,160,20307,2,0,P|304:158|258:168,1,63.7500024318696,2|0,0:0|0:0,0:0:0:0:
434,93,20614,2,0,P|435:131|428:172,1,63.7500024318696
409,260,20922,2,0,P|378:265|324:255,1,63.7500024318696
272,163,21230,5,0,0:0:0:0:
220,260,21383,1,0,0:0:0:0:
156,183,21537,1,0,0:0:0:0:
86,242,21691,2,0,P|54:250|4:242,1,63.7500024318696
142,330,21999,2,0,P|174:335|218:332,1,63.7500024318696
309,309,22307,1,0,0:0:0:0:
421,341,22460,5,2,0:0:0:0:
350,230,22614,1,2,0:0:0:0:
429,125,22768,1,2,0:0:0:0:
256,192,22845,12,0,24153,0:0:0:0:
54,114,24307,5,8,0:0:0:0:
90,131,24383,1,8,0:0:0:0:
129,132,24460,1,8,0:0:0:0:
169,121,24537,1,8,0:0:0:0:
197,93,24614,1,8,0:0:0:0:
439,66,24922,6,0,P|437:112|431:156,1,85,6|0,0:0|0:0,0:0:0:0:
372,299,25230,1,8,0:0:0:0:
464,252,25383,1,0,0:0:0:0:
349,372,25537,2,0,P|301:378|258:372,1,85,2|2,0:0|0:0,0:0:0:0:
183,308,25845,1,8,0:0:0:0:
74,366,25999,6,0,P|65:326|65:275,1,85,2|2,0:0|0:0,0:0:0:0:
111,143,26307,1,0,0:0:0:0:
29,212,26460,1,8,0:0:0:0:
184,194,26614,2,0,P|195:145|193:102,1,85,2|0,0:0|0:0,0:0:0:0:
158,20,26922,1,2,0:0:0:0:
301,93,27076,1,8,0:0:0:0:
301,93,27153,1,8,0:0:0:0:
301,93,27230,1,8,0:0:0:0:
444,17,27383,6,0,P|451:103|428:207,1,170,6|8,0:0|0:0,0:0:0:0:
347,256,27845,1,2,0:0:0:0:
487,315,27999,2,0,P|390:293|301:333,1,170,2|8,0:0|0:0,0:0:0:0:
230,365,28460,1,2,0:0:0:0:
262,233,28614,5,2,0:0:0:0:
150,291,28768,1,8,0:0:0:0:
135,259,28845,1,8,0:0:0:0:
124,226,28922,1,8,0:0:0:0:
122,191,28999,1,8,0:0:0:0:
125,157,29076,1,8,0:0:0:0:
134,124,29153,1,8,0:0:0:0:
151,94,29230,2,0,P|201:82|264:77,1,85,10|0,0:0|0:0,0:0:0:0:
328,90,29537,1,8,0:0:0:0:
466,155,29691,6,0,P|479:112|476:50,1,85,6|0,0:0|0:0,0:0:0:0:
389,239,29999,1,2,0:0:0:0:
485,322,30153,2,0,P|444:337|396:335,1,85,8|0,0:0|0:0,0:0:0:0:
278,292,30460,1,2,0:0:0:0:
167,336,30614,1,2,0:0:0:0:
59,283,30768,2,0,P|48:234|49:186,1,85,8|0,0:0|0:0,0:0:0:0:
186,73,31076,5,2,0:0:0:0:
131,229,31230,1,2,0:0:0:0:
83,103,31383,1,8,0:0:0:0:
228,218,31537,1,0,0:0:0:0:
405,156,31691,2,0,P|413:94|405:47,1,85,2|2,0:0|0:0,0:0:0:0:
330,12,31999,1,8,0:0:0:0:
285,4,32076,1,8,0:0:0:0:
240,3,32153,1,8,0:0:0:0:
197,9,32230,1,8,0:0:0:0:
165,29,32307,6,0,P|161:67|174:146,1,85,6|0,0:0|0:0,0:0:0:0:
228,261,32614,1,8,0:0:0:0:
181,351,32768,2,0,P|134:359|74:357,1,85,2|0,0:0|0:0,0:0:0:0:
14,283,33076,2,0,L|25:178,1,85,2|8,0:0|0:0,0:0:0:0:
126,62,33383,6,0,L|109:256,1,170,2|8,0:0|0:0,0:0:0:0:
121,259,33768,1,8,0:0:0:0:
136,288,33845,2,8,L|164:244,1,42.5
237,168,33999,2,8,L|225:103,1,42.5
307,295,34153,1,8,0:0:0:0:
343,322,34230,1,8,0:0:0:0:
389,336,34307,1,8,0:0:0:0:
439,336,34383,1,8,0:0:0:0:
480,313,34460,2,0,P|487:275|479:217,1,85,8|0,0:0|0:0,0:0:0:0:
399,82,34768,6,0,P|353:73|304:88,1,85,6|0,0:0|0:0,0:0:0:0:
241,172,35076,1,8,0:0:0:0:
359,156,35230,1,0,0:0:0:0:
209,259,35383,1,8,0:0:0:0:
373,254,35537,1,0,0:0:0:0:
185,346,35691,6,0,P|128:289|152:184,1,170,8|0,0:0|0:0,0:0:0:0:
233,100,36153,1,2,0:0:0:0:
272,89,36230,1,2,0:0:0:0:
315,86,36307,1,2,0:0:0:0:
361,94,36383,1,2,0:0:0:0:
400,116,36460,1,2,0:0:0:0:
453,248,36614,1,2,0:0:0:0:
305,212,36768,1,2,0:0:0:0:
211,338,36922,1,2,0:0:0:0:
211,338,36999,1,2,0:0:0:0:
211,338,37076,1,2,0:0:0:0:
74,265,37230,6,0,P|67:210|71:173,1,85,6|0,0:0|0:0,0:0:0:0:
157,68,37537,1,8,0:0:0:0:
219,201,37691,1,2,0:0:0:0:
323,41,37845,1,8,0:0:0:0:
347,218,37999,1,2,0:0:0:0:
486,95,38153,6,0,P|500:156|471:277,1,170,8|0,0:0|0:0,0:0:0:0:
360,347,38614,1,2,0:0:0:0:
310,353,38691,1,2,0:0:0:0:
267,343,38768,1,2,0:0:0:0:
228,321,38845,1,2,0:0:0:0:
205,281,38922,1,2,0:0:0:0:
287,142,39076,1,2,0:0:0:0:
143,210,39230,1,2,0:0:0:0:
234,69,39383,1,2,0:0:0:0:
234,69,39460,1,2,0:0:0:0:
234,69,39537,1,2,0:0:0:0:
386,148,39691,6,0,P|390:192|383:251,1,85,6|0,0:0|0:0,0:0:0:0:
332,336,39999,1,8,0:0:0:0:
467,256,40153,1,0,0:0:0:0:
313,189,40307,2,0,P|308:136|312:86,1,85,2|2,0:0|0:0,0:0:0:0:
347,14,40614,1,8,0:0:0:0:
220,59,40768,6,0,P|180:68|118:68,1,85,2|0,0:0|0:0,0:0:0:0:
31,8,41076,2,0,L|43:104,1,85,2|8,0:0|0:0,0:0:0:0:
63,236,41383,2,0,P|159:183|237:223,1,170,2|2,0:0|0:0,0:0:0:0:
308,276,41845,1,8,0:0:0:0:
184,327,41999,1,2,0:0:0:0:
326,375,42153,6,0,P|364:379|445:368,1,85,6|0,0:0|0:0,0:0:0:0:
494,243,42460,1,8,0:0:0:0:
446,98,42614,1,2,0:0:0:0:
312,170,42768,2,0,P|263:182|216:176,1,85,2|0,0:0|0:0,0:0:0:0:
143,60,43076,1,8,0:0:0:0:
44,181,43230,1,2,0:0:0:0:
145,307,43383,6,0,P|153:252|147:206,1,85,2|0,0:0|0:0,0:0:0:0:
73,354,43691,1,8,0:0:0:0:
228,298,43845,1,2,0:0:0:0:
367,373,43999,2,0,P|379:322|374:264,1,85,2|0,0:0|0:0,0:0:0:0:
332,192,44307,1,8,0:0:0:0:
452,73,44460,1,2,0:0:0:0:
266,104,44614,5,2,0:0:0:0:
496,300,44922,1,2,0:0:0:0:
112,212,45230,1,2,0:0:0:0:
151,309,45383,1,2,0:0:0:0:
316,150,45691,1,2,0:0:0:0:
380,73,45845,6,0,B|412:63|412:63|448:78,4,42.5,2|2|2|2|2,0:0|0:0|0:0|0:0|0:0,0:0:0:0:
270,89,47076,6,0,P|328:47|419:78,1,170,6|8,0:0|0:0,0:0:0:0:
431,214,47537,1,0,0:0:0:0:
369,302,47691,2,0,P|320:310|267:299,1,85,2|2,0:0|0:0,0:0:0:0:
138,232,47999,1,8,0:0:0:0:
196,371,48153,1,2,0:0:0:0:
226,208,48307,5,2,0:0:0:0:
137,315,48460,1,0,0:0:0:0:
18,228,48614,2,0,B|12:196|12:196|20:144,1,85,8|0,0:0|0:0,0:0:0:0:
132,24,48922,2,0,P|175:16|219:22,1,85,2|0,0:0|0:0,0:0:0:0:
371,46,49230,1,8,0:0:0:0:
458,224,49383,6,0,P|481:143|454:49,1,170,6|0,0:0|0:0,0:0:0:0:
319,206,49845,2,0,P|273:213|221:202,1,85,8|0,0:0|0:0,0:0:0:0:
170,55,50153,1,2,0:0:0:0:
276,129,50307,1,2,0:0:0:0:
141,203,50460,2,0,B|102:212|102:212|40:202,1,85,8|0,0:0|0:0,0:0:0:0:
276,129,50768,5,2,0:0:0:0:
351,281,50922,1,8,0:0:0:0:
351,281,50999,1,8,0:0:0:0:
351,281,51076,1,8,0:0:0:0:
477,202,51230,2,0,B|484:176|484:176|472:112,1,85,2|0,0:0|0:0,0:0:0:0:
342,31,51537,2,0,B|385:38|385:38|427:30,1,85,2|8,0:0|0:0,0:0:0:0:
260,137,51845,6,0,L|244:258,1,85,6|0,0:0|0:0,0:0:0:0:
93,312,52153,1,0,0:0:0:0:
155,175,52307,1,8,0:0:0:0:
167,361,52460,1,2,0:0:0:0:
25,226,52614,1,0,0:0:0:0:
210,277,52768,1,0,0:0:0:0:
71,160,52922,1,8,0:0:0:0:
261,127,53076,1,2,0:0:0:0:
143,25,53230,6,0,B|136:51|136:51|153:131,1,85,2|0,0:0|0:0,0:0:0:0:
341,187,53537,2,0,B|358:125|358:125|348:89,1,85,8|0,0:0|0:0,0:0:0:0:
192,238,53845,1,2,0:0:0:0:
360,280,53999,1,8,0:0:0:0:
360,280,54076,1,8,0:0:0:0:
360,280,54153,1,8,0:0:0:0:
244,144,54307,6,0,P|200:122|81:172,1,170,6|0,0:0|0:0,0:0:0:0:
314,217,54768,2,0,P|329:172|336:123,1,85,8|0,0:0|0:0,0:0:0:0:
403,272,55076,2,0,P|407:314|421:382,1,85,2|2,0:0|0:0,0:0:0:0:
443,180,55383,1,8,0:0:0:0:
328,330,55537,1,0,0:0:0:0:
248,157,55691,5,2,0:0:0:0:
406,67,55845,1,8,0:0:0:0:
406,67,55922,1,8,0:0:0:0:
406,67,55999,1,8,0:0:0:0:
291,227,56153,2,0,B|249:235|249:235|177:223,1,85,6|0,0:0|0:0,0:0:0:0:
84,48,56460,1,2,0:0:0:0:
28,172,56614,2,0,P|28:212|39:263,1,85,8|2,0:0|0:0,0:0:0:0:
126,367,56922,6,0,P|186:333|290:353,1,170,6|8,0:0|0:0,0:0:0:0:
404,380,57383,1,0,0:0:0:0:
506,303,57537,2,0,B|520:244|520:244|505:210,1,85,2|2,0:0|0:0,0:0:0:0:
414,135,57845,2,0,P|366:129|316:147,1,85,8|0,0:0|0:0,0:0:0:0:
246,285,58153,5,2,0:0:0:0:
375,213,58307,1,0,0:0:0:0:
254,105,58460,2,0,B|210:99|210:99|156:116,1,85,8|0,0:0|0:0,0:0:0:0:
88,266,58768,1,2,0:0:0:0:
215,185,58922,1,2,0:0:0:0:
78,125,59076,1,8,0:0:0:0:
14,299,59229,6,0,P|83:310|184:308,1,170,6|0,0:0|0:0,0:0:0:0:
346,261,59691,2,0,P|303:263|255:269,1,85,8|0,0:0|0:0,0:0:0:0:
428,319,59999,1,2,0:0:0:0:
329,168,60153,1,2,0:0:0:0:
424,234,60306,2,0,P|459:236|509:232,1,85,8|0,0:0|0:0,0:0:0:0:
329,168,60614,5,2,0:0:0:0:
463,123,60768,1,8,0:0:0:0:
463,123,60845,1,8,0:0:0:0:
463,123,60922,1,8,0:0:0:0:
339,40,61076,2,0,B|297:28|244:42,1,85,2|0,0:0|0:0,0:0:0:0:
145,95,61383,2,0,B|134:39|134:39|144:12,1,85,2|8,0:0|0:0,0:0:0:0:
253,159,61691,6,0,L|242:248,1,85,6|0,0:0|0:0,0:0:0:0:
325,362,61999,1,0,0:0:0:0:
396,253,62153,1,8,0:0:0:0:
244,320,62306,1,2,0:0:0:0:
406,344,62460,1,0,0:0:0:0:
475,200,62614,1,0,0:0:0:0:
333,289,62768,1,8,0:0:0:0:
266,135,62922,1,2,0:0:0:0:
475,200,63076,6,0,B|431:207|431:207|371:199,1,85,2|0,0:0|0:0,0:0:0:0:
350,52,63383,2,0,B|392:42|392:42|457:54,1,85,8|0,0:0|0:0,0:0:0:0:
259,206,63691,1,2,0:0:0:0:
137,91,63845,1,8,0:0:0:0:
137,91,63922,1,8,0:0:0:0:
137,91,63999,1,8,0:0:0:0:
173,297,64153,6,0,P|274:311|347:270,1,170,6|0,0:0|0:0,0:0:0:0:
411,345,64614,2,0,P|429:297|433:251,1,85,8|0,0:0|0:0,0:0:0:0:
389,107,64922,2,0,P|374:144|366:203,1,85,2|2,0:0|0:0,0:0:0:0:
433,263,65229,1,8,0:0:0:0:
478,181,65383,1,0,0:0:0:0:
332,283,65537,5,2,0:0:0:0:
257,133,65691,1,8,0:0:0:0:
257,133,65768,1,8,0:0:0:0:
257,133,65845,1,8,0:0:0:0:
336,43,65999,2,0,B|375:34|375:34|424:47,1,85,6|0,0:0|0:0,0:0:0:0:
492,222,66307,1,2,0:0:0:0:
422,328,66460,2,0,P|363:335|309:314,1,85,8|2,0:0|0:0,0:0:0:0:
272,252,66768,5,6,0:0:0:0:
227,361,66922,1,2,0:0:0:0:
219,172,67076,1,0,0:0:0:0:
376,257,67230,1,8,0:0:0:0:
173,286,67383,1,0,0:0:0:0:
332,185,67537,1,2,0:0:0:0:
218,52,67691,1,8,0:0:0:0:
276,236,67845,1,2,0:0:0:0:
383,71,67999,5,2,0:0:0:0:
409,68,68076,1,2,0:0:0:0:
442,66,68153,1,2,0:0:0:0:
497,166,68307,1,8,0:0:0:0:
420,293,68460,1,2,0:0:0:0:
349,231,68614,2,0,P|351:185|358:134,1,85,2|0,0:0|0:0,0:0:0:0:
216,53,68922,1,8,0:0:0:0:
83,167,69076,6,0,P|155:194|257:177,1,170,6|0,0:0|0:0,0:0:0:0:
356,147,69537,1,2,0:0:0:0:
274,266,69691,1,2,0:0:0:0:
427,184,69845,1,2,0:0:0:0:
245,182,69999,1,2,0:0:0:0:
410,277,70153,1,2,0:0:0:0:
201,298,70307,1,2,0:0:0:0:
388,375,70460,1,2,0:0:0:0:
315,122,70768,5,4,0:3:0:0:
237,189,70922,1,4,0:3:0:0:
206,216,71076,2,0,B|182:221|182:221|147:207|147:207|115:215|115:215|89:197,1,105.399995818482,6|4,0:0|0:0,0:0:0:0:
58,309,71537,6,0,P|129:354|227:311,1,170,6|0,0:0|0:0,0:0:0:0:
292,279,71999,2,0,P|300:319|293:370,1,85,8|0,0:0|0:0,0:0:0:0:
256,164,72307,1,2,0:0:0:0:
360,219,72460,2,0,P|406:230|465:221,1,85,2|8,0:0|0:0,0:0:0:0:
256,164,72768,1,0,0:0:0:0:
367,117,72922,6,0,P|376:73|371:22,1,85,2|0,0:0|0:0,0:0:0:0:
256,164,73230,1,8,0:0:0:0:
156,74,73383,1,0,0:0:0:0:
84,205,73537,2,0,B|45:211|45:211|-25:196,2,85,2|2|8,0:0|0:0|0:0,0:0:0:0:
181,337,73999,6,0,P|240:347|366:330,1,170,6|0,0:0|0:0,0:0:0:0:
467,237,74461,2,0,P|422:237|372:247,1,85,8|0,0:0|0:0,0:0:0:0:
288,206,74769,1,2,0:0:0:0:
129,157,74922,2,0,P|178:146|244:148,1,85,2|8,0:0|0:0,0:0:0:0:
288,206,75230,1,0,0:0:0:0:
377,128,75384,6,0,P|379:89|368:35,1,85,2|0,0:0|0:0,0:0:0:0:
288,206,75691,1,8,0:0:0:0:
362,312,75845,1,0,0:0:0:0:
227,371,75999,2,0,B|194:378|194:378|120:368,2,85,2|2|8,0:0|0:0|0:0,0:0:0:0:
362,312,76460,6,0,P|382:234|358:126,1,170,6|0,0:0|0:0,0:0:0:0:
264,77,76922,2,0,P|217:74|157:87,1,85,8|0,0:0|0:0,0:0:0:0:
46,209,77230,1,2,0:0:0:0:
185,167,77383,2,0,P|232:162|286:171,1,85,2|8,0:0|0:0,0:0:0:0:
396,294,77691,1,0,0:0:0:0:
268,256,77845,6,0,P|220:252|166:263,1,85,2|0,0:0|0:0,0:0:0:0:
62,382,78153,1,8,0:0:0:0:
219,329,78306,1,0,0:0:0:0:
96,203,78460,2,0,B|87:169|87:169|82:112,2,85,2|2|8,0:0|0:0|0:0,0:0:0:0:
196,42,78922,6,0,P|279:16|381:35,1,170,6|0,0:0|0:0,0:0:0:0:
455,103,79384,2,0,P|463:136|457:192,1,85,8|0,0:0|0:0,0:0:0:0:
379,251,79692,1,2,0:0:0:0:
286,349,79845,2,0,P|330:352|396:338,1,85,2|8,0:0|0:0,0:0:0:0:
199,274,80153,1,0,0:0:0:0:
96,379,80307,6,0,P|89:334|88:289,1,85,2|8,0:0|0:0,0:0:0:0:
87,294,80537,1,2,0:0:0:0:
87,294,80615,1,8,0:0:0:0:
123,166,80768,1,8,0:0:0:0:
199,274,80922,1,2,0:0:0:0:
242,290,80999,1,2,0:0:0:0:
291,293,81076,1,2,0:0:0:0:
338,284,81153,1,2,0:0:0:0:
377,256,81230,1,8,0:0:0:0:
386,123,81383,1,8,0:0:0:0:
278,207,81537,5,2,0:0:0:0:
482,358,81845,1,2,0:0:0:0:
