osu file format v14

[General]
AudioFilename: audio.mp3
AudioLeadIn: 0
PreviewTime: 46370
Countdown: 0
SampleSet: None
StackLeniency: 0.7
Mode: 0
LetterboxInBreaks: 0
WidescreenStoryboard: 1

[Editor]
Bookmarks: 5370,12293,13370,13985,15216,18139,18293,18447,18600,18754,24447,26139,26447,26754,27985,29216,29370,29831,32139,32447,34139,34293,34600,36600,40908,41677,42293,42908,43216,43523,43831,44139,46908,46985,47062,47139,47216,51985,57062,57523,66908,69139,69216,69293,69370,71216,72447,73062,73677,74139,76600,79062,80447,81370,81677
DistanceSpacing: 0.4
BeatDivisor: 4
GridSize: 4
TimelineZoom: 1.5

[Metadata]
Title:DESTRUCTION
TitleUnicode:DESTRUCTION
Artist:Ripple(CV.Numakura Manami)xTop Speed(CV.Uchiyama Yumi)
ArtistUnicode:リップル(CV.沼倉愛美)×トップスピード(CV.内山夕実)
Creator:Yuuya_ke
Version:Insane
Source:魔法少女育成計画
Tags:shogunmoon shunao -Laura- akitoshi corinn _kotachi_ mahou shoujo ikusei keikaku magical girl raising project まほいく mahoiku musica magica character song キャラソン キャラクターソング集 篠崎あやと shinozaki ayato
BeatmapID:1385644
BeatmapSetID:646022

[Difficulty]
HPDrainRate:5.5
CircleSize:3.7
OverallDifficulty:7.7
ApproachRate:8.6
SliderMultiplier:1.5
SliderTickRate:2

[Events]
//Background and Video events
0,0,"myangelripple.png",0,0
//Break Periods
//Storyboard Layer 0 (Background)
//Storyboard Layer 1 (Fail)
//Storyboard Layer 2 (Pass)
//Storyboard Layer 3 (Foreground)
//Storyboard Sound Samples

[TimingPoints]
447,307.692307692308,4,3,55,60,1,0
523,-133.333333333333,4,1,1,5,0,0
600,-133.333333333333,4,3,1,60,0,0
11139,-133.333333333333,4,3,1,5,0,0
11216,-133.333333333333,4,3,1,60,0,0
13677,-133.333333333333,4,3,1,5,0,0
13754,-133.333333333333,4,3,1,60,0,0
13908,-133.333333333333,4,3,1,5,0,0
13985,-133.333333333333,4,3,1,60,0,0
14293,-133.333333333333,4,3,1,5,0,0
14370,-133.333333333333,4,3,1,60,0,0
14523,-133.333333333333,4,3,1,5,0,0
14600,-133.333333333333,4,3,1,60,0,0
15216,-114.942528735632,4,3,1,70,0,0
19754,-114.942528735632,4,3,1,5,0,0
19831,-114.942528735632,4,3,1,70,0,0
25062,-100,4,3,66,85,0,0
25139,-100,4,3,1,85,0,0
34831,-100,4,3,1,5,0,0
34908,-100,4,3,1,85,0,0
47216,-90.9090909090909,4,3,1,90,0,1
56985,-90.9090909090909,4,3,1,5,0,0
57062,-90.9090909090909,4,3,1,90,0,1
66831,-90.9090909090909,4,3,1,90,0,0
66908,-90.9090909090909,4,3,1,90,0,1
70677,-90.9090909090909,4,3,1,5,0,1
70754,-90.9090909090909,4,3,1,90,0,1
71677,-100,4,3,1,90,0,0
81600,-100,4,3,1,5,0,0
81677,-100,4,3,1,90,0,0

[Colours]
Combo1 : 255,151,248
Combo2 : 135,63,254
Combo3 : 186,10,94
SliderTrackOverride : 58,12,54
SliderBorder : 255,240,253

[HitObjects]
321,133,447,6,0,L|317:179,1,37.5,4|0,0:0|0:0,0:0:0:0:
256,192,600,12,0,5062,0:0:0:0:
276,171,5370,6,0,L|269:249,2,56.2500021457673
205,117,5831,2,0,P|268:82|324:95,2,112.500004291535
205,117,6754,6,0,L|75:105,1,112.500004291535
44,182,7216,1,0,0:0:0:0:
44,182,7523,2,0,L|49:241,1,56.2500021457673
141,285,7831,6,0,L|135:344,2,56.2500021457673
129,203,8293,2,0,B|189:190|188:239|242:231,2,112.500004291535
129,203,9216,6,0,P|179:172|185:102,1,112.500004291535
166,33,9677,1,0,0:0:0:0:
166,33,9985,2,0,P|197:42|228:39,1,56.2500021457673
327,87,10293,6,0,L|321:147,1,56.2500021457673
264,205,10600,2,0,L|269:265,1,56.2500021457673
239,123,10908,2,0,P|195:154|178:195,1,84.3750032186509
136,171,11216,2,0,P|155:202|162:236,1,56.2500021457673
112,298,11523,6,0,L|250:285,1,112.500004291535
297,333,11985,2,0,B|318:299|309:264,1,56.2500021457673
299,196,12293,2,0,P|351:202|395:247,1,112.500004291535
442,152,12754,6,0,L|447:89,2,56.2500021457673
358,93,13216,1,0,0:0:0:0:
358,93,13370,6,0,B|251:85|289:159|169:139,1,196.875007510186
176,53,13985,6,0,P|113:80|118:205,1,196.875007510186
189,223,14600,6,0,B|248:232|248:232|291:201|291:201,1,112.500004291535
290,201,15216,5,0,0:0:0:0:
318,296,15370,1,8,0:0:0:0:
449,205,15523,1,2,0:0:0:0:
449,205,15677,2,0,L|462:53,2,130.5000010952
449,205,16600,6,0,B|451:171|451:171|404:154|352:180,1,130.5000010952
382,271,17062,1,0,0:0:0:0:
382,271,17370,2,0,P|345:275|315:265,1,65.2500005475998
211,292,17677,5,8,0:0:0:0:
192,192,17831,1,8,0:0:0:0:
357,177,17985,1,2,0:0:0:0:
357,177,18139,2,0,L|440:169,1,65.2500005475998
257,197,18447,2,0,L|173:189,1,65.2500005475998
325,274,18754,6,0,P|321:306|328:338,1,65.2500005475998
232,308,19062,2,0,P|154:300|120:254,1,130.5000010952
95,167,19523,2,0,L|217:156,1,97.8750008213997
188,176,19831,2,0,L|264:182,1,65.2500005475998
301,260,20139,5,8,0:0:0:0:
338,144,20293,1,8,0:0:0:0:
384,315,20447,2,0,P|373:345|350:368,1,65.2500005475998,2|0,0:0|0:0,0:0:0:0:
401,225,20754,1,0,0:0:0:0:
401,225,21062,2,0,L|407:295,1,65.2500005475998
492,192,21370,6,0,P|443:142|367:138,1,130.5000010952
345,71,21831,2,0,B|332:211,2,130.5000010952
281,0,22600,5,8,0:0:0:0:
251,90,22754,1,8,0:0:0:0:
117,38,22908,1,2,0:0:0:0:
154,137,23062,6,0,P|160:181|102:245,1,130.5000010952
62,303,23523,2,0,P|97:275|181:294,1,130.5000010952
252,300,23985,2,0,B|196:267|196:267|182:202,1,130.5000010952
78,166,24447,5,8,0:0:0:0:
102,144,24523,1,8,0:0:0:0:
120,117,24600,1,8,0:0:0:0:
130,86,24677,1,8,0:0:0:0:
130,53,24754,1,8,0:0:0:0:
139,70,24830,1,8,0:0:0:0:
153,85,24907,1,8,0:0:0:0:
170,96,24984,1,8,0:0:0:0:
189,103,25062,6,0,P|240:99|267:80,1,75,12|8,0:0|0:0,0:0:0:0:
359,27,25370,1,2,0:0:0:0:
318,153,25523,1,0,0:0:0:0:
318,153,25677,2,0,P|369:108|449:123,1,150,8|2,0:0|0:0,0:0:0:0:
389,262,26139,6,0,L|396:188,1,75,8|0,0:0|0:0,0:0:0:0:
483,313,26447,1,8,0:0:0:0:
483,313,26600,2,0,L|486:355,2,37.5,2|0|0,0:0|0:0|0:0,0:0:0:0:
389,262,26908,1,8,0:0:0:0:
389,262,27062,1,8,0:0:0:0:
317,336,27216,1,2,0:0:0:0:
317,336,27293,1,2,0:0:0:0:
317,336,27370,1,8,0:0:0:0:
236,214,27523,5,0,0:0:0:0:
205,311,27677,1,8,0:0:0:0:
153,151,27831,2,0,P|131:201|137:240,1,75,2|0,0:0|0:0,0:0:0:0:
131,220,28062,1,0,0:0:0:0:
131,220,28139,1,8,0:0:0:0:
205,311,28293,1,8,0:0:0:0:
294,258,28447,2,0,P|269:230|235:213,1,75,2|0,0:0|0:0,0:0:0:0:
130,317,28754,6,0,L|220:309,1,75,0|2,0:0|0:0,0:0:0:0:
273,368,28985,1,2,0:0:0:0:
273,368,29062,2,0,L|277:314,3,37.5,2|8|8|8,0:0|0:0|0:0|0:0,0:0:0:0:
346,364,29370,1,8,0:0:0:0:
361,342,29446,1,8,0:0:0:0:
371,318,29523,1,8,0:0:0:0:
373,292,29600,1,8,0:0:0:0:
369,266,29677,1,2,0:0:0:0:
274,156,29831,6,8,B|274:196|274:196|289:225|289:225|268:268|293:307,1,150,12|8,0:0|0:0,0:0:0:0:
136,256,30293,2,0,B|175:261|204:230,1,75,2|0,0:0|0:0,0:0:0:0:
29,157,30600,1,8,0:0:0:0:
133,152,30754,1,8,0:0:0:0:
32,257,30908,1,2,0:0:0:0:
136,256,31062,6,0,B|216:241|207:308|292:292,1,150,8|8,0:0|0:0,0:0:0:0:
363,215,31523,2,0,L|349:364,1,150,2|8,0:0|0:0,0:0:0:0:
455,294,31985,1,0,0:0:0:0:
261,202,32139,2,2,L|265:250,3,37.5
261,202,32447,6,8,P|281:151|305:129,1,75
388,121,32754,1,2,0:0:0:0:
255,52,32908,2,0,P|309:43|340:53,1,75,0|8,0:0|0:0,0:0:0:0:
388,121,33215,1,8,0:0:0:0:
462,17,33370,1,2,0:0:0:0:
485,148,33523,6,0,B|489:194|489:194|476:233|476:233|482:269|482:269|445:245,1,150,8|2,0:0|0:0,0:0:0:0:
376,230,33908,1,2,0:0:0:0:
376,230,33985,2,0,L|380:278,3,37.5,2|2|8|8,0:0|0:0|0:0|0:0,0:0:0:0:
433,330,34293,1,8,0:0:0:0:
405,343,34369,1,8,0:0:0:0:
376,350,34446,1,8,0:0:0:0:
346,352,34523,1,8,0:0:0:0:
316,348,34600,2,0,P|290:302|320:306,1,112.5
333,283,34908,6,0,P|252:327|289:378,1,150,8|2,0:0|0:0,0:0:0:0:
264,361,35370,2,0,L|248:179,1,150,8|8,0:0|0:0,0:0:0:0:
250,211,35831,2,0,B|175:193|188:261|108:241,1,150,2|8,0:0|0:0,0:0:0:0:
23,133,36293,5,2,0:0:0:0:
23,133,36370,1,2,0:0:0:0:
23,133,36447,2,2,P|52:135|86:143,1,37.5
151,60,36600,2,8,P|134:84|110:109,1,37.5
150,207,36754,2,8,P|136:180|127:147,3,37.5
150,207,37062,2,0,L|141:299,1,75,2|8,0:0|0:0,0:0:0:0:
240,248,37370,6,8,P|285:271|322:276,1,75
473,300,37677,2,0,B|444:292|429:272|429:272|404:270,1,75,2|8,0:0|0:0,0:0:0:0:
251,319,37985,2,0,B|271:298|296:295|296:295|310:274,1,75,2|8,0:0|0:0,0:0:0:0:
347,117,38293,2,0,B|355:145|345:168|345:168|354:188,1,75,2|8,0:0|0:0,0:0:0:0:
412,306,38600,5,2,0:0:0:0:
412,306,38677,1,2,0:0:0:0:
412,306,38754,2,8,P|411:288|407:270,1,37.5
274,262,38908,2,8,P|290:270|308:275,3,37.5
384,165,39216,2,8,P|368:175|354:188,3,37.5
412,306,39523,2,8,P|411:288|407:270,3,37.5
412,306,39831,6,8,P|387:353|352:370,1,75,12|8,0:0|0:0,0:0:0:0:
264,298,40139,2,0,L|270:223,1,75,2|8,0:0|0:0,0:0:0:0:
150,270,40447,2,0,L|143:344,1,75,2|8,0:0|0:0,0:0:0:0:
143,344,40754,1,2,0:0:0:0:
207,161,40908,6,0,P|289:200|337:178,1,150,8|8,0:0|0:0,0:0:0:0:
400,45,41370,1,2,0:0:0:0:
418,139,41523,1,8,0:0:0:0:
278,111,41677,2,8,L|274:55,3,37.5
278,111,41985,2,0,P|289:164|282:195,1,75,2|8,0:0|0:0,0:0:0:0:
256,348,42293,5,2,0:0:0:0:
256,348,42600,2,8,L|182:341,1,75
310,273,42908,5,8,0:0:0:0:
219,263,43061,1,8,0:0:0:0:
310,273,43216,2,8,L|403:281,1,75
182,178,43523,5,8,0:0:0:0:
364,198,43676,1,8,0:0:0:0:
182,178,43831,2,8,L|76:168,1,75
418,123,44139,6,8,L|470:118,4,37.5,8|8|8|8|2,0:0|0:0|0:0|0:0|0:0,0:0:0:0:
364,198,44754,5,0,0:0:0:0:
219,263,45062,1,0,0:0:0:0:
364,198,45370,1,0,0:0:0:0:
402,282,45523,1,0,0:0:0:0:
273,189,45831,1,0,0:0:0:0:
418,123,45985,6,8,L|366:128,4,37.5,8|8|8|8|2,0:0|0:0|0:0|0:0|0:0,0:0:0:0:
418,123,47216,6,0,B|324:125|369:194|268:194,1,165.000005035401,12|2,0:0|0:0,0:0:0:0:
420,206,47677,1,0,0:0:0:0:
277,193,47831,2,0,P|232:184|201:154,1,82.5000025177003,8|0,0:0|0:0,0:0:0:0:
267,29,48139,2,0,L|274:111,1,82.5000025177003,2|0,0:0|0:0,0:0:0:0:
158,234,48447,6,0,P|93:193|12:220,2,165.000005035401,8|2|0,0:0|0:0|0:0,0:0:0:0:
79,286,49216,1,0,0:0:0:0:
99,107,49370,1,2,0:0:0:0:
244,213,49523,6,0,B|307:220|340:177|340:177|321:210|335:257,1,165.000005035401
181,124,49985,1,2,0:0:0:0:
263,131,50139,2,0,L|180:124,1,82.5000025177003,8|8,0:0|0:0,0:0:0:0:
411,222,50447,1,0,0:0:0:0:
329,229,50600,2,0,L|412:222,1,82.5000025177003,2|0,0:0|0:0,0:0:0:0:
234,295,50908,5,8,0:0:0:0:
166,201,51062,1,0,0:0:0:0:
145,359,51216,1,2,0:0:0:0:
339,338,51370,2,0,L|421:330,1,82.5000025177003,0|8,0:0|0:0,0:0:0:0:
450,324,51600,1,8,0:0:0:0:
473,307,51677,1,8,0:0:0:0:
486,282,51754,1,8,0:0:0:0:
488,254,51831,1,2,0:0:0:0:
376,92,51985,6,0,B|399:165|361:206|361:206|312:217,1,165.000005035401,8|8,0:0|0:0,0:0:0:0:
198,134,52447,1,2,0:0:0:0:
181,275,52600,1,0,0:0:0:0:
280,141,52754,2,0,L|192:133,1,82.5000025177003,8|0,0:0|0:0,0:0:0:0:
98,282,53062,2,0,L|185:274,1,82.5000025177003,2|0,0:0|0:0,0:0:0:0:
71,195,53370,6,0,L|57:360,2,165.000005035401,8|2|8,0:0|0:0|0:0,0:0:0:0:
31,112,54139,1,0,0:0:0:0:
189,204,54293,1,2,0:0:0:0:
170,83,54447,6,0,B|80:84|112:23|11:22,1,165.000005035401,0|8,0:0|0:0,0:0:0:0:
22,194,54908,2,0,L|31:112,1,82.5000025177003,2|8,0:0|0:0,0:0:0:0:
161,0,55216,2,0,L|169:83,1,82.5000025177003,2|8,0:0|0:0,0:0:0:0:
193,189,55523,1,2,0:0:0:0:
224,186,55600,1,2,0:0:0:0:
255,183,55677,1,2,0:0:0:0:
286,180,55754,1,2,0:0:0:0:
317,177,55831,6,0,P|404:203|467:143,1,165.000005035401,8|8,0:0|0:0,0:0:0:0:
281,261,56293,2,0,P|194:235|131:295,1,165.000005035401,2|8,0:0|0:0,0:0:0:0:
139,275,56677,1,8,0:0:0:0:
139,275,56754,2,0,B|172:300|210:301|210:301|219:324|198:350,1,123.75000377655,2|0,0:0|0:0,0:0:0:0:
188,351,57062,6,0,B|283:322|263:388|351:359,1,165.000005035401,8|2,0:0|0:0,0:0:0:0:
435,324,57523,1,0,0:0:0:0:
321,206,57677,2,0,P|309:249|316:294,1,82.5000025177003,8|0,0:0|0:0,0:0:0:0:
490,176,57985,2,0,L|396:167,1,82.5000025177003,2|0,0:0|0:0,0:0:0:0:
263,131,58293,6,0,B|273:253|273:253|258:221|226:199,2,165.000005035401,8|2|0,0:0|0:0|0:0,0:0:0:0:
356,198,59062,1,0,0:0:0:0:
198,280,59216,1,2,0:0:0:0:
356,198,59370,6,0,P|373:105|325:51,1,165.000005035401
165,82,59831,1,2,0:0:0:0:
173,164,59985,2,8,L|165:77,1,82.5000025177003
242,326,60293,1,0,0:0:0:0:
250,243,60447,2,0,L|242:325,1,82.5000025177003,2|0,0:0|0:0,0:0:0:0:
283,140,60754,5,8,0:0:0:0:
358,220,60908,1,0,0:0:0:0:
173,164,61062,1,2,0:0:0:0:
358,220,61217,2,0,P|405:213|457:230,1,82.5000025177003,0|8,0:0|0:0,0:0:0:0:
436,249,61447,1,8,0:0:0:0:
432,278,61524,1,8,0:0:0:0:
430,306,61601,1,8,0:0:0:0:
429,335,61678,1,2,0:0:0:0:
287,169,61831,6,0,B|261:222|288:268|288:268|259:288|211:277,1,165.000005035401
68,203,62293,1,2,0:0:0:0:
160,359,62447,1,0,0:0:0:0:
148,165,62600,2,0,P|157:221|140:256,1,82.5000025177003,8|0,0:0|0:0,0:0:0:0:
35,362,62908,2,0,P|24:322|35:283,1,82.5000025177003,2|0,0:0|0:0,0:0:0:0:
253,293,63216,5,8,0:0:0:0:
190,201,63370,1,0,0:0:0:0:
288,139,63523,1,2,0:0:0:0:
348,232,63677,1,0,0:0:0:0:
253,293,63831,2,0,P|253:345|271:383,2,82.5000025177003,8|0|2,0:0|0:0|0:0,0:0:0:0:
253,293,64293,6,0,B|307:289|307:289|342:254|342:254|404:253,1,165.000005035401,0|0,3:0|3:0,3:0:0:0:
264,129,64754,2,0,L|272:212,1,82.5000025177003,2|8,0:0|0:0,0:0:0:0:
159,340,65062,2,0,L|166:257,1,82.5000025177003,2|8,0:0|0:0,0:0:0:0:
378,337,65370,1,2,0:0:0:0:
347,340,65447,1,2,0:0:0:0:
316,343,65524,1,2,0:0:0:0:
285,346,65601,1,2,0:0:0:0:
254,349,65677,6,0,B|164:336|184:397|78:379,1,165.000005035401,8|8,0:0|0:0,0:0:0:0:
294,270,66139,2,0,B|384:257|364:318|470:300,1,165.000005035401,2|8,0:0|0:0,0:0:0:0:
451,302,66524,1,0,0:0:0:0:
451,302,66601,2,0,B|443:386,1,82.5000025177003,2|0,0:0|0:0,0:0:0:0:
214,212,66908,6,0,P|172:203|127:219,1,82.5000025177003,2|8,0:0|0:0,0:0:0:0:
136,215,67216,1,8,0:0:0:0:
282,286,67370,2,0,P|310:254|318:207,1,82.5000025177003,2|8,0:0|0:0,0:0:0:0:
318,216,67678,1,8,0:0:0:0:
183,307,67831,2,0,P|196:347|232:378,1,82.5000025177003,2|8,0:0|0:0,0:0:0:0:
217,170,68139,6,0,L|212:220,3,41.2500012588501,2|2|8|8,0:0|0:0|0:0|0:0,0:0:0:0:
141,70,68447,2,0,L|145:120,3,41.2500012588501,8|8|2|8,0:0|0:0|0:0|0:0,0:0:0:0:
82,207,68754,2,8,L|124:204,3,41.2500012588501
162,289,69062,1,8,0:0:0:0:
312,136,69216,5,2,0:0:0:0:
312,136,69523,5,2,0:0:0:0:
230,240,69677,1,2,0:0:0:0:
362,260,69831,1,2,0:0:0:0:
306,112,69985,5,2,0:0:0:0:
212,256,70139,1,2,0:0:0:0:
385,267,70293,1,2,0:0:0:0:
297,89,70447,5,2,0:0:0:0:
196,275,70600,2,2,L|250:280,1,41.2500012588501,2|0,0:0|0:0,0:0:0:0:
237,278,71216,6,0,B|281:282|303:245|303:245|318:265|314:288|314:288|336:278|336:278|363:297|398:288,1,206.250006294251
461,311,71677,6,0,P|446:241|379:217,1,150,12|8,0:0|0:0,0:0:0:0:
307,363,72139,2,0,L|313:288,1,75,2|0,0:0|0:0,0:0:0:0:
212,172,72447,2,0,P|219:223|234:248,1,75,8|0,0:0|0:0,0:0:0:0:
408,198,72754,2,0,P|401:147|386:122,1,75,2|0,0:0|0:0,0:0:0:0:
310,185,73062,5,8,0:0:0:0:
310,185,73216,1,8,0:0:0:0:
182,219,73370,2,0,L|107:225,1,75,2|0,0:0|0:0,0:0:0:0:
277,304,73677,2,0,P|284:347|280:381,2,75,8|0|2,0:0|0:0|0:0,0:0:0:0:
211,147,74139,6,8,L|197:301,1,150
78,128,74600,2,0,L|86:30,1,75,2|0,0:0|0:0,0:0:0:0:
168,222,74908,2,0,P|121:223|86:205,1,75,8|0,0:0|0:0,0:0:0:0:
187,61,75216,2,0,P|234:60|269:78,1,75,2|0,0:0|0:0,0:0:0:0:
283,189,75523,5,8,0:0:0:0:
283,189,75677,1,8,0:0:0:0:
306,307,75831,2,0,L|315:413,1,75,2|0,0:0|0:0,0:0:0:0:
397,231,76139,2,0,P|406:163|392:134,2,75,8|0|2,0:0|0:0|0:0,0:0:0:0:
213,316,76600,6,8,B|252:277|315:272|315:272|304:292|306:313,1,150
126,287,77062,2,0,P|121:328|132:361,1,75,2|0,0:0|0:0,0:0:0:0:
238,201,77370,2,0,L|163:207,1,75,8|0,0:0|0:0,0:0:0:0:
3,221,77677,2,0,L|77:214,1,75,2|0,0:0|0:0,0:0:0:0:
116,133,77985,5,8,0:0:0:0:
116,133,78139,1,8,0:0:0:0:
309,226,78293,2,0,P|313:189|299:154,1,75,2|0,0:0|0:0,0:0:0:0:
163,206,78600,2,0,L|170:280,2,75,8|0|2,0:0|0:0|0:0,0:0:0:0:
15,95,79062,6,8,B|95:116|90:51|175:74,1,150
238,201,79523,2,0,L|231:125,1,75,2|0,0:0|0:0,0:0:0:0:
297,9,79831,2,0,P|312:42|313:80,1,75,8|0,0:0|0:0,0:0:0:0:
150,164,80139,1,2,0:0:0:0:
150,164,80293,6,0,B|139:219|139:219|151:258|151:258|136:312,1,150,8|2,0:0|0:0,0:0:0:0:
73,363,80677,1,2,0:0:0:0:
73,363,80754,2,8,L|26:358,3,37.5
152,384,81062,1,0,0:0:0:0:
175,377,81139,1,0,0:0:0:0:
196,364,81216,1,8,0:0:0:0:
215,346,81293,1,0,0:0:0:0:
225,326,81370,2,0,P|285:330|335:289,1,112.5,2|0,0:0|0:0,0:0:0:0:
329,220,81677,6,0,B|287:219|262:250|262:250|226:231|183:252,1,150,8|0,0:0|0:0,0:0:0:0:
