osu file format v14

[General]
AudioFilename: audio.mp3
AudioLeadIn: 0
PreviewTime: 46370
Countdown: 0
SampleSet: None
StackLeniency: 0.7
Mode: 0
LetterboxInBreaks: 0
WidescreenStoryboard: 1

[Editor]
DistanceSpacing: 1
BeatDivisor: 4
GridSize: 4
TimelineZoom: 1.6

[Metadata]
Title:DESTRUCTION
TitleUnicode:DESTRUCTION
Artist:Ripple(CV.Numakura Manami)xTop Speed(CV.Uchiyama Yumi)
ArtistUnicode:リップル(CV.沼倉愛美)×トップスピード(CV.内山夕実)
Creator:Yuuya_ke
Version:Corinn's Normal
Source:魔法少女育成計画
Tags:shogunmoon shunao -Laura- akitoshi corinn _kotachi_ mahou shoujo ikusei keikaku magical girl raising project まほいく mahoiku musica magica character song キャラソン キャラクターソング集 篠崎あやと shinozaki ayato
BeatmapID:1409177
BeatmapSetID:646022

[Difficulty]
HPDrainRate:4
CircleSize:3.3
OverallDifficulty:4
ApproachRate:5
SliderMultiplier:1
SliderTickRate:1

[Events]
//Background and Video events
0,0,"myangelripple.png",0,0
//Break Periods
2,5570,14016
//Storyboard Layer 0 (Background)
//Storyboard Layer 1 (Fail)
//Storyboard Layer 2 (Pass)
//Storyboard Layer 3 (Foreground)
//Storyboard Sound Samples

[TimingPoints]
447,307.692307692308,4,3,55,60,1,0
523,-100,4,3,1,60,0,0
14293,-100,4,3,1,5,0,0
14370,-100,4,3,1,60,0,0
15216,-100,4,3,1,70,0,0
25062,-100,4,3,66,85,0,0
25139,-100,4,3,1,85,0,0
46600,-100,4,3,1,85,0,0
47216,-100,4,3,1,90,0,1
56985,-100,4,3,1,90,0,0
57062,-100,4,3,1,90,0,1
66831,-100,4,3,1,90,0,0
66908,-100,4,3,1,90,0,1
71677,-100,4,3,1,90,0,0

[Colours]
Combo1 : 255,151,248
Combo2 : 135,63,254
Combo3 : 186,10,94
SliderTrackOverride : 58,12,54
SliderBorder : 255,240,253

[HitObjects]
256,192,447,12,0,5370,0:0:0:0:
341,186,15216,5,0,0:0:0:0:
270,115,15523,2,0,P|201:105|90:190,1,200,2|0,0:0|0:0,0:0:0:0:
128,321,16600,2,0,L|287:311,1,150,0|0,0:0|0:0,0:0:0:0:
377,299,17370,1,0,0:0:0:0:
453,235,17677,5,8,0:0:0:0:
479,138,17985,2,0,P|427:57|322:37,1,200,2|0,0:0|0:0,0:0:0:0:
210,124,19062,2,0,B|163:139|163:139|55:129,1,150,0|0,0:0|0:0,0:0:0:0:
9,214,19831,1,0,0:0:0:0:
51,304,20139,5,8,0:0:0:0:
136,356,20447,2,0,L|347:336,1,200,2|0,0:0|0:0,0:0:0:0:
405,265,21370,2,0,B|422:194|373:194|405:103,1,150
323,53,22139,2,0,P|261:76|213:75,1,100,0|0,0:0|0:0,0:0:0:0:
179,62,22600,5,8,0:0:0:0:
123,145,22908,2,0,L|136:250,1,100,2|0,0:0|0:0,0:0:0:0:
216,303,23523,2,0,P|275:296|355:344,2,150,0|0|8,0:0|0:0|0:0,0:0:0:0:
134,360,24754,1,8,0:0:0:0:
44,314,25062,5,12,0:0:0:0:
43,213,25370,2,0,P|78:175|127:155,1,100,2|8,0:0|0:0,0:0:0:0:
226,167,25985,1,2,0:0:0:0:
226,167,26139,2,0,L|230:51,1,100,8|8,0:0|0:0,0:0:0:0:
259,26,26600,1,2,0:0:0:0:
358,18,26908,2,0,P|389:59|396:120,1,100,8|2,0:0|0:0,0:0:0:0:
372,149,27370,6,0,L|385:267,1,100,8|8,0:0|0:0,0:0:0:0:
386,298,27831,1,2,0:0:0:0:
293,336,28139,2,0,P|224:345|174:334,1,100,8|2,0:0|0:0,0:0:0:0:
154,320,28600,1,0,0:0:0:0:
154,320,28754,2,0,L|163:209,1,100,0|2,0:0|0:0,0:0:0:0:
224,142,29370,2,0,L|219:86,2,50,8|8|2,0:0|0:0|0:0,0:0:0:0:
261,175,29831,6,0,P|306:182|366:171,1,100,12|8,0:0|0:0,0:0:0:0:
400,143,30293,1,2,0:0:0:0:
459,62,30600,2,0,L|513:65,2,50,8|8|2,0:0|0:0|0:0,0:0:0:0:
418,31,31062,2,0,L|302:38,1,100,8|8,0:0|0:0,0:0:0:0:
269,46,31523,1,2,0:0:0:0:
205,123,31831,2,0,L|151:120,1,50,8|0,0:0|0:0,0:0:0:0:
115,89,32139,2,0,L|61:92,1,50,2|2,0:0|0:0,0:0:0:0:
14,92,32447,6,0,P|1:143|13:203,1,100,8|2,0:0|0:0,0:0:0:0:
29,234,32908,1,0,0:0:0:0:
119,275,33216,2,0,L|173:272,1,50,8|2,0:0|0:0,0:0:0:0:
213,249,33523,2,0,P|266:265|328:252,1,100,8|2,0:0|0:0,0:0:0:0:
355,239,33985,1,2,0:0:0:0:
439,184,34293,2,0,L|451:293,1,100,8|2,0:0|0:0,0:0:0:0:
367,339,34908,6,0,P|291:362|203:350,2,150,8|8|2,0:0|0:0|0:0,0:0:0:0:
450,283,36139,1,8,0:0:0:0:
410,191,36447,2,0,L|422:79,2,100,2|8|2,0:0|0:0|0:0,0:0:0:0:
318,231,37370,6,0,P|267:224|215:238,1,100,8|2,0:0|0:0,0:0:0:0:
128,274,37985,1,2,0:0:0:0:
44,218,38293,1,2,0:0:0:0:
53,118,38600,2,0,P|99:94|160:92,1,100,2|8,0:0|0:0,0:0:0:0:
245,107,39216,2,0,P|291:131|352:133,1,100,8|8,0:0|0:0,0:0:0:0:
437,124,39831,5,12,0:0:0:0:
488,209,40139,1,2,0:0:0:0:
449,301,40447,2,0,L|342:306,1,100,2|2,0:0|0:0,0:0:0:0:
308,334,40908,2,0,L|201:329,1,100,8|8,0:0|0:0,0:0:0:0:
157,325,41370,1,2,0:0:0:0:
71,273,41677,2,0,P|60:227|77:158,1,100,8|2,0:0|0:0,0:0:0:0:
117,87,42293,6,0,B|169:98|169:98|220:85,1,100,2|8,0:0|0:0,0:0:0:0:
265,71,42754,1,8,0:0:0:0:
265,71,42908,2,0,B|317:82|317:82|368:69,1,100,8|8,0:0|0:0,0:0:0:0:
456,35,43523,2,0,L|465:93,1,50,8|8,0:0|0:0,0:0:0:0:
490,127,43831,2,0,L|481:185,1,50,8|8,0:0|0:0,0:0:0:0:
454,218,44139,2,0,L|463:276,2,50,8|8|2,0:0|0:0|0:0,0:0:0:0:
256,192,44754,12,8,45985,0:0:0:0:
200,189,47216,6,0,P|150:177|92:195,2,100,12|2|8,0:0|0:0|0:0,0:0:0:0:
283,243,48139,1,2,0:0:0:0:
378,214,48447,2,0,L|369:103,1,100,8|2,0:0|0:0,0:0:0:0:
307,36,49062,2,0,P|257:48|199:30,1,100,0|2,0:0|0:0,0:0:0:0:
163,20,49523,6,0,L|64:27,1,100,0|0,0:0|0:0,0:0:0:0:
22,57,49985,1,2,0:0:0:0:
9,156,50293,2,0,P|10:207|38:255,1,100,8|2,0:0|0:0,0:0:0:0:
103,320,50908,1,8,0:0:0:0:
203,320,51216,1,2,0:0:0:0:
273,249,51523,2,0,L|342:254,2,50,8|8|2,0:0|0:0|0:0,0:0:0:0:
237,213,51985,6,0,P|224:165|240:99,1,100,8|8,0:0|0:0,0:0:0:0:
258,73,52447,1,2,0:0:0:0:
352,41,52754,2,0,P|400:53|449:100,1,100,8|2,0:0|0:0,0:0:0:0:
484,173,53370,1,8,0:0:0:0:
435,259,53677,1,2,0:0:0:0:
340,293,53985,2,0,L|346:364,2,50,8|0|2,0:0|0:0|0:0,0:0:0:0:
303,258,54447,6,0,P|265:270|191:261,1,100,0|8,0:0|0:0,0:0:0:0:
158,249,54908,1,2,0:0:0:0:
95,171,55216,1,2,0:0:0:0:
133,78,55523,2,0,L|192:72,1,50,2|2,0:0|0:0,0:0:0:0:
226,47,55831,2,0,P|262:30|340:38,1,100,8|8,0:0|0:0,0:0:0:0:
367,49,56293,2,0,L|376:154,1,100,2|8,0:0|0:0,0:0:0:0:
383,198,56754,1,2,0:0:0:0:
392,297,57062,6,0,P|441:302|494:286,2,100,8|2|8,0:0|0:0|0:0,0:0:0:0:
300,256,57985,1,2,0:0:0:0:
238,176,58293,2,0,L|137:180,1,100,8|2,0:0|0:0,0:0:0:0:
38,176,58908,2,0,P|26:124|41:56,1,100,0|2,0:0|0:0,0:0:0:0:
64,39,59370,6,0,P|107:50|165:41,1,100,0|0,0:0|0:0,0:0:0:0:
208,25,59831,1,2,0:0:0:0:
287,86,60139,2,0,L|278:195,1,100,8|2,0:0|0:0,0:0:0:0:
276,285,60754,1,8,0:0:0:0:
366,328,61062,1,2,0:0:0:0:
461,296,61370,2,0,L|519:300,2,50,8|8|2,0:0|0:0|0:0,0:0:0:0:
426,259,61831,6,0,P|411:212|416:152,1,100,0|0,0:0|0:0,0:0:0:0:
435,116,62293,1,2,0:0:0:0:
366,43,62600,2,0,L|256:47,1,100,8|2,0:0|0:0,0:0:0:0:
165,54,63216,1,8,0:0:0:0:
100,129,63523,1,2,0:0:0:0:
145,217,63831,2,0,L|135:287,2,50,8|0|2,0:0|0:0|0:0,0:0:0:0:
187,190,64293,6,0,P|234:181|293:195,1,100,0|0,3:0|3:0,0:0:0:0:
326,217,64754,1,2,0:0:0:0:
382,299,65062,1,2,0:0:0:0:
308,367,65370,2,0,L|253:363,1,50,2|2,0:0|0:0,0:0:0:0:
220,330,65677,2,0,L|108:337,1,100,8|8,0:0|0:0,0:0:0:0:
69,338,66139,2,0,P|52:297|57:234,1,100,2|8,0:0|0:0,0:0:0:0:
76,197,66600,1,2,0:0:0:0:
153,133,66908,6,0,B|202:141|202:141|258:132,1,100,2|8,0:0|0:0,0:0:0:0:
299,115,67370,2,0,L|296:227,1,100,2|8,0:0|0:0,0:0:0:0:
293,264,67831,1,2,0:0:0:0:
338,353,68139,2,0,P|388:361|451:347,1,100,2|8,0:0|0:0,0:0:0:0:
478,326,68600,2,0,L|475:214,1,100,2|8,0:0|0:0,0:0:0:0:
448,190,69062,1,8,0:0:0:0:
448,190,69216,6,0,L|451:78,1,100,2|2,0:0|0:0,0:0:0:0:
417,52,69677,1,2,0:0:0:0:
320,23,69985,2,0,L|260:29,1,50,2|2,0:0|0:0,0:0:0:0:
230,59,70293,2,0,L|170:53,1,50,2|2,0:0|0:0,0:0:0:0:
130,45,70600,1,2,0:0:0:0:
9,204,71216,2,0,P|41:240|113:250,1,100,0|0,0:0|0:0,0:0:0:0:
139,249,71677,6,0,L|150:148,1,100,12|8,0:0|0:0,0:0:0:0:
157,99,72139,1,2,0:0:0:0:
242,46,72447,2,0,P|291:38|347:49,1,100,8|2,0:0|0:0,0:0:0:0:
428,93,73062,1,8,0:0:0:0:
463,186,73370,1,2,0:0:0:0:
429,279,73677,2,0,L|436:343,2,50,8|0|2,0:0|0:0|0:0,0:0:0:0:
384,254,74139,6,0,P|341:271|277:265,1,100,8|8,0:0|0:0,0:0:0:0:
241,250,74600,1,2,0:0:0:0:
197,159,74908,2,0,L|187:56,1,100,8|2,0:0|0:0,0:0:0:0:
94,21,75523,1,8,0:0:0:0:
9,75,75831,1,2,0:0:0:0:
4,175,76139,2,0,P|32:203|100:220,1,100,8|2,0:0|0:0,0:0:0:0:
138,217,76600,6,0,L|145:323,1,100,8|8,0:0|0:0,0:0:0:0:
172,358,77062,1,2,0:0:0:0:
263,317,77370,2,0,P|320:306|364:314,1,100,8|2,0:0|0:0,0:0:0:0:
454,348,77985,1,8,0:0:0:0:
501,259,78293,1,2,0:0:0:0:
442,178,78600,2,0,L|435:69,1,100,8|2,0:0|0:0,0:0:0:0:
405,37,79062,6,0,P|362:51|291:38,1,100,8|8,0:0|0:0,0:0:0:0:
263,23,79523,1,2,0:0:0:0:
180,79,79831,2,0,L|173:188,1,100,8|2,0:0|0:0,0:0:0:0:
168,283,80447,1,0,0:0:0:0:
168,283,80600,2,0,B|218:300|218:300|280:290,1,100,2|8,0:0|0:0,0:0:0:0:
307,266,81062,2,0,L|373:274,1,50,0|8,0:0|0:0,0:0:0:0:
406,281,81370,1,2,0:0:0:0:
481,216,81677,5,8,0:0:0:0:
431,129,81985,1,0,0:0:0:0:
