osu file format v14

[General]
AudioFilename: audio.mp3
AudioLeadIn: 0
PreviewTime: 46370
Countdown: 0
SampleSet: None
StackLeniency: 0.7
Mode: 0
LetterboxInBreaks: 0
WidescreenStoryboard: 1

[Editor]
DistanceSpacing: 1.4
BeatDivisor: 4
GridSize: 4
TimelineZoom: 2.599999

[Metadata]
Title:DESTRUCTION
TitleUnicode:DESTRUCTION
Artist:Ripple(CV.Numakura Manami)xTop Speed(CV.Uchiyama Yumi)
ArtistUnicode:リップル(CV.沼倉愛美)×トップスピード(CV.内山夕実)
Creator:Yuuya_ke
Version:kotachi's Insane
Source:魔法少女育成計画
Tags:shogunmoon shunao -Laura- akitoshi corinn _kotachi_ mahou shoujo ikusei keikaku magical girl raising project まほいく mahoiku musica magica character song キャラソン キャラクターソング集 篠崎あやと shinozaki ayato
BeatmapID:1369669
BeatmapSetID:646022

[Difficulty]
HPDrainRate:5
CircleSize:3.8
OverallDifficulty:8
ApproachRate:9.1
SliderMultiplier:1.7
SliderTickRate:1

[Events]
//Background and Video events
0,0,"myangelripple.png",0,0
//Break Periods
//Storyboard Layer 0 (Background)
//Storyboard Layer 1 (Fail)
//Storyboard Layer 2 (Pass)
//Storyboard Layer 3 (Foreground)
//Storyboard Sound Samples

[TimingPoints]
447,307.692307692308,4,3,55,60,1,0
523,-100,4,3,1,5,0,0
5370,-133.333333333333,4,3,1,50,0,0
10831,-133.333333333333,4,3,1,5,0,0
10908,-133.333333333333,4,3,1,50,0,0
15216,-100,4,3,1,70,0,0
16293,-133.333333333333,4,3,1,70,0,0
17677,-100,4,3,1,70,0,0
18754,-133.333333333333,4,3,1,70,0,0
20139,-100,4,3,1,70,0,0
20985,-100,4,3,1,5,0,0
21062,-100,4,3,1,70,0,0
21370,-133.333333333333,4,3,1,70,0,0
22600,-100,4,3,1,70,0,0
25062,-100,4,3,1,70,0,0
34600,-83.3333333333333,4,3,1,70,0,0
34908,-111.111111111111,4,3,1,70,0,0
39831,-100,4,3,1,70,0,0
45985,-100,4,3,0,70,0,0
46139,-100,4,3,1,70,0,0
46600,-133.333333333333,4,3,1,70,0,0
47216,-90.9090909090909,4,3,1,80,0,1
56985,-90.9090909090909,4,3,1,80,0,0
57062,-90.9090909090909,4,3,1,80,0,1
66831,-90.9090909090909,4,3,1,80,0,0
66908,-90.9090909090909,4,3,1,80,0,1
69523,-90.9090909090909,4,3,1,50,0,1
69985,-90.9090909090909,4,3,1,60,0,1
70293,-90.9090909090909,4,3,1,70,0,1
70600,-90.9090909090909,4,3,1,80,0,1
71216,-200,4,3,1,80,0,1
71600,-200,4,3,1,5,0,1
71677,-100,4,3,1,70,0,0
73293,-100,4,3,1,5,0,0
73370,-100,4,3,1,70,0,0
78216,-100,4,3,1,5,0,0
78293,-100,4,3,1,70,0,0
81600,-100,4,3,1,5,0,0
81677,-66.6666666666667,4,3,1,70,0,0
81908,-100,4,3,1,5,0,0
81985,-100,4,3,1,70,0,0
82139,-100,4,3,1,5,0,0

[Colours]
Combo1 : 255,151,248
Combo2 : 135,63,254
Combo3 : 186,10,94
SliderTrackOverride : 58,12,54
SliderBorder : 255,240,253

[HitObjects]
256,192,447,12,0,5216,0:0:0:0:
126,127,5370,6,0,P|174:123|265:129,1,127.500004863739
348,114,5831,2,0,P|346:147|332:182,1,63.7500024318696
269,277,6139,2,0,P|258:247|256:215,1,63.7500024318696
253,127,6447,2,0,P|332:19|441:131,1,318.750012159348
389,288,7523,1,0,0:0:0:0:
389,288,7677,1,0,0:0:0:0:
389,288,7831,6,0,P|323:285|245:293,1,127.500004863739
179,325,8293,2,0,L|183:254,1,63.7500024318696
45,251,8600,2,0,L|104:289,1,63.7500024318696
183,169,8908,2,0,L|119:201,1,63.7500024318696
265,199,9216,2,0,P|263:130|265:54,1,127.500004863739
352,136,9677,2,0,P|353:174|356:223,1,63.7500024318696
439,236,9985,1,0,0:0:0:0:
400,66,10293,6,0,P|375:55|332:53,1,63.7500024318696
248,72,10600,2,0,P|196:77|151:70,1,95.6250036478044
135,64,10908,2,0,P|97:61|64:65,1,63.7500024318696
17,144,11216,1,0,0:0:0:0:
17,144,11370,1,0,0:0:0:0:
84,212,11523,2,0,P|149:207|226:209,1,127.500004863739
258,300,11985,2,0,P|227:307|175:305,1,63.7500024318696
211,207,12293,2,0,P|220:176|248:132,1,63.7500024318696
312,211,12600,6,0,B|344:223|362:255|362:255|442:192|388:95|388:95|421:120|465:113,1,318.750012159348
282,57,13985,6,0,B|229:36|180:70|180:70|134:100|81:76|81:76|97:104|123:110,1,255.000009727478
316,274,15216,5,8,0:0:0:0:
333,119,15370,1,8,0:0:0:0:
334,293,15523,1,6,0:0:0:0:
444,211,15677,2,0,L|355:201,1,85
217,268,15985,2,0,L|301:258,1,85
333,119,16293,6,0,P|333:43|327:-10,2,127.500004863739
248,174,17062,2,0,L|173:180,1,63.7500024318696
186,82,17370,2,0,L|261:76,1,63.7500024318696
403,188,17677,5,8,0:0:0:0:
248,174,17831,1,8,0:0:0:0:
420,170,17984,1,6,0:0:0:0:
322,251,18139,2,0,L|332:335,1,85
247,173,18447,2,0,L|258:89,1,85
224,258,18754,6,0,P|191:241|166:205,1,63.7500024318696
123,143,19062,2,0,P|129:194|106:288,1,127.500004863739
26,202,19523,2,0,P|12:170|11:137,1,63.7500024318696
76,67,19831,2,0,P|119:55|153:57,1,63.7500024318696
228,115,20139,5,8,0:0:0:0:
245,270,20293,1,8,0:0:0:0:
248,97,20447,2,0,L|247:3,1,85,6|0,0:0|0:0,0:0:0:0:
339,110,20754,2,0,P|338:173|332:237,1,127.5
325,262,21062,2,0,L|411:253,1,85
309,346,21370,6,0,P|247:370|181:348,1,127.5
244,269,21831,2,0,P|243:237|234:204,1,63.7500024318696
148,156,22139,2,0,P|149:188|158:221,1,63.7500024318696
244,269,22447,1,0,0:0:0:0:
228,112,22600,5,8,0:0:0:0:
341,228,22754,1,8,0:0:0:0:
208,92,22908,2,0,P|172:72|116:72,1,85,6|0,0:0|0:0,0:0:0:0:
234,206,23216,2,0,L|322:202,1,85
163,279,23523,2,0,L|75:275,1,85
56,164,23831,5,0,0:0:0:0:
60,168,23985,1,0,0:0:0:0:
48,64,24139,1,0,0:0:0:0:
48,64,24293,1,0,0:0:0:0:
156,106,24447,5,10,0:0:0:0:
176,111,24523,1,2,0:0:0:0:
197,113,24600,1,2,0:0:0:0:
218,113,24677,1,2,0:0:0:0:
239,109,24754,1,8,0:3:0:0:
260,105,24831,1,8,0:3:0:0:
281,105,24908,1,8,0:3:0:0:
302,107,24985,1,8,0:3:0:0:
323,110,25062,6,0,L|333:16,1,85,12|8,0:0|0:0,0:0:0:0:
277,189,25370,2,0,L|285:273,1,85,2|0,0:0|0:0,0:0:0:0:
368,190,25677,1,8,0:0:0:0:
188,186,25831,1,8,0:0:0:0:
285,273,25985,1,2,0:0:0:0:
239,109,26139,6,0,L|229:15,1,85,8|0,0:0|0:0,0:0:0:0:
91,96,26447,1,8,0:0:0:0:
188,186,26600,2,0,P|231:199|276:194,1,85,2|0,0:0|0:0,0:0:0:0:
379,59,26908,2,0,P|346:89|328:131,1,85,8|8,0:0|0:0,0:0:0:0:
388,285,27216,1,2,0:0:0:0:
388,285,27293,1,2,0:0:0:0:
388,285,27370,1,2,0:0:0:0:
270,195,27523,6,0,L|263:295,1,85,0|8,0:0|0:0,0:0:0:0:
189,150,27831,2,0,P|230:112|303:110,1,127.5,2|8,0:0|0:0,0:0:0:0:
329,125,28139,2,0,P|360:96|378:58,1,85,8|8,0:0|0:0,0:0:0:0:
270,195,28447,1,2,0:0:0:0:
210,36,28600,2,0,L|116:45,1,85,12|0,0:0|0:0,0:0:0:0:
24,185,28908,5,2,0:0:0:0:
35,188,28984,1,2,0:0:0:0:
47,191,29061,1,2,0:0:0:0:
59,192,29138,1,8,0:0:0:0:
71,192,29215,1,8,0:0:0:0:
83,190,29292,1,8,0:0:0:0:
94,189,29370,2,0,P|96:210|99:243,1,42.5,8|8,0:0|0:0,0:0:0:0:
193,266,29523,2,0,P|194:244|196:223,1,42.5,8|8,0:0|0:0,0:0:0:0:
290,182,29677,2,0,P|292:203|295:236,1,42.5,2|0,0:0|0:0,0:0:0:0:
383,266,29831,6,0,B|416:210|416:210|398:89,1,170,12|8,0:0|0:0,0:0:0:0:
219,81,30293,2,0,L|323:90,1,85,2|0,0:0|0:0,0:0:0:0:
167,8,30600,1,8,0:0:0:0:
163,157,30754,1,8,0:0:0:0:
219,81,30908,1,2,0:0:0:0:
113,78,31062,6,0,P|70:140|109:234,1,170,12|8,0:0|0:0,0:0:0:0:
247,164,31523,2,0,L|143:155,1,85,2|0,0:0|0:0,0:0:0:0:
313,258,31831,1,8,0:0:0:0:
329,126,31985,1,8,0:0:0:0:
396,266,32139,1,2,0:0:0:0:
388,296,32215,1,2,0:0:0:0:
370,322,32292,1,2,0:0:0:0:
343,339,32369,1,2,0:0:0:0:
316,343,32447,6,0,P|271:331|234:292,1,85,8|8,0:0|0:0,0:0:0:0:
329,126,32754,1,2,0:0:0:0:
313,258,32908,1,0,0:0:0:0:
414,166,33062,1,8,0:0:0:0:
233,229,33216,1,8,0:0:0:0:
396,266,33370,1,2,0:0:0:0:
239,148,33523,6,0,B|230:258|230:258|250:322,1,170,12|2,0:0|0:0,0:0:0:0:
235,310,33908,1,2,0:0:0:0:
218,303,33985,1,2,0:0:0:0:
200,299,34062,1,8,0:0:0:0:
182,297,34139,1,8,0:0:0:0:
164,297,34216,1,8,0:0:0:0:
147,300,34293,2,0,P|119:312|91:328,1,42.5,8|8,0:0|0:0,0:0:0:0:
79,200,34447,2,0,P|60:190|40:182,1,42.5,8|8,0:0|0:0,0:0:0:0:
175,112,34600,2,0,P|177:162|175:213,1,101.999996887207,2|0,0:0|0:0,0:0:0:0:
39,26,34908,6,0,P|113:34|199:17,1,152.999995330811,12|2,0:0|0:0,0:0:0:0:
414,75,35370,2,0,P|338:67|264:80,1,152.999995330811,8|8,0:0|0:0,0:0:0:0:
402,176,35831,2,0,P|440:172|476:158,1,76.4999976654053,2|0,0:0|0:0,0:0:0:0:
264,81,36139,1,8,0:0:0:0:
315,212,36293,5,2,0:0:0:0:
299,205,36369,1,2,0:0:0:0:
284,200,36446,1,2,0:0:0:0:
268,197,36523,1,8,0:0:0:0:
251,196,36600,1,8,0:0:0:0:
235,197,36677,1,8,0:0:0:0:
220,200,36754,2,0,P|190:208|167:224,3,38.2499988327027,8|8|8|8,0:0|0:0|0:0|0:0,0:0:0:0:
101,259,37062,2,0,P|89:223|92:186,1,76.4999976654053,2|8,0:0|0:0,0:0:0:0:
163,118,37370,5,8,0:0:0:0:
163,118,37523,1,8,0:0:0:0:
234,44,37677,2,0,P|260:86|264:132,1,76.4999976654053,2|0,0:0|0:0,0:0:0:0:
92,185,37985,5,2,0:0:0:0:
142,22,38139,1,8,0:0:0:0:
183,211,38293,5,2,0:0:0:0:
72,87,38447,1,8,0:0:0:0:
234,44,38600,5,2,0:0:0:0:
252,38,38676,1,2,0:0:0:0:
271,38,38753,1,2,0:0:0:0:
290,42,38830,1,2,0:0:0:0:
306,51,38907,1,8,0:0:0:0:
321,63,38984,1,8,0:0:0:0:
332,79,39061,1,8,0:0:0:0:
338,97,39138,1,8,0:0:0:0:
341,114,39216,6,0,P|338:136|332:158,3,38.2499988327027,8|8|8|8,0:0|0:0|0:0|0:0,0:0:0:0:
243,195,39523,2,0,P|239:176|237:158,3,38.2499988327027,8|8|8|8,0:0|0:0|0:0|0:0,0:0:0:0:
333,250,39831,5,12,0:0:0:0:
333,250,39985,1,8,0:0:0:0:
168,250,40139,2,0,P|157:212|155:164,1,85,2|8,0:0|0:0,0:0:0:0:
255,289,40447,2,0,P|253:327|241:373,1,85,2|8,0:0|0:0,0:0:0:0:
95,308,40754,1,2,0:0:0:0:
243,195,40908,6,0,B|302:191|302:191|354:210|354:210|421:202,1,170,12|8,0:0|0:0,0:0:0:0:
443,86,41370,2,0,P|397:97|360:125,1,85,2|8,0:0|0:0,0:0:0:0:
279,278,41677,1,8,0:0:0:0:
247,284,41753,1,8,0:0:0:0:
216,279,41830,1,8,0:0:0:0:
188,264,41907,1,8,0:0:0:0:
167,241,41985,2,0,P|158:198|170:149,1,85,2|8,0:0|0:0,0:0:0:0:
253,60,42293,5,12,0:0:0:0:
253,60,42600,2,0,L|342:54,1,85,8|8,0:0|0:0,0:0:0:0:
441,33,42908,1,10,0:0:0:0:
422,170,43062,1,2,0:0:0:0:
455,15,43216,1,10,0:0:0:0:
436,188,43370,1,2,0:0:0:0:
337,54,43523,6,0,L|253:60,1,85,10|2,0:0|0:0,0:0:0:0:
262,241,43831,1,10,0:0:0:0:
340,156,43985,1,2,0:0:0:0:
183,199,44139,1,8,0:0:0:0:
173,229,44215,1,8,0:0:0:0:
174,261,44292,1,8,0:0:0:0:
185,290,44369,1,8,0:0:0:0:
206,314,44447,2,0,P|254:333|302:327,1,85,12|0,0:0|0:0,0:0:0:0:
340,156,44754,5,0,0:0:0:0:
340,156,45062,1,0,0:0:0:0:
160,89,45370,5,0,0:0:0:0:
178,182,45523,1,0,0:0:0:0:
326,61,45831,5,0,0:0:0:0:
270,226,45985,5,8,2:3:0:0:
272,236,46061,1,8,2:3:0:0:
275,246,46138,1,8,2:3:0:0:
278,256,46215,1,8,2:3:0:0:
280,267,46292,1,2,2:3:0:0:
117,128,46600,6,0,L|244:135,1,127.5
450,321,47216,6,0,B|401:332|364:296|364:296|340:345|288:355,1,187.000005706787,12|2,0:0|0:0,0:0:0:0:
424,237,47677,1,0,0:0:0:0:
262,244,47831,2,0,L|157:238,1,93.5000028533936,8|0,0:0|0:0,0:0:0:0:
92,342,48139,1,2,0:0:0:0:
50,186,48293,1,0,0:0:0:0:
168,238,48447,6,0,P|179:140|151:47,1,187.000005706787,8|2,0:0|0:0,0:0:0:0:
50,186,48908,1,0,0:0:0:0:
144,44,49062,2,0,L|237:39,1,93.5000028533936,8|0,0:0|0:0,0:0:0:0:
69,94,49370,1,2,0:0:0:0:
263,130,49523,6,0,B|363:115|339:189|451:171,1,187.000005706787
407,0,49985,2,0,P|414:50|404:101,1,93.5000028533936,2|0,0:0|0:0,0:0:0:0:
291,210,50293,2,0,P|283:256|290:302,1,93.5000028533936,8|0,0:0|0:0,0:0:0:0:
395,255,50600,1,2,0:0:0:0:
395,255,50754,1,0,0:0:0:0:
263,130,50908,6,0,P|256:83|263:37,1,93.5000028533936,8|0,0:0|0:0,0:0:0:0:
360,86,51216,1,2,0:0:0:0:
291,210,51370,1,0,0:0:0:0:
172,152,51523,1,8,0:0:0:0:
171,163,51599,1,8,0:0:0:0:
171,175,51676,1,8,0:0:0:0:
171,187,51753,1,8,0:0:0:0:
171,198,51830,1,2,0:0:0:0:
23,237,51985,6,0,B|91:245|91:245|131:283|131:283|228:292,1,187.000005706787,12|8,0:0|0:0,0:0:0:0:
291,210,52447,1,2,0:0:0:0:
291,210,52600,1,0,0:0:0:0:
292,369,52754,1,8,0:0:0:0:
292,369,52907,1,0,0:0:0:0:
427,292,53062,1,2,0:0:0:0:
291,210,53216,1,0,0:0:0:0:
449,296,53370,6,0,L|446:193,1,93.5000028533936,8|0,0:0|0:0,0:0:0:0:
276,115,53677,2,0,L|273:208,1,93.5000028533936,2|0,0:0|0:0,0:0:0:0:
375,125,53985,1,8,0:0:0:0:
375,125,54139,1,0,0:0:0:0:
186,103,54293,1,2,0:0:0:0:
239,28,54447,6,0,P|148:18|96:109,1,187.000005706787,0|8,0:0|0:0,0:0:0:0:
199,256,54908,1,2,0:0:0:0:
186,103,55062,1,8,0:0:0:0:
112,226,55216,1,2,0:0:0:0:
272,208,55370,1,8,0:0:0:0:
186,103,55523,1,2,0:0:0:0:
186,103,55600,1,2,0:0:0:0:
186,103,55677,1,2,0:0:0:0:
186,103,55754,1,2,0:0:0:0:
186,103,55831,6,0,L|91:87,2,93.5000028533936,8|0|8,0:0|0:0|0:0,0:0:0:0:
272,208,56293,2,0,P|346:206|387:107,1,187.000005706787,2|8,0:0|0:0,0:0:0:0:
341,53,56677,1,8,0:0:0:0:
341,53,56754,2,0,P|312:88|313:142,1,93.5000028533936,2|0,0:0|0:0,0:0:0:0:
438,303,57062,6,0,B|405:300|371:314|371:314|331:293|331:293|296:313|250:310,1,187.000005706787,12|2,0:0|0:0,0:0:0:0:
107,202,57523,1,0,0:0:0:0:
203,155,57677,2,0,P|212:203|200:256,1,93.5000028533936,8|0,0:0|0:0,0:0:0:0:
13,247,57985,2,0,P|5:201|14:155,1,93.5000028533936,2|0,0:0|0:0,0:0:0:0:
148,76,58293,6,0,B|214:65|214:65|260:90|260:90|327:81,1,187.000005706787,8|2,0:0|0:0,0:0:0:0:
444,27,58754,1,0,0:0:0:0:
419,201,58908,2,0,P|404:153|412:94,1,93.5000028533936,8|0,0:0|0:0,0:0:0:0:
486,265,59216,1,2,0:0:0:0:
330,192,59370,6,0,B|272:149|192:164|192:164|226:208,1,187.000005706787
280,367,59831,2,0,P|289:307|269:254,1,93.5000028533936,2|0,0:0|0:0,0:0:0:0:
128,233,60139,2,0,P|119:278|128:324,1,93.5000028533936,8|0,0:0|0:0,0:0:0:0:
217,197,60447,1,2,0:0:0:0:
60,152,60600,1,0,0:0:0:0:
166,84,60754,6,0,L|266:79,1,93.5000028533936,8|0,0:0|0:0,0:0:0:0:
352,189,61062,1,2,0:0:0:0:
217,197,61216,1,0,0:0:0:0:
345,41,61370,1,8,0:0:0:0:
348,53,61447,1,8,0:0:0:0:
350,64,61524,1,8,0:0:0:0:
352,76,61601,1,8,0:0:0:0:
356,88,61677,1,2,0:0:0:0:
385,287,61831,6,0,B|322:319|253:291|253:291|282:274|295:238,1,187.000005706787,12|8,0:0|0:0,0:0:0:0:
352,189,62293,1,2,0:0:0:0:
352,189,62447,1,0,0:0:0:0:
246,60,62600,1,8,0:0:0:0:
246,60,62754,1,0,0:0:0:0:
250,160,62908,1,2,0:0:0:0:
349,22,63062,1,0,0:0:0:0:
495,111,63216,6,0,L|402:102,1,93.5000028533936,8|0,0:0|0:0,0:0:0:0:
250,160,63523,1,2,0:0:0:0:
386,269,63677,1,0,0:0:0:0:
321,106,63831,1,8,0:0:0:0:
181,213,63985,2,0,L|88:222,1,93.5000028533936,0|2,0:0|0:0,0:0:0:0:
129,53,64293,6,0,B|268:37|268:37|231:86,1,187.000005706787,0|8,0:0|0:0,0:0:0:0:
56,127,64754,1,2,0:0:0:0:
56,127,64908,1,8,0:0:0:0:
181,213,65062,1,2,0:0:0:0:
181,213,65216,1,8,0:0:0:0:
311,129,65370,1,2,0:0:0:0:
334,126,65446,1,2,0:0:0:0:
357,128,65523,1,2,0:0:0:0:
380,134,65600,1,2,0:0:0:0:
395,140,65677,6,0,B|410:201|410:201|385:260|385:260|403:328,1,187.000005706787,8|8,0:0|0:0,0:0:0:0:
181,213,66139,2,0,B|320:208|320:208|296:264,1,187.000005706787,2|8,0:0|0:0,0:0:0:0:
226,295,66523,1,8,0:0:0:0:
226,295,66600,2,0,L|124:297,1,93.5000028533936,2|0,0:0|0:0,0:0:0:0:
112,150,66908,6,0,P|158:126|224:132,1,93.5000028533936,14|8,0:0|0:0,0:0:0:0:
301,252,67216,1,8,0:0:0:0:
234,44,67370,6,0,P|275:75|297:137,1,93.5000028533936,2|8,0:0|0:0,0:0:0:0:
220,258,67678,1,8,0:0:0:0:
352,187,67831,6,0,L|458:181,1,93.5000028533936,2|8,0:0|0:0,0:0:0:0:
419,360,68139,5,2,0:0:0:0:
396,364,68215,1,8,0:0:0:0:
372,363,68292,1,8,0:0:0:0:
350,358,68369,1,8,0:0:0:0:
328,348,68446,1,8,0:0:0:0:
306,337,68523,1,8,0:0:0:0:
284,331,68600,1,2,0:0:0:0:
261,331,68677,1,0,0:0:0:0:
240,336,68754,6,0,L|184:332,1,46.7500014266968,8|8,0:0|0:0,0:0:0:0:
95,233,68908,2,0,L|158:238,1,46.7500014266968,8|8,0:0|0:0,0:0:0:0:
240,162,69062,2,0,L|238:218,1,46.7500014266968,2|0,0:0|0:0,0:0:0:0:
117,115,69216,6,0,L|123:6,1,93.5000028533936,12|0,0:0|0:0,0:0:0:0:
328,33,69523,1,10,0:0:0:0:
337,193,69677,1,10,0:0:0:0:
229,58,69831,1,10,0:0:0:0:
399,106,69985,1,10,0:0:0:0:
240,162,70139,1,10,0:0:0:0:
334,10,70293,1,10,0:0:0:0:
346,210,70447,1,10,0:0:0:0:
147,120,70600,5,12,0:0:0:0:
147,120,71216,6,0,L|152:239,1,106.25,8|0,0:0|0:0,0:0:0:0:
75,271,71677,6,0,P|159:250|260:275,1,170,12|8,0:0|0:0,0:0:0:0:
342,310,72139,2,0,P|350:259|340:218,1,85,2|0,0:0|0:0,0:0:0:0:
267,82,72447,1,8,0:0:0:0:
267,82,72600,1,0,0:0:0:0:
190,134,72754,2,0,L|105:132,1,85,2|0,0:0|0:0,0:0:0:0:
280,173,73062,6,0,L|414:176,1,127.5,8|0,0:0|0:0,0:0:0:0:
429,178,73370,2,0,P|437:219|430:261,1,85,2|0,0:0|0:0,0:0:0:0:
303,272,73677,1,8,0:0:0:0:
303,272,73831,1,8,0:0:0:0:
378,333,73985,1,2,0:0:0:0:
407,175,74139,6,0,B|383:120|398:55|398:55|372:72|335:75,1,170,8|8,0:0|0:0,0:0:0:0:
311,162,74600,2,0,L|208:153,1,85,2|0,0:0|0:0,0:0:0:0:
68,214,74908,1,8,0:0:0:0:
68,214,75062,1,0,0:0:0:0:
160,218,75216,2,0,P|149:174|124:139,1,85,2|0,0:0|0:0,0:0:0:0:
112,296,75523,6,0,P|155:308|198:304,1,85,8|8,0:0|0:0,0:0:0:0:
226,154,75831,1,2,0:0:0:0:
368,223,75985,1,0,0:0:0:0:
310,113,76139,1,8,0:0:0:0:
286,258,76293,1,0,0:0:0:0:
448,187,76447,1,2,0:0:0:0:
391,76,76600,6,0,P|299:72|196:57,1,170,12|8,0:0|0:0,0:0:0:0:
142,169,77062,2,0,P|192:163|228:152,1,85,2|0,0:0|0:0,0:0:0:0:
96,51,77370,1,8,0:0:0:0:
96,51,77523,1,0,0:0:0:0:
221,61,77677,2,0,P|263:65|304:76,1,85,2|0,0:0|0:0,0:0:0:0:
327,178,77985,6,0,P|402:172|470:183,1,127.5,8|0,0:0|0:0,0:0:0:0:
477,191,78293,2,0,L|466:106,1,85,2|0,0:0|0:0,0:0:0:0:
346,6,78600,1,8,0:0:0:0:
346,6,78754,1,8,0:0:0:0:
450,10,78908,1,2,0:0:0:0:
304,76,79062,6,0,B|207:68|241:131|127:110,1,170,12|8,0:0|0:0,0:0:0:0:
91,19,79523,2,0,P|135:17|185:43,1,85,2|0,0:0|0:0,0:0:0:0:
115,193,79831,1,8,0:0:0:0:
115,193,79985,1,0,0:0:0:0:
278,164,80139,1,2,0:0:0:0:
225,315,80293,6,0,P|278:299|412:311,1,170,12|2,0:0|0:0,0:0:0:0:
408,313,80677,1,2,0:0:0:0:
423,323,80754,2,0,L|473:312,1,42.5,2|2,0:0|0:0,0:0:0:0:
399,211,80908,2,0,L|349:200,1,42.5,8|8,0:0|0:0,0:0:0:0:
492,229,81062,5,8,0:0:0:0:
482,198,81138,1,8,0:0:0:0:
478,167,81215,1,8,0:0:0:0:
479,135,81292,1,8,0:0:0:0:
487,104,81370,2,0,P|421:101|356:108,1,127.5,2|0,0:0|0:0,0:0:0:0:
282,150,81677,6,0,B|221:162|177:118|177:118|172:164|135:181,1,191.250007295609,12|0,0:0|0:0,0:0:0:0:
18,118,81985,6,0,B|61:110|61:110|118:115,1,85,12|0,0:0|0:0,0:0:0:0:
