osu file format v14

[General]
AudioFilename: audio.mp3
AudioLeadIn: 0
PreviewTime: 46370
Countdown: 0
SampleSet: None
StackLeniency: 0.7
Mode: 0
LetterboxInBreaks: 0
WidescreenStoryboard: 0

[Editor]
DistanceSpacing: 1.4
BeatDivisor: 6
GridSize: 16
TimelineZoom: 1.9

[Metadata]
Title:DESTRUCTION
TitleUnicode:DESTRUCTION
Artist:Ripple(CV.Numakura Manami)xTop Speed(CV.Uchiyama Yumi)
ArtistUnicode:リップル(CV.沼倉愛美)×トップスピード(CV.内山夕実)
Creator:Yuuya_ke
Version:Shunao's Hard
Source:魔法少女育成計画
Tags:shogunmoon shunao -Laura- akitoshi corinn _kotachi_ mahou shoujo ikusei keikaku magical girl raising project まほいく mahoiku musica magica character song キャラソン キャラクターソング集 篠崎あやと shinozaki ayato
BeatmapID:1636420
BeatmapSetID:646022

[Difficulty]
HPDrainRate:5
CircleSize:3.7
OverallDifficulty:6
ApproachRate:8
SliderMultiplier:1.4
SliderTickRate:1

[Events]
//Background and Video events
0,0,"bg_shunao.jpg",0,0
//Break Periods
//Storyboard Layer 0 (Background)
//Storyboard Layer 1 (Fail)
//Storyboard Layer 2 (Pass)
//Storyboard Layer 3 (Foreground)
//Storyboard Sound Samples

[TimingPoints]
447,307.692307692308,4,3,55,60,1,0
523,-133.333333333333,4,1,1,5,0,0
600,-133.333333333333,4,3,1,60,0,0
5370,-133.333333333333,4,3,1,60,0,0
11139,-133.333333333333,4,3,1,5,0,0
11216,-133.333333333333,4,3,1,60,0,0
13677,-133.333333333333,4,3,1,5,0,0
13754,-133.333333333333,4,3,1,60,0,0
13908,-133.333333333333,4,3,1,5,0,0
13985,-133.333333333333,4,3,1,60,0,0
14293,-133.333333333333,4,3,1,5,0,0
14370,-133.333333333333,4,3,1,60,0,0
14523,-133.333333333333,4,3,1,5,0,0
14600,-133.333333333333,4,3,1,60,0,0
15216,-117.647058823529,4,3,1,70,0,0
19754,-117.647058823529,4,3,1,5,0,0
19831,-117.647058823529,4,3,1,70,0,0
25062,-100,4,3,66,85,0,0
25139,-100,4,3,1,85,0,0
34831,-100,4,3,1,5,0,0
34908,-125,4,3,1,85,0,0
39831,-100,4,3,1,85,0,0
46600,-100,4,3,1,85,0,0
47216,-83.3333333333333,4,3,1,90,0,1
56985,-83.3333333333333,4,3,1,5,0,0
57062,-83.3333333333333,4,3,1,90,0,1
66831,-83.3333333333333,4,3,1,90,0,0
66908,-83.3333333333333,4,3,1,90,0,1
70677,-83.3333333333333,4,3,1,5,0,1
70754,-83.3333333333333,4,3,1,90,0,1
71677,-100,4,3,1,90,0,0
81600,-100,4,3,1,5,0,0
81677,-100,4,3,1,90,0,0

[Colours]
Combo1 : 255,151,248
Combo2 : 135,63,254
Combo3 : 186,10,94
SliderTrackOverride : 58,12,54
SliderBorder : 255,240,253

[HitObjects]
256,192,447,12,0,5062,0:0:0:0:
303,40,5370,6,0,L|312:160,1,105.000004005432,0|0,0:0|0:0,0:0:0:0:
393,189,5831,2,0,L|384:309,1,105.000004005432,0|0,0:0|0:0,0:0:0:0:
207,359,6447,1,0,0:0:0:0:
93,208,6754,6,0,B|174:176|166:257|263:220,1,157.500006008148,0|0,0:0|0:0,0:0:0:0:
406,131,7523,2,0,P|411:100|419:72,1,52.5000020027161,0|0,0:0|0:0,0:0:0:0:
341,21,7831,6,0,P|290:12|231:48,1,105.000004005432,0|0,0:0|0:0,0:0:0:0:
189,112,8293,2,0,L|85:104,1,105.000004005432,0|0,0:0|0:0,0:0:0:0:
13,279,8908,1,0,0:0:0:0:
187,351,9216,6,0,B|231:344|231:344|289:358|289:358|356:345,1,157.500006008148,0|0,0:0|0:0,0:0:0:0:
476,215,9985,1,0,0:0:0:0:
329,95,10293,6,0,P|339:140|346:213,1,105.000004005432,0|0,0:0|0:0,0:0:0:0:
480,331,10908,2,0,P|485:278|496:227,1,105.000004005432,0|0,0:0|0:0,0:0:0:0:
436,153,11370,1,0,0:0:0:0:
436,153,11523,6,0,P|380:156|335:131,1,105.000004005432,0|0,0:0|0:0,0:0:0:0:
250,170,11985,2,0,P|261:221|266:273,1,105.000004005432,0|0,0:0|0:0,0:0:0:0:
200,341,12447,1,0,0:0:0:0:
200,341,12600,6,0,P|134:304|49:332,1,157.500006008148,0|0,0:0|0:0,0:0:0:0:
20,145,13370,2,0,L|11:30,1,105.000004005432,0|0,0:0|0:0,0:0:0:0:
199,14,13985,6,0,L|190:118,1,105.000004005432,0|0,0:0|0:0,0:0:0:0:
346,225,14600,2,0,P|390:202|452:211,1,105.000004005432,0|0,0:0|0:0,0:0:0:0:
321,354,15216,6,0,L|246:348,1,59.5000011348725,0|8,0:0|0:0,0:0:0:0:
183,293,15523,1,2,0:0:0:0:
183,293,15677,2,0,L|53:302,1,119.000002269745,0|0,0:0|0:0,0:0:0:0:
9,118,16293,1,0,0:0:0:0:
179,35,16600,6,0,L|374:51,1,178.500003404617,0|0,0:0|0:0,0:0:0:0:
481,193,17369,2,0,L|421:198,1,59.5000011348725,0|0,0:0|0:0,0:0:0:0:
334,157,17677,6,0,L|270:152,1,59.5000011348725,8|8,0:0|0:0,0:0:0:0:
178,152,17985,1,2,0:0:0:0:
178,152,18139,2,0,B|158:185|158:185|170:279,1,119.000002269745,0|0,0:0|0:0,0:0:0:0:
330,364,18754,1,0,0:0:0:0:
453,218,19062,6,0,P|393:167|292:192,1,178.500003404617,0|0,0:0|0:0,0:0:0:0:
147,298,19831,1,0,0:0:0:0:
18,157,20139,6,0,P|24:191|29:231,1,59.5000011348725,8|8,0:0|0:0,0:0:0:0:
50,308,20447,1,2,0:0:0:0:
147,298,20600,1,0,0:0:0:0:
147,298,20754,2,0,P|152:245|171:162,1,119.000002269745,0|0,0:0|0:0,0:0:0:0:
248,132,21216,1,0,0:0:0:0:
248,132,21369,6,0,P|301:152|366:128,1,119.000002269745,0|0,0:0|0:0,0:0:0:0:
435,76,21831,2,0,P|446:127|452:200,1,119.000002269745,0|0,0:0|0:0,0:0:0:0:
396,271,22293,2,0,L|321:264,1,59.5000011348725,0|0,0:0|0:0,0:0:0:0:
324,359,22600,6,0,L|396:353,1,59.5000011348725,8|8,0:0|0:0,0:0:0:0:
477,370,22908,2,0,P|484:314|507:240,1,119.000002269745,2|0,0:0|0:0,0:0:0:0:
396,95,23523,6,0,B|303:55|311:142|209:97,1,178.500003404617,0|0,0:0|0:0,0:0:0:0:
146,48,24139,2,0,P|114:42|69:55,1,59.5000011348725,0|0,0:0|0:0,0:0:0:0:
30,122,24447,2,0,L|34:171,3,29.7500005674362,8|8|8|8,0:0|0:0|0:0|0:0,0:0:0:0:
65,186,24754,2,0,L|62:230,3,29.7500005674362,8|8|8|8,0:0|0:0|0:0|0:0,0:0:0:0:
37,258,25062,6,0,L|44:338,1,70,12|8,0:0|0:0,0:0:0:0:
134,363,25370,2,0,L|145:283,1,70,2|0,0:0|0:0,0:0:0:0:
206,218,25677,2,0,B|281:189|272:251|358:226,1,140,8|2,0:0|0:0,0:0:0:0:
428,184,26139,6,0,P|391:233|404:317,1,140,8|8,0:0|0:0,0:0:0:0:
499,312,26600,1,2,0:0:0:0:
499,312,26754,2,0,L|509:226,1,70,0|8,0:0|0:0,0:0:0:0:
428,184,27062,1,8,0:0:0:0:
460,91,27216,2,0,L|465:43,2,35,2|2|8,0:0|0:0|0:0,0:0:0:0:
363,106,27523,6,0,B|310:100|310:100|277:109|277:109|221:103,1,140,0|2,0:0|0:0,0:0:0:0:
134,62,27985,1,0,0:0:0:0:
49,111,28139,2,0,L|56:194,1,70,8|8,0:0|0:0,0:0:0:0:
71,278,28447,2,0,P|106:272|147:283,1,70,2|0,0:0|0:0,0:0:0:0:
231,312,28754,5,0,0:0:0:0:
321,274,28908,2,0,L|315:233,3,35,2|2|2|8,0:0|0:0|0:0|0:0,0:0:0:0:
285,200,29216,2,0,L|291:158,3,35,8|8|8|8,0:0|0:0|0:0|0:0,0:0:0:0:
331,139,29523,2,0,L|326:97,3,35,8|8|2|0,0:0|0:0|0:0|0:0,0:0:0:0:
330,54,29831,6,0,P|396:32|466:86,1,140,12|8,0:0|0:0,0:0:0:0:
497,152,30293,2,0,P|486:213|478:300,1,140,2|8,0:0|0:0,0:0:0:0:
405,355,30754,1,8,0:0:0:0:
309,331,30908,2,0,P|274:326|223:335,1,70,2|8,0:0|0:0,0:0:0:0:
141,331,31216,6,0,B|127:291|127:291|148:187,1,140,0|2,0:0|0:0,0:0:0:0:
224,135,31677,1,0,0:0:0:0:
177,48,31831,2,0,P|142:36|97:40,1,70,8|0,0:0|0:0,0:0:0:0:
27,92,32139,2,0,L|31:134,3,35,2|2|2|2,0:0|0:0|0:0|0:0,0:0:0:0:
56,169,32447,6,0,L|48:245,2,70,8|8|2,0:0|0:0|0:0,0:0:0:0:
152,151,32908,2,0,P|210:152|253:234,1,140,0|8,0:0|0:0,0:0:0:0:
276,310,33370,1,2,0:0:0:0:
351,371,33523,6,0,P|387:366|436:374,1,70,8|0,0:0|0:0,0:0:0:0:
489,299,33831,2,0,L|483:252,3,35,2|2|2|2,0:0|0:0|0:0|0:0,0:0:0:0:
446,232,34139,2,0,L|453:185,3,35,8|8|8|8,0:0|0:0|0:0|0:0,0:0:0:0:
486,162,34447,2,0,L|479:113,3,35,8|8|0|0,0:0|0:0|0:0|0:0,0:0:0:0:
476,78,34754,1,0,0:0:0:0:
387,36,34908,6,0,B|345:30|345:30|314:39|314:39|263:31,1,112,8|2,0:0|0:0,0:0:0:0:
186,63,35370,1,8,0:0:0:0:
186,63,35523,2,0,P|179:93|185:132,1,56,0|8,0:0|0:0,0:0:0:0:
250,184,35831,2,0,P|257:214|251:253,1,56,2|0,0:0|0:0,0:0:0:0:
190,309,36139,5,8,0:0:0:0:
96,327,36293,2,0,L|90:288,3,28,2|2|2|2,0:0|0:0|0:0|0:0,0:0:0:0:
57,264,36601,2,0,L|61:231,3,28,8|8|8|8,0:0|0:0|0:0|0:0,0:0:0:0:
91,199,36909,2,0,L|86:157,3,28,8|8|2|0,0:0|0:0|0:0|0:0,0:0:0:0:
103,126,37216,1,8,0:0:0:0:
62,39,37370,6,0,P|33:34|7:40,2,56,8|8|2,0:0|0:0|0:0,0:0:0:0:
155,56,37831,1,8,0:0:0:0:
155,56,37985,2,0,L|217:50,1,56,2|8,0:0|0:0,0:0:0:0:
305,33,38293,2,0,P|311:63|303:103,1,56,2|8,0:0|0:0,0:0:0:0:
229,141,38600,6,0,L|235:190,3,28,2|2|8|8,0:0|0:0|0:0|0:0,0:0:0:0:
275,191,38908,2,0,L|270:232,3,28,8|8|8|8,0:0|0:0|0:0|0:0,0:0:0:0:
232,247,39216,2,0,L|237:284,3,28,8|8|8|8,0:0|0:0|0:0|0:0,0:0:0:0:
275,301,39524,2,0,L|269:346,3,28,8|8|8|8,0:0|0:0|0:0|0:0,0:0:0:0:
237,364,39831,6,0,P|203:354|157:362,2,70,12|8|2,0:0|0:0|0:0,0:0:0:0:
334,380,40293,1,8,0:0:0:0:
420,333,40447,2,0,P|426:291|439:248,1,70,2|8,0:0|0:0,0:0:0:0:
354,206,40754,1,2,0:0:0:0:
282,272,40908,6,0,P|271:206|264:131,1,140,8|8,0:0|0:0,0:0:0:0:
325,56,41370,2,0,P|361:45|399:52,1,70,2|8,0:0|0:0,0:0:0:0:
482,88,41677,2,0,L|476:133,3,35,8|8|8|8,0:0|0:0|0:0|0:0,0:0:0:0:
438,154,41985,2,0,L|444:200,3,35,2|0|8|0,0:0|0:0|0:0|0:0,0:0:0:0:
451,237,42293,6,0,P|387:230|327:292,1,140,2|8,0:0|0:0,0:0:0:0:
274,356,42754,1,8,0:0:0:0:
274,356,42908,2,0,L|188:348,1,70,8|8,0:0|0:0,0:0:0:0:
140,273,43216,2,0,L|65:279,1,70,8|8,0:0|0:0,0:0:0:0:
26,190,43523,5,8,0:0:0:0:
26,190,43677,1,8,0:0:0:0:
64,99,43831,1,8,0:0:0:0:
64,99,43985,1,8,0:0:0:0:
159,77,44139,2,0,L|211:72,3,35,8|8|8|8,0:0|0:0|0:0|0:0,0:0:0:0:
231,40,44447,2,0,L|385:51,1,140,2|0,0:0|0:0,0:0:0:0:
370,49,45985,6,0,L|421:44,4,35,8|8|8|8|2,0:0|0:0|0:0|0:0|0:0,0:0:0:0:
370,49,47216,6,0,B|336:75|336:75|346:209,1,167.999994873047,12|2,0:0|0:0,0:0:0:0:
429,269,47677,1,0,0:0:0:0:
429,269,47831,2,0,L|421:362,1,83.9999974365235,8|0,0:0|0:0,0:0:0:0:
312,364,48139,2,0,L|304:280,1,83.9999974365235,2|0,0:0|0:0,0:0:0:0:
218,211,48447,6,0,B|134:175|144:257|42:216,1,167.999994873047,8|2,0:0|0:0,0:0:0:0:
15,120,48908,1,0,0:0:0:0:
15,120,49062,2,0,P|42:58|146:51,1,167.999994873047,0|2,0:0|0:0,0:0:0:0:
209,123,49523,6,0,P|194:200|184:305,1,167.999994873047,0|0,0:0|0:0,0:0:0:0:
105,365,49985,2,0,P|96:282|76:184,1,167.999994873047,2|8,0:0|0:0,0:0:0:0:
110,93,50447,1,0,0:0:0:0:
110,93,50600,2,0,P|155:74|200:80,1,83.9999974365235,2|0,0:0|0:0,0:0:0:0:
295,103,50908,5,8,0:0:0:0:
296,103,51062,2,0,P|346:113|386:102,1,83.9999974365235,0|2,0:0|0:0,0:0:0:0:
471,48,51370,1,0,0:0:0:0:
497,153,51523,2,0,P|490:182|488:211,3,41.9999987182618,8|8|8|8,0:0|0:0|0:0|0:0,0:0:0:0:
480,248,51831,1,2,0:0:0:0:
438,349,51985,6,0,P|365:328|271:323,1,167.999994873047,8|8,0:0|0:0,0:0:0:0:
211,232,52447,1,2,0:0:0:0:
211,232,52600,2,0,P|257:221|304:222,1,83.9999974365235,0|8,0:0|0:0,0:0:0:0:
352,128,52908,1,0,0:0:0:0:
352,128,53062,2,0,P|311:117|269:116,1,83.9999974365235,2|0,0:0|0:0,0:0:0:0:
160,130,53370,6,0,L|149:32,1,83.9999974365235,8|0,0:0|0:0,0:0:0:0:
53,96,53677,2,0,L|44:189,1,83.9999974365235,2|0,0:0|0:0,0:0:0:0:
56,288,53985,1,8,0:0:0:0:
56,288,54139,2,0,P|94:298|145:283,1,83.9999974365235,0|2,0:0|0:0,0:0:0:0:
233,234,54447,6,0,P|309:206|391:236,1,167.999994873047,0|8,0:0|0:0,0:0:0:0:
448,324,54908,2,0,B|428:279|428:279|456:150,1,167.999994873047,2|2,0:0|0:0,0:0:0:0:
405,63,55370,1,8,0:0:0:0:
296,68,55523,2,0,L|301:117,3,41.9999987182618,2|2|2|2,0:0|0:0|0:0|0:0,0:0:0:0:
265,152,55831,6,0,L|250:336,1,167.999994873047,8|8,0:0|0:0,0:0:0:0:
150,364,56293,2,0,P|106:367|53:335,1,83.9999974365235,2|0,0:0|0:0,0:0:0:0:
31,262,56600,1,8,0:0:0:0:
31,262,56677,1,8,0:0:0:0:
31,262,56754,2,0,L|22:163,1,83.9999974365235,2|0,0:0|0:0,0:0:0:0:
63,75,57062,6,0,B|150:44|140:131|237:85,1,167.999994873047,8|2,0:0|0:0,0:0:0:0:
328,65,57523,1,0,0:0:0:0:
328,65,57677,2,0,L|320:158,1,83.9999974365235,8|0,0:0|0:0,0:0:0:0:
246,229,57985,2,0,L|253:326,1,83.9999974365235,2|0,0:0|0:0,0:0:0:0:
350,362,58293,6,0,P|411:368|494:280,1,167.999994873047,8|2,0:0|0:0,0:0:0:0:
496,193,58754,1,0,0:0:0:0:
496,193,58908,2,0,L|319:182,1,167.999994873047,0|2,0:0|0:0,0:0:0:0:
251,104,59369,6,0,P|278:196|240:265,1,167.999994873047,0|0,0:0|0:0,0:0:0:0:
183,346,59831,2,0,P|109:327|5:322,1,167.999994873047,2|8,0:0|0:0,0:0:0:0:
3,212,60293,1,0,0:0:0:0:
3,212,60446,2,0,P|-4:167|10:121,1,83.9999974365235,2|0,0:0|0:0,0:0:0:0:
113,109,60754,5,8,0:0:0:0:
113,109,60908,2,0,L|105:14,1,83.9999974365235,0|2,0:0|0:0,0:0:0:0:
215,16,61216,1,0,0:0:0:0:
297,86,61369,2,0,L|293:143,3,41.9999987182618,0|8|8|8,0:0|0:0|0:0|0:0,0:0:0:0:
288,183,61677,1,2,0:0:0:0:
290,292,61831,6,0,P|369:300|424:237,1,167.999994873047,0|0,0:0|0:0,0:0:0:0:
464,136,62293,1,2,0:0:0:0:
464,136,62447,2,0,L|456:41,1,83.9999974365235,0|8,0:0|0:0,0:0:0:0:
350,26,62754,1,0,0:0:0:0:
350,26,62908,2,0,P|309:15|267:14,1,83.9999974365235,2|0,0:0|0:0,0:0:0:0:
178,77,63216,6,0,L|170:179,1,83.9999974365235,8|0,0:0|0:0,0:0:0:0:
78,219,63523,2,0,L|86:316,1,83.9999974365235,2|0,0:0|0:0,0:0:0:0:
180,356,63831,1,8,0:0:0:0:
180,356,63985,2,0,P|221:349|264:358,1,83.9999974365235,0|2,0:0|0:0,0:0:0:0:
371,367,64293,6,0,L|384:191,1,167.999994873047,0|0,3:0|3:0,0:0:0:0:
326,106,64754,2,0,P|406:92|482:152,1,167.999994873047,2|2,0:0|0:0,0:0:0:0:
482,248,65216,1,8,0:0:0:0:
403,323,65369,2,0,L|353:317,3,41.9999987182618,2|2|2|2,0:0|0:0|0:0|0:0,0:0:0:0:
328,273,65677,6,0,L|156:286,1,167.999994873047,8|8,0:0|0:0,0:0:0:0:
62,235,66139,2,0,P|53:194|50:145,1,83.9999974365235,2|0,0:0|0:0,0:0:0:0:
155,125,66446,1,0,0:0:0:0:
155,125,66523,1,0,0:0:0:0:
155,125,66600,2,0,P|151:166|142:207,1,83.9999974365235,2|0,0:0|0:0,0:0:0:0:
88,303,66908,6,0,P|47:286|-5:289,2,83.9999974365235,2|8|8,0:0|0:0|0:0,0:0:0:0:
174,371,67370,1,2,0:0:0:0:
174,371,67523,2,0,L|266:363,1,83.9999974365235,8|8,0:0|0:0,0:0:0:0:
355,312,67831,2,0,L|455:320,1,83.9999974365235,2|8,0:0|0:0,0:0:0:0:
503,229,68139,6,0,L|498:179,3,41.9999987182618,2|2|8|8,0:0|0:0|0:0|0:0,0:0:0:0:
447,166,68447,2,0,L|453:115,3,41.9999987182618,8|8|2|8,0:0|0:0|0:0|0:0,0:0:0:0:
494,89,68755,2,0,L|488:27,3,41.9999987182618,8|8|8|8,0:0|0:0|0:0|0:0,0:0:0:0:
449,10,69062,1,8,0:0:0:0:
352,61,69216,6,0,B|263:92|277:22|184:54,1,167.999994873047,2|2,0:0|0:0,0:0:0:0:
85,84,69677,1,2,0:0:0:0:
85,84,69831,2,0,L|92:192,1,83.9999974365235,2|2,0:0|0:0,0:0:0:0:
36,263,70139,1,2,0:0:0:0:
94,355,70293,1,2,0:0:0:0:
203,356,70447,1,2,0:0:0:0:
253,260,70600,5,2,0:0:0:0:
253,260,71216,1,0,0:0:0:0:
43,54,71677,6,0,P|35:107|25:215,1,140,12|8,0:0|0:0,0:0:0:0:
27,291,72139,2,0,P|83:264|164:281,1,140,2|8,0:0|0:0,0:0:0:0:
241,327,72600,1,0,0:0:0:0:
331,364,72754,2,0,L|417:355,1,70,2|0,0:0|0:0,0:0:0:0:
461,278,73062,6,0,L|371:268,1,70,8|8,0:0|0:0,0:0:0:0:
377,172,73370,2,0,P|384:135|388:84,2,70,2|0|8,0:0|0:0|0:0,0:0:0:0:
287,211,73831,1,0,0:0:0:0:
202,161,73985,1,2,0:0:0:0:
119,238,74139,6,0,B|96:273|96:273|106:394,1,140,8|8,0:0|0:0,0:0:0:0:
203,384,74600,2,0,L|213:242,1,140,2|8,0:0|0:0,0:0:0:0:
187,148,75062,1,0,0:0:0:0:
93,176,75216,2,0,P|50:171|15:144,1,70,2|0,0:0|0:0,0:0:0:0:
51,62,75523,6,0,P|85:64|116:80,1,70,8|8,0:0|0:0,0:0:0:0:
187,148,75831,2,0,L|282:140,2,70,2|0|8,0:0|0:0|0:0,0:0:0:0:
93,176,76293,1,0,0:0:0:0:
50,264,76447,1,2,0:0:0:0:
122,348,76600,6,0,B|194:317|190:382|266:352,1,140,8|8,0:0|0:0,0:0:0:0:
348,318,77062,2,0,P|355:256|414:206,1,140,2|8,0:0|0:0,0:0:0:0:
442,299,77523,1,0,0:0:0:0:
348,318,77677,2,0,P|312:310|260:312,1,70,2|0,0:0|0:0,0:0:0:0:
212,236,77985,6,0,P|248:228|300:230,1,70,8|8,0:0|0:0,0:0:0:0:
338,146,78293,2,0,P|303:145|268:137,2,70,2|0|8,0:0|0:0|0:0,0:0:0:0:
431,114,78754,1,0,0:0:0:0:
426,16,78908,1,2,0:0:0:0:
314,22,79062,6,0,B|263:16|263:16|227:33|227:33|155:25,1,140,8|8,0:0|0:0,0:0:0:0:
86,62,79523,2,0,P|95:120|101:219,1,140,2|8,0:0|0:0,0:0:0:0:
172,268,79985,1,0,0:0:0:0:
263,233,80139,2,0,P|268:193|280:144,1,70,2|8,0:0|0:0,0:0:0:0:
360,116,80447,5,0,0:0:0:0:
453,142,80600,2,0,P|456:160|458:184,3,35,2|2|8|8,0:0|0:0|0:0|0:0,0:0:0:0:
491,212,80908,2,0,P|488:230|486:254,3,35,8|8|0|0,0:0|0:0|0:0|0:0,0:0:0:0:
445,274,81216,2,0,P|447:291|449:308,3,35,8|0|2|0,0:0|0:0|0:0|0:0,0:0:0:0:
461,356,81523,1,0,0:0:0:0:
364,371,81677,5,8,0:0:0:0:
212,246,81985,1,0,0:0:0:0:
