osu file format v14

[General]
AudioFilename: audio.mp3
AudioLeadIn: 0
PreviewTime: 46315
Countdown: 0
SampleSet: None
StackLeniency: 0.9
Mode: 0
LetterboxInBreaks: 0
WidescreenStoryboard: 1

[Editor]
DistanceSpacing: 1.4
BeatDivisor: 4
GridSize: 32
TimelineZoom: 2.599999

[Metadata]
Title:DESTRUCTION
TitleUnicode:DESTRUCTION
Artist:Ripple(CV.Numakura Manami)xTop Speed(CV.Uchiyama Yumi)
ArtistUnicode:リップル(CV.沼倉愛美)×トップスピード(CV.内山夕実)
Creator:Yuuya_ke
Version:Extreme (2020 ver)
Source:魔法少女育成計画
Tags:shogunmoon shunao -Laura- akitoshi corinn _kotachi_ mahou shoujo ikusei keikaku magical girl raising project まほいく mahoiku musica magica character song キャラソン キャラクターソング集 篠崎あやと shinozaki ayato
BeatmapID:2571740
BeatmapSetID:646022

[Difficulty]
HPDrainRate:5
CircleSize:4
OverallDifficulty:8.8
ApproachRate:9.3
SliderMultiplier:1.8
SliderTickRate:2

[Events]
//Background and Video events
0,0,"myangelripple.png",0,0
//Break Periods
//Storyboard Layer 0 (Background)
//Storyboard Layer 1 (Fail)
//Storyboard Layer 2 (Pass)
//Storyboard Layer 3 (Foreground)
//Storyboard Layer 4 (Overlay)
//Storyboard Sound Samples

[TimingPoints]
469,307.692307692308,4,1,1,70,1,0
5392,-133.333333333333,4,1,1,70,0,0
15238,-100,4,1,1,70,0,0
19776,-100,4,1,1,5,0,0
19853,-100,4,1,1,70,0,0
25084,-80,4,1,1,70,0,0
25392,-100,4,1,1,70,0,0
34622,-80,4,1,1,70,0,0
34930,-100,4,1,1,70,0,0
44469,-80,4,1,1,70,0,0
44776,-100,4,1,1,70,0,0
46622,-200,4,1,1,70,0,0
47238,-80,4,1,1,70,0,0
47545,-90.9090909090909,4,1,1,70,0,0
56776,-200,4,1,1,70,0,0
57007,-200,4,1,1,5,0,0
57084,-80,4,1,1,70,0,0
57392,-90.9090909090909,4,1,1,70,0,0
71238,-200,4,1,1,70,0,0
71699,-80,4,1,1,70,0,0
71776,-90.9090909090909,4,1,1,70,0,0
81930,-90.9090909090909,4,1,1,5,0,0
82007,-90.9090909090909,4,1,1,70,0,0
82161,-90.9090909090909,4,1,1,5,0,0

[Colours]
Combo1 : 255,151,248
Combo2 : 135,63,254
Combo3 : 186,10,94
SliderTrackOverride : 58,12,54
SliderBorder : 255,240,253

[HitObjects]
256,192,469,12,0,5084,0:0:0:0:
56,198,5392,6,0,P|53:166|48:125,2,67.5000025749208
26,289,5853,2,0,P|91:234|153:246,2,135.000005149842
230,371,6776,2,0,P|292:359|381:348,1,135.000005149842
440,370,7238,1,0,0:0:0:0:
476,188,7545,1,0,0:0:0:0:
476,188,7699,1,0,0:0:0:0:
425,100,7853,6,0,P|430:69|435:32,2,67.5000025749208
237,150,8315,2,0,B|275:158|297:183|297:183|329:170|364:179,2,135.000005149842
112,238,9238,2,0,P|108:190|100:94,1,135.000005149842
36,40,9699,1,0,0:0:0:0:
209,193,10007,1,0,0:0:0:0:
32,314,10315,6,0,P|78:311|116:308,1,67.5000025749208
213,365,10622,2,0,P|255:369|286:374,1,67.5000025749208
423,306,10930,2,0,P|376:267|300:284,1,135.000005149842
226,229,11392,1,0,0:0:0:0:
297,153,11545,6,0,P|293:113|292:72,1,67.5000025749208
222,16,11853,1,0,0:0:0:0:
375,61,12007,2,0,B|438:54|438:54|453:63|453:63|516:55,2,135.000005149842
483,177,12776,6,0,P|493:215|478:253,1,67.5000025749208
283,270,13084,2,0,P|323:265|368:262,1,67.5000025749208
432,335,13392,6,0,B|294:254|321:408|156:372,2,270.000010299683
243,197,14930,1,0,0:0:0:0:
443,20,15238,5,0,0:0:0:0:
377,198,15392,1,0,0:0:0:0:
232,94,15545,1,0,0:0:0:0:
463,109,15699,5,0,0:0:0:0:
288,178,16007,5,0,0:0:0:0:
448,293,16315,6,0,P|364:282|293:357,1,180
297,342,16930,1,0,0:0:0:0:
233,236,17084,2,0,P|190:250|138:252,1,90
29,323,17392,2,0,P|30:278|31:234,1,90
198,6,17699,5,0,0:0:0:0:
1,116,17853,1,0,0:0:0:0:
185,240,18007,1,0,0:0:0:0:
84,48,18161,5,0,0:0:0:0:
83,283,18469,5,0,0:0:0:0:
306,185,18776,6,0,B|266:141|266:141|305:7,1,180
299,25,19392,1,0,0:0:0:0:
501,108,19545,2,0,P|455:155|392:144,1,135
324,211,19853,2,0,P|334:262|342:311,1,90
482,351,20161,5,0,0:0:0:0:
254,285,20315,1,0,0:0:0:0:
444,152,20469,1,0,0:0:0:0:
333,330,20622,1,0,0:0:0:0:
336,96,20776,1,0,0:0:0:0:
336,96,21084,1,0,0:0:0:0:
264,186,21238,1,0,0:0:0:0:
192,143,21392,6,0,B|120:156|120:156|104:171|104:171|5:187,1,180
179,253,21853,1,0,0:0:0:0:
21,71,22161,1,0,0:0:0:0:
268,30,22469,1,0,0:0:0:0:
161,128,22622,5,0,0:0:0:0:
411,181,22776,1,0,0:0:0:0:
231,278,22930,1,0,0:0:0:0:
369,56,23084,6,0,P|375:79|378:103,5,45
500,153,23545,2,0,P|495:178|491:200,5,45
415,270,24007,2,0,P|418:299|421:327,5,45
336,212,24469,5,0,0:0:0:0:
292,199,24545,1,0,0:0:0:0:
248,205,24622,1,0,0:0:0:0:
212,230,24699,1,0,0:0:0:0:
187,268,24776,1,0,0:0:0:0:
161,304,24853,1,0,0:0:0:0:
123,329,24930,1,0,0:0:0:0:
79,336,25007,1,0,0:0:0:0:
36,326,25084,6,0,P|114:307|178:374,1,168.75
272,335,25392,1,0,0:0:0:0:
117,215,25545,1,0,0:0:0:0:
306,90,25699,2,0,P|310:136|317:190,1,90
189,12,26007,1,0,0:0:0:0:
117,119,26161,6,0,P|73:114|13:108,1,90
234,243,26469,1,0,0:0:0:0:
415,163,26622,2,0,P|391:171|367:179,1,45
217,248,26776,2,0,P|141:235|33:219,1,180
274,370,27238,5,0,0:0:0:0:
295,335,27315,1,0,0:0:0:0:
330,314,27392,1,0,0:0:0:0:
370,315,27469,1,0,0:0:0:0:
404,336,27545,5,0,0:0:0:0:
277,187,27699,1,0,0:0:0:0:
477,100,27853,2,0,P|471:143|465:199,1,90
381,227,28084,1,0,0:0:0:0:
386,241,28161,1,0,0:0:0:0:
213,115,28315,1,0,0:0:0:0:
385,27,28469,1,0,0:0:0:0:
160,10,28622,2,0,P|110:16|53:19,1,90
70,18,28930,5,0,0:0:0:0:
112,22,29006,1,0,0:0:0:0:
144,52,29083,1,0,0:0:0:0:
148,96,29160,1,0,0:0:0:0:
120,139,29238,1,0,0:0:0:0:
68,143,29315,1,0,0:0:0:0:
20,72,29392,5,0,0:0:0:0:
29,120,29468,1,0,0:0:0:0:
38,169,29545,1,0,0:0:0:0:
47,218,29622,1,0,0:0:0:0:
56,267,29699,2,0,P|49:297|45:321,1,45
186,384,29853,6,0,P|242:324|353:357,1,180
405,140,30315,1,0,0:0:0:0:
405,140,30622,1,0,0:0:0:0:
245,217,30776,1,0,0:0:0:0:
431,325,30930,1,0,0:0:0:0:
226,217,31084,6,0,P|221:119|213:18,1,180
482,60,31545,2,0,P|435:59|393:67,1,90
137,113,31853,1,0,0:0:0:0:
323,231,32007,1,0,0:0:0:0:
138,332,32161,5,0,0:0:0:0:
172,311,32238,1,0,0:0:0:0:
212,310,32315,1,0,0:0:0:0:
246,333,32392,1,0,0:0:0:0:
261,370,32469,1,0,0:0:0:0:
219,163,32622,1,0,0:0:0:0:
390,295,32776,1,0,0:0:0:0:
124,229,32930,2,0,P|125:184|126:111,1,90
344,14,33238,5,0,0:0:0:0:
188,38,33392,1,0,0:0:0:0:
445,116,33545,6,0,P|439:180|435:263,1,135
507,345,33853,1,0,0:0:0:0:
499,350,33930,1,0,0:0:0:0:
491,355,34007,2,0,P|465:363|444:372,1,45
337,286,34161,2,0,P|312:283|266:271,1,45
201,360,34315,5,0,0:0:0:0:
187,359,34392,1,0,0:0:0:0:
173,356,34469,1,0,0:0:0:0:
160,353,34545,1,0,0:0:0:0:
147,348,34622,6,0,B|118:284|175:249|135:157,1,168.75
48,141,34930,6,0,P|99:161|182:79,1,180
405,66,35392,2,0,P|320:79|271:10,1,180
273,198,35853,2,0,P|290:293|303:381,1,180
470,210,36315,5,0,0:0:0:0:
468,218,36392,1,0,0:0:0:0:
463,226,36469,2,0,P|461:254|457:286,1,45
374,123,36622,2,0,P|370:97|366:78,1,45
278,240,36776,5,0,0:0:0:0:
257,205,36853,1,0,0:0:0:0:
222,184,36930,1,0,0:0:0:0:
181,187,37007,1,0,0:0:0:0:
147,210,37084,1,0,0:0:0:0:
325,335,37238,1,0,0:0:0:0:
93,382,37392,5,0,0:0:0:0:
93,382,37545,1,0,0:0:0:0:
10,221,37699,5,0,0:0:0:0:
201,335,37853,1,0,0:0:0:0:
321,155,38007,1,0,0:0:0:0:
129,276,38161,1,0,0:0:0:0:
101,50,38315,1,0,0:0:0:0:
268,220,38469,1,0,0:0:0:0:
12,163,38622,5,0,0:0:0:0:
37,154,38699,1,0,0:0:0:0:
66,147,38776,1,0,0:0:0:0:
96,139,38853,1,0,0:0:0:0:
130,133,38930,2,0,P|124:159|120:183,1,45
324,298,39084,2,0,P|320:277|316:253,1,45
104,335,39238,5,0,0:0:0:0:
106,341,39315,1,0,0:0:0:0:
106,348,39392,1,0,0:0:0:0:
107,356,39469,1,0,0:0:0:0:
108,364,39545,2,0,P|118:341|129:309,1,45
224,249,39699,2,0,P|226:227|226:202,1,45
202,91,39853,5,0,0:0:0:0:
222,277,40007,1,0,0:0:0:0:
79,107,40161,2,0,P|78:62|72:16,1,90
428,49,40469,2,0,P|383:48|339:46,1,90
206,0,40776,1,0,0:0:0:0:
348,216,40930,6,0,P|430:155|517:184,1,180
336,353,41392,1,0,0:0:0:0:
504,275,41545,1,0,0:0:0:0:
206,195,41699,5,0,0:0:0:0:
213,235,41776,1,0,0:0:0:0:
218,276,41853,1,0,0:0:0:0:
227,316,41930,1,0,0:0:0:0:
234,356,42007,1,0,0:0:0:0:
410,185,42161,1,0,0:0:0:0:
94,90,42315,5,0,0:0:0:0:
326,259,42622,5,0,0:0:0:0:
387,20,42776,1,0,0:0:0:0:
326,259,42930,1,0,0:0:0:0:
240,104,43084,1,0,0:0:0:0:
510,233,43238,1,0,0:0:0:0:
302,375,43392,1,0,0:0:0:0:
384,57,43545,5,0,0:0:0:0:
445,323,43699,1,0,0:0:0:0:
384,57,43853,1,0,0:0:0:0:
142,218,44007,1,0,0:0:0:0:
487,249,44161,5,0,0:0:0:0:
446,219,44238,1,0,0:0:0:0:
396,221,44315,1,0,0:0:0:0:
361,257,44392,1,0,0:0:0:0:
359,307,44469,6,0,P|368:223|380:128,1,168.75
468,61,44776,5,0,0:0:0:0:
271,164,45084,1,0,0:0:0:0:
125,23,45392,1,0,0:0:0:0:
231,50,45545,1,0,0:0:0:0:
19,119,45853,1,0,0:0:0:0:
197,276,46007,5,0,0:0:0:0:
216,229,46084,1,0,0:0:0:0:
258,199,46161,1,0,0:0:0:0:
308,201,46238,1,0,0:0:0:0:
350,229,46315,1,0,0:0:0:0:
149,363,46622,6,0,P|107:357|48:350,1,90
59,351,47238,6,0,B|140:341|140:341|154:351|154:351|230:342,1,168.75
322,381,47545,1,0,0:0:0:0:
177,208,47699,2,0,B|143:153|143:153|196:20,1,198.000006042481
437,99,48161,1,0,0:0:0:0:
279,160,48315,1,0,0:0:0:0:
482,283,48469,6,0,P|488:229|497:184,1,99.0000030212403
281,365,48776,2,0,P|334:361|402:359,1,99.0000030212403
183,172,49084,1,0,0:0:0:0:
355,260,49238,1,0,0:0:0:0:
152,347,49392,1,0,0:0:0:0:
369,255,49545,6,0,B|396:175|325:150|367:38,1,198.000006042481
240,3,50007,5,0,0:0:0:0:
471,106,50161,1,0,0:0:0:0:
268,210,50315,1,0,0:0:0:0:
483,98,50469,2,0,P|493:50|478:0,1,99.0000030212403
341,310,50776,1,0,0:0:0:0:
477,207,50930,5,0,0:0:0:0:
233,268,51084,2,0,P|238:317|244:367,1,99.0000030212403
58,190,51392,1,0,0:0:0:0:
316,56,51545,5,0,0:0:0:0:
278,74,51622,1,0,0:0:0:0:
235,79,51699,1,0,0:0:0:0:
197,56,51776,1,0,0:0:0:0:
174,18,51853,1,0,0:0:0:0:
323,207,52007,6,0,B|408:192|430:262|516:248,1,198.000006042481
302,343,52469,1,0,0:0:0:0:
369,78,52622,1,0,0:0:0:0:
203,255,52776,5,0,0:0:0:0:
159,126,52930,1,0,0:0:0:0:
91,332,53084,1,0,0:0:0:0:
282,171,53238,1,0,0:0:0:0:
7,67,53392,6,0,P|17:118|24:175,1,99.0000030212403
265,34,53699,1,0,0:0:0:0:
106,0,53853,1,0,0:0:0:0:
224,244,54007,1,0,0:0:0:0:
346,125,54161,2,0,P|398:128|456:127,1,99.0000030212403
279,327,54469,6,0,B|203:316|203:316|178:337|178:337|89:327,1,198.000006042481
440,125,54930,5,0,0:0:0:0:
239,245,55084,1,0,0:0:0:0:
437,354,55238,1,0,0:0:0:0:
256,151,55392,1,0,0:0:0:0:
492,10,55545,5,0,0:0:0:0:
490,18,55622,1,0,0:0:0:0:
488,28,55699,1,0,0:0:0:0:
488,38,55776,1,0,0:0:0:0:
485,48,55853,6,0,P|400:73|326:-1,1,198.000006042481
176,173,56315,2,0,P|184:222|190:280,1,99.0000030212403
0,29,56622,1,0,0:0:0:0:
0,29,56699,1,0,0:0:0:0:
0,29,56776,6,0,P|43:23|77:19,1,67.5
79,40,57084,6,0,B|22:79|22:79|47:183,1,168.75
38,276,57392,1,0,0:0:0:0:
243,127,57545,1,0,0:0:0:0:
298,367,57699,5,0,0:0:0:0:
178,210,57853,1,0,0:0:0:0:
307,378,58007,1,0,0:0:0:0:
392,129,58161,1,0,0:0:0:0:
252,285,58315,6,0,P|304:279|367:272,1,99.0000030212403
498,74,58622,2,0,P|512:123|500:174,1,99.0000030212403
239,12,58930,1,0,0:0:0:0:
413,145,59084,1,0,0:0:0:0:
207,238,59238,1,0,0:0:0:0:
424,138,59392,6,0,P|431:240|437:340,1,198.000006042481
218,62,59853,1,0,0:0:0:0:
316,237,60007,1,0,0:0:0:0:
385,42,60161,5,0,0:0:0:0:
165,236,60315,1,0,0:0:0:0:
398,49,60469,1,0,0:0:0:0:
153,227,60622,1,0,0:0:0:0:
29,63,60776,5,0,0:0:0:0:
244,11,60930,2,0,P|237:64|234:119,1,99.0000030212403
60,282,61238,1,0,0:0:0:0:
252,380,61392,5,0,0:0:0:0:
272,337,61469,1,0,0:0:0:0:
312,313,61545,1,0,0:0:0:0:
359,318,61622,1,0,0:0:0:0:
397,345,61699,1,0,0:0:0:0:
203,202,61853,6,0,P|131:194|49:185,1,148.50000453186
4,259,62161,1,0,0:0:0:0:
183,8,62315,2,0,P|188:58|193:106,1,99.0000030212403
187,324,62622,5,0,0:0:0:0:
51,153,62776,1,0,0:0:0:0:
284,61,62930,1,0,0:0:0:0:
132,203,63084,1,0,0:0:0:0:
317,345,63238,5,0,0:0:0:0:
226,143,63392,1,0,0:0:0:0:
323,358,63545,1,0,0:0:0:0:
409,114,63699,1,0,0:0:0:0:
196,261,63853,1,0,0:0:0:0:
467,355,64007,2,0,P|471:296|475:256,1,99.0000030212403
291,33,64315,6,0,B|251:97|330:158|290:232,1,198.000006042481
123,181,64776,5,0,0:0:0:0:
388,103,64930,1,0,0:0:0:0:
98,37,65084,1,0,0:0:0:0:
381,208,65238,1,0,0:0:0:0:
110,352,65392,5,0,0:0:0:0:
104,305,65469,1,0,0:0:0:0:
98,257,65545,1,0,0:0:0:0:
92,205,65622,1,0,0:0:0:0:
86,158,65699,6,0,P|157:225|267:197,1,198.000006042481
333,15,66161,2,0,P|284:15|234:8,1,99.0000030212403
486,151,66469,1,0,0:0:0:0:
490,168,66545,1,0,0:0:0:0:
495,188,66622,1,0,0:0:0:0:
334,45,66930,5,0,0:0:0:0:
392,294,67084,1,0,0:0:0:0:
496,160,67238,1,0,0:0:0:0:
301,368,67392,5,0,0:0:0:0:
228,129,67545,1,0,0:0:0:0:
423,220,67699,1,0,0:0:0:0:
159,312,67853,5,0,0:0:0:0:
359,158,68007,1,0,0:0:0:0:
122,18,68161,5,0,0:0:0:0:
170,13,68237,1,0,0:0:0:0:
216,30,68314,1,0,0:0:0:0:
249,66,68391,1,0,0:0:0:0:
263,113,68468,1,0,0:0:0:0:
254,161,68545,1,0,0:0:0:0:
225,200,68622,1,0,0:0:0:0:
181,222,68699,1,0,0:0:0:0:
132,222,68776,6,0,B|135:195|137:167,1,49.5000015106202
27,112,68930,2,0,B|30:139|32:167,1,49.5000015106202
27,304,69084,2,0,P|23:279|16:255,1,49.5000015106202
111,63,69238,5,0,0:0:0:0:
175,347,69545,5,0,0:0:0:0:
268,109,69699,1,0,0:0:0:0:
10,217,69853,1,0,0:0:0:0:
295,272,70007,5,0,0:0:0:0:
50,112,70161,1,0,0:0:0:0:
327,18,70315,1,0,0:0:0:0:
88,254,70469,1,0,0:0:0:0:
407,364,70622,5,0,0:0:0:0:
376,340,71238,6,0,P|370:282|363:228,1,112.5
263,149,71699,6,0,B|329:141|369:189|369:189|429:201|478:152,1,225
204,25,72161,2,0,P|149:34|89:43,1,99.0000030212403
0,283,72469,1,0,0:0:0:0:
117,126,72622,1,0,0:0:0:0:
158,382,72776,1,0,0:0:0:0:
71,214,72930,1,0,0:0:0:0:
359,221,73084,5,0,0:0:0:0:
191,296,73238,1,0,0:0:0:0:
426,382,73392,2,0,P|423:332|420:283,1,99.0000030212403
483,182,73699,1,0,0:0:0:0:
282,288,73853,1,0,0:0:0:0:
216,72,74007,1,0,0:0:0:0:
288,304,74161,6,0,P|200:235|113:258,1,198.000006042481
5,44,74622,2,0,P|14:93|22:145,1,99.0000030212403
311,51,74930,1,0,0:0:0:0:
146,17,75084,1,0,0:0:0:0:
368,156,75238,1,0,0:0:0:0:
216,249,75392,1,0,0:0:0:0:
415,41,75545,5,0,0:0:0:0:
229,89,75699,1,0,0:0:0:0:
441,225,75853,2,0,P|446:165|453:114,1,99.0000030212403
295,355,76161,1,0,0:0:0:0:
204,153,76315,1,0,0:0:0:0:
443,255,76469,1,0,0:0:0:0:
188,150,76622,6,0,B|99:135|100:202|0:192,1,198.000006042481
309,259,77084,2,0,P|312:205|318:160,1,99.0000030212403
105,27,77392,5,0,0:0:0:0:
257,69,77545,1,0,0:0:0:0:
54,205,77699,1,0,0:0:0:0:
268,66,77853,1,0,0:0:0:0:
54,94,78007,5,0,0:0:0:0:
140,308,78161,1,0,0:0:0:0:
319,180,78315,2,0,P|268:177|216:172,1,99.0000030212403
17,299,78622,1,0,0:0:0:0:
148,115,78776,1,0,0:0:0:0:
219,384,78930,1,0,0:0:0:0:
143,100,79084,6,0,P|245:83|342:72,1,198.000006042481
497,250,79545,2,0,P|444:242|395:236,1,99.0000030212403
270,304,79853,1,0,0:0:0:0:
390,147,80007,1,0,0:0:0:0:
457,384,80161,1,0,0:0:0:0:
234,220,80315,6,0,P|165:274|79:245,1,148.50000453186
17,322,80622,1,0,0:0:0:0:
18,329,80699,1,0,0:0:0:0:
19,336,80776,2,0,P|12:303|6:276,1,49.5000015106202
157,140,80930,2,0,P|153:164|150:189,1,49.5000015106202
0,0,81084,5,0,0:0:0:0:
62,7,81161,1,0,0:0:0:0:
125,17,81238,1,0,0:0:0:0:
188,27,81315,1,0,0:0:0:0:
250,36,81392,1,0,0:0:0:0:
508,266,81699,6,0,P|437:274|395:217,1,148.50000453186
326,358,82007,2,0,P|371:362|433:370,1,99.0000030212403
