osu file format v14

[General]
AudioFilename: audio.mp3
AudioLeadIn: 0
PreviewTime: 46370
Countdown: 0
SampleSet: None
StackLeniency: 0.7
Mode: 0
LetterboxInBreaks: 0
WidescreenStoryboard: 1

[Editor]
Bookmarks: 5370,12293,13370,13985,15216,18139,18293,18447,18600,18754,23523,23600,23677,23754,23831,23908,23985,24447,26139,26447,26754,27985,29216,29370,29831,32139,32447,34139,34293,34600,36600,40908,41677,42293,42908,43216,43523,43831,44139,46908,46985,47062,47139,47216,51985,57062,57523,66908,69139,69216,69293,69370,71216,72447,73062,73677,74139,76600,79062,80447,81370,81677
DistanceSpacing: 1
BeatDivisor: 2
GridSize: 4
TimelineZoom: 1.5

[Metadata]
Title:DESTRUCTION
TitleUnicode:DESTRUCTION
Artist:Ripple(CV.Numakura Manami)xTop Speed(CV.Uchiyama Yumi)
ArtistUnicode:リップル(CV.沼倉愛美)×トップスピード(CV.内山夕実)
Creator:Yuuya_ke
Version:Easy
Source:魔法少女育成計画
Tags:shogunmoon shunao -Laura- akitoshi corinn _kotachi_ mahou shoujo ikusei keikaku magical girl raising project まほいく mahoiku musica magica character song キャラソン キャラクターソング集 篠崎あやと shinozaki ayato
BeatmapID:1598225
BeatmapSetID:646022

[Difficulty]
HPDrainRate:3
CircleSize:3
OverallDifficulty:2
ApproachRate:2
SliderMultiplier:0.8
SliderTickRate:1

[Events]
//Background and Video events
0,0,"myangelripple.png",0,0
//Break Periods
2,5570,13656
//Storyboard Layer 0 (Background)
//Storyboard Layer 1 (Fail)
//Storyboard Layer 2 (Pass)
//Storyboard Layer 3 (Foreground)
//Storyboard Sound Samples

[TimingPoints]
447,307.692307692308,4,3,55,60,1,0
523,-100,4,3,1,60,0,0
600,-100,4,3,1,60,0,0
11139,-100,4,3,1,60,0,0
11216,-100,4,3,1,60,0,0
13677,-100,4,3,1,60,0,0
13754,-100,4,3,1,60,0,0
13908,-100,4,3,1,60,0,0
13985,-100,4,3,1,60,0,0
14293,-100,4,3,1,5,0,0
14370,-100,4,3,1,60,0,0
14523,-100,4,3,1,60,0,0
14600,-100,4,3,1,60,0,0
15216,-100,4,3,1,70,0,0
19754,-100,4,3,1,70,0,0
19831,-100,4,3,1,70,0,0
25062,-100,4,3,66,85,0,0
25139,-100,4,3,1,85,0,0
34831,-100,4,3,1,85,0,0
34908,-100,4,3,1,85,0,0
47216,-100,4,3,1,90,0,1
56985,-100,4,3,1,90,0,0
57062,-100,4,3,1,90,0,1
66831,-100,4,3,1,90,0,0
66908,-100,4,3,1,90,0,1
70677,-100,4,3,1,90,0,1
70754,-100,4,3,1,90,0,1
71677,-100,4,3,1,90,0,0
81600,-100,4,3,1,90,0,0
81677,-100,4,3,1,90,0,0

[Colours]
Combo1 : 255,151,248
Combo2 : 135,63,254
Combo3 : 186,10,94
SliderTrackOverride : 58,12,54
SliderBorder : 255,240,253

[HitObjects]
256,192,447,12,0,5370,0:0:0:0:
256,192,15216,6,0,L|345:199,1,80,0|2,0:0|0:0,0:0:0:0:
304,41,16139,2,0,P|403:67|416:110,2,120,0|0|0,0:0|0:0|0:0,0:0:0:0:
337,114,17370,1,0,0:0:0:0:
257,108,17677,6,0,L|166:101,1,80,8|2,0:0|0:0,0:0:0:0:
241,248,18600,2,0,P|176:222|154:180,2,120,0|0|0,0:0|0:0|0:0,0:0:0:0:
290,184,19831,1,0,0:0:0:0:
369,194,20139,6,0,B|413:218|424:265,1,80,8|2,0:0|0:0,0:0:0:0:
276,320,21062,2,0,L|407:331,2,120,0|0|0,0:0|0:0|0:0,0:0:0:0:
241,248,22293,1,0,0:0:0:0:
160,265,22600,6,0,L|75:272,1,80,8|2,0:0|0:0,0:0:0:0:
144,127,23523,2,0,B|223:134|223:134|249:166,1,120,0|0,0:0|0:0,0:0:0:0:
364,194,24447,2,0,P|265:202|240:266,1,160,8|12,0:0|0:0,0:0:0:0:
320,261,25370,6,0,L|313:341,2,80,2|8|2,0:0|0:0|0:0,0:0:0:0:
399,267,26293,2,0,P|439:230|445:195,1,80,0|2,0:0|0:0,0:0:0:0:
416,132,26908,1,8,0:0:0:0:
337,126,27216,1,2,0:0:0:0:
318,49,27523,6,0,P|244:26|185:76,1,160,0|8,0:0|0:0,0:0:0:0:
260,103,28447,1,2,0:0:0:0:
199,155,28754,2,0,B|120:161|120:161|67:224,1,160,0|8,0:0|0:0,0:0:0:0:
178,271,29831,6,0,L|317:283,1,120,12|2,0:0|0:0,0:0:0:0:
375,261,30600,2,0,P|394:223|393:187,1,80,8|2,0:0|0:0,0:0:0:0:
334,130,31216,2,0,P|291:132|260:151,1,80,0|2,0:0|0:0,0:0:0:0:
241,229,31831,2,0,P|264:264|296:281,1,80,8|2,0:0|0:0,0:0:0:0:
375,261,32447,6,0,L|471:269,2,80,8|2|0,0:0|0:0|0:0,0:0:0:0:
307,359,33523,2,0,B|252:370|248:325|184:344,1,120,8|2,0:0|0:0,0:0:0:0:
117,374,34293,2,0,L|37:367,1,80,8|2,0:0|0:0,0:0:0:0:
15,289,34908,6,0,P|4:227|35:179,2,120,8|8|2,0:0|0:0|0:0,0:0:0:0:
82,245,36139,1,8,0:0:0:0:
114,171,36447,2,0,L|204:163,2,80,2|8|2,0:0|0:0|0:0,0:0:0:0:
67,105,37370,5,8,0:0:0:0:
115,39,37677,2,0,P|75:24|32:31,2,80,2|2|2,0:0|0:0|0:0,0:0:0:0:
179,86,38600,1,2,0:0:0:0:
243,39,38908,2,0,B|333:69|311:10|403:40,1,160,8|8,0:0|0:0,0:0:0:0:
468,75,39831,5,12,0:0:0:0:
431,146,40139,1,2,0:0:0:0:
361,109,40447,2,0,P|353:161|403:220,2,120,2|8|2,0:0|0:0|0:0,0:0:0:0:
431,146,41677,2,0,P|465:187|469:218,1,80,8|2,0:0|0:0,0:0:0:0:
432,283,42293,5,2,0:0:0:0:
352,285,42600,2,0,L|344:374,2,80,8|8|8,0:0|0:0|0:0,0:0:0:0:
325,209,43523,2,0,P|283:192|223:207,1,80,8|8,0:0|0:0,0:0:0:0:
198,256,44139,2,0,P|240:273|300:258,1,80,8|2,0:0|0:0,0:0:0:0:
256,192,44754,12,8,45985,0:0:0:0:
256,192,47216,6,0,P|286:198|364:114,1,160,12|8,0:0|0:0,0:0:0:0:
284,118,48139,1,2,0:0:0:0:
234,57,48447,2,0,L|45:72,1,160,8|0,0:0|0:0,0:0:0:0:
72,189,49523,6,0,P|155:199|180:233,1,120,0|2,0:0|0:0,0:0:0:0:
105,263,50293,2,0,P|149:299|176:304,1,80,8|2,0:0|0:0,0:0:0:0:
243,270,50908,1,8,0:0:0:0:
296,328,51215,1,2,0:0:0:0:
354,275,51523,1,8,0:0:0:0:
428,368,51985,6,0,P|407:312|430:258,1,120,8|2,0:0|0:0,0:0:0:0:
501,221,52754,2,0,L|493:138,1,80,8|2,0:0|0:0,0:0:0:0:
414,131,53370,2,0,L|421:49,2,80,8|2|8,0:0|0:0|0:0,0:0:0:0:
375,201,54293,1,2,0:0:0:0:
296,185,54600,5,0,0:0:0:0:
322,260,54908,2,0,P|324:309|303:346,2,80,2|2|2,0:0|0:0|0:0,0:0:0:0:
247,288,55831,2,0,L|111:277,2,120,8|2|2,0:0|0:0|0:0,0:0:0:0:
260,208,57062,6,0,B|296:120|226:126|260:47,1,160,8|8,0:0|0:0,0:0:0:0:
330,86,57985,1,2,0:0:0:0:
371,17,58293,2,0,P|410:96|367:157,1,160,8|0,0:0|0:0,0:0:0:0:
460,236,59370,6,0,B|317:223,1,120,0|2,0:0|0:0,0:0:0:0:
304,299,60139,2,0,L|216:291,1,80,8|2,0:0|0:0,0:0:0:0:
187,365,60754,1,8,0:0:0:0:
143,297,61062,1,2,0:0:0:0:
64,317,61370,1,8,0:0:0:0:
77,197,61831,6,0,P|166:204|205:157,1,120,0|2,0:0|0:0,0:0:0:0:
185,108,62600,2,0,B|262:114|262:114|276:116|276:116|263:116|263:116|263:115|263:115|263:127|263:127|262:105|262:105|261:105|261:105|278:106|278:106,1,80,8|2,0:0|0:0,0:0:0:0:
344,127,63216,2,0,B|383:91|420:101|434:106|434:106|434:119|434:119|442:124|442:124|452:122|452:122|456:108|456:108,2,80,8|2|8,0:0|0:0|0:0,0:0:0:0:
296,191,64139,1,2,0:0:0:0:
342,256,64447,5,0,0:0:0:0:
420,243,64754,2,0,B|490:237|490:237|502:236|502:236|490:237|490:237|491:252|491:252|502:253|502:253,2,80,2|2|2,0:0|0:0|0:0,0:0:0:0:
390,317,65677,2,0,B|349:349|303:331|283:308|283:308|274:300|274:300|278:291|278:291|288:290|288:290,2,120,8|2|2,0:0|0:0|0:0,0:0:0:0:
342,256,66908,6,0,B|333:215|363:184|363:184|273:214|298:137|190:192,1,240,2|2,0:0|0:0,0:0:0:0:
184,106,68139,2,0,P|126:205|275:229,1,280,2|2,0:0|0:0,0:0:0:0:
334,335,69677,6,0,L|342:241,1,80,2|2,0:0|0:0,0:0:0:0:
420,243,70293,2,0,L|411:150,1,80,2|2,0:0|0:0,0:0:0:0:
256,131,71216,1,0,0:0:0:0:
247,255,71677,6,0,P|188:242|131:284,1,120,12|2,0:0|0:0,0:0:0:0:
202,321,72447,2,0,B|279:363|281:295|368:333,2,160,8|8|8,0:0|0:0|0:0,0:0:0:0:
82,337,74139,6,0,P|52:286|65:229,1,120,8|2,0:0|0:0,0:0:0:0:
133,186,74908,2,0,L|317:169,2,160,8|8|8,0:0|0:0|0:0,0:0:0:0:
61,89,76600,6,0,P|128:108|183:72,1,120,8|2,0:0|0:0,0:0:0:0:
115,28,77370,2,0,P|201:13|252:92,2,160,8|8|8,0:0|0:0|0:0,0:0:0:0:
193,119,79062,6,0,P|271:138|320:94,1,120,8|2,0:0|0:0,0:0:0:0:
361,66,79831,2,0,B|439:73|439:73|481:123,1,120,8|0,0:0|0:0,0:0:0:0:
433,221,80754,2,0,B|440:303|440:303|433:304|433:304|436:314|436:314|440:303|440:303|440:303|440:303|441:303|441:303|446:316|446:316|451:303|451:303|441:302|441:302,2,80,0|0|2,0:0|0:0|0:0,0:0:0:0:
370,171,81677,5,8,0:0:0:0:
302,215,81985,1,0,0:0:0:0:
