osu file format v14

[General]
AudioFilename: Welcome to Planet Urf.mp3
AudioLeadIn: 0
PreviewTime: -1
Countdown: 0
SampleSet: Normal
StackLeniency: 0.7
Mode: 0
LetterboxInBreaks: 0
WidescreenStoryboard: 0

[Editor]
DistanceSpacing: 1
BeatDivisor: 4
GridSize: 4
TimelineZoom: 1.1

[Metadata]
Title:Welcome to Planet Urf
TitleUnicode:Welcome to Planet Urf
Artist:Riot Games
ArtistUnicode:Riot Games
Creator:-Trophy-
Version:Ultra Rapid Fire
Source:League of Legends
Tags:URF URF URF URF URF URF URF URF URF URF URF URF URF URF URF URF URF URF URF URF URF URF URF URF URF URF URF URF URF URF URF URF URF URF URF URF URF URF URF URF URF URF URF URF URF URF URF URF URF URF URF URF URF URF URF URF URF URF URF URF URF URF URF URF URF URF URF URF URF URF URF URF URF URF URF URF URF URF URF URF URF URF URF URF URF URF URF URF URF URF URF URF URF URF URF URF URF URF URF URF URF URF URF URF URF URF URF URF URF URF URF URF URF URF URF URF URF URF URF URF URF URF URF URF URF URF URF URF URF URF URF URF URF URF URF URF URF URF URF URF URF URF URF URF URF URF URF URF URF URF URF URF URF URF URF URF
BeatmapID:836868
BeatmapSetID:382714

[Difficulty]
HPDrainRate:6
CircleSize:4
OverallDifficulty:7
ApproachRate:9
SliderMultiplier:1.8
SliderTickRate:1

[Events]
//Background and Video events
0,0,"URF.jpg",0,0
//Break Periods
//Storyboard Layer 0 (Background)
//Storyboard Layer 1 (Fail)
//Storyboard Layer 2 (Pass)
//Storyboard Layer 3 (Foreground)
//Storyboard Sound Samples

[TimingPoints]
10004,352.941176470588,4,1,0,100,1,0
43886,-200,4,1,0,100,0,0
55180,-100,4,1,0,100,0,0
100356,-100,4,1,0,100,0,1
122945,-100,4,1,0,100,0,0

[HitObjects]
36,228,21298,6,0,P|32:280|36:336,1,90
220,160,21651,2,0,P|224:108|220:52,1,90
112,32,22004,5,0,0:0:0:0:
32,136,22180,1,0,0:0:0:0:
128,232,22356,2,0,P|208:268|328:248,1,180
392,228,22886,1,0,0:0:0:0:
496,60,23062,5,0,0:0:0:0:
481,101,23151,1,0,0:0:0:0:
442,123,23239,1,0,0:0:0:0:
399,115,23327,1,0,0:0:0:0:
371,81,23415,2,0,P|280:56|192:100,1,180
128,144,23945,1,0,0:0:0:0:
52,352,24121,6,0,P|84:308|168:280,1,135
192,288,24474,6,0,P|248:308|312:308,1,90
416,228,24827,1,0,0:0:0:0:
371,81,25004,1,0,0:0:0:0:
256,128,25180,2,0,L|236:240,1,90
176,272,25533,6,0,P|172:200|76:160,1,180
104,236,26062,1,0,0:0:0:0:
132,76,26239,5,0,0:0:0:0:
167,48,26327,1,0,0:0:0:0:
209,31,26415,1,0,0:0:0:0:
253,28,26504,1,0,0:0:0:0:
297,37,26592,2,0,P|328:104|328:148,1,90
308,224,26945,6,0,B|260:256|260:256|176:232|176:232|104:248,2,180
388,152,27827,1,0,0:0:0:0:
448,256,28004,2,0,P|464:308|464:364,1,90
256,308,28356,6,0,P|244:260|264:132,1,180
316,44,28886,1,0,0:0:0:0:
456,192,29062,5,0,0:0:0:0:
417,214,29151,1,0,0:0:0:0:
374,209,29239,1,0,0:0:0:0:
342,178,29327,1,0,0:0:0:0:
335,135,29415,2,0,P|344:64|368:12,1,90
456,148,29768,6,0,P|480:192|436:300,1,135
444,292,30121,2,0,P|396:256|368:200,1,90
335,135,30474,1,0,0:0:0:0:
349,47,30651,1,0,0:0:0:0:
220,156,30827,1,0,0:0:0:0:
206,244,31004,1,0,0:0:0:0:
184,352,31180,6,0,P|120:332|80:308,1,90
32,240,31533,6,0,B|24:192|24:192|48:136|48:136|40:60,2,180
120,192,32415,1,0,0:0:0:0:
196,252,32592,6,0,P|264:268|324:252,1,90
400,228,32945,6,0,P|400:168|364:88,1,135
352,80,33298,2,0,P|280:56|232:48,1,90
176,56,33651,1,0,0:0:0:0:
80,88,33827,1,0,0:0:0:0:
32,168,34004,2,0,B|8:220|8:220|32:276|32:276|32:348,1,180
92,224,34533,1,0,0:0:0:0:
220,268,34709,6,0,L|176:288,1,45
268,196,34886,2,0,L|216:184,1,45
324,260,35062,6,0,B|356:220|356:220|384:136,1,135
392,120,35415,2,0,P|328:96|264:96,1,90
176,92,35768,5,0,0:0:0:0:
131,99,35856,1,0,0:0:0:0:
93,123,35945,1,0,0:0:0:0:
67,159,36033,1,0,0:0:0:0:
55,202,36121,2,0,P|112:232|200:232,1,135
200,232,36474,1,0,0:0:0:0:
260,140,36651,1,0,0:0:0:0:
324,216,36827,6,0,B|393:229|393:229|437:276|437:276|487:304,2,180
168,180,37709,1,0,0:0:0:0:
288,100,37886,2,0,L|388:80,1,90
96,160,38239,6,0,L|68:64,1,90
196,264,38592,2,0,L|216:168,1,90
64,276,38945,1,0,0:0:0:0:
256,352,39121,1,0,0:0:0:0:
384,264,39298,2,0,P|440:276|492:296,1,90
240,216,39651,6,0,B|192:192|192:192|120:196|120:196|64:184,2,180
328,268,40533,1,0,0:0:0:0:
412,204,40709,5,0,0:0:0:0:
441,170,40798,1,0,0:0:0:0:
446,126,40886,1,0,0:0:0:0:
426,87,40974,1,0,0:0:0:0:
387,65,41062,2,0,P|312:44|272:44,1,90
212,60,41415,5,0,0:0:0:0:
188,156,41592,1,0,0:0:0:0:
240,284,41768,2,0,P|272:220|280:172,1,90
144,44,42121,2,0,P|112:108|104:156,1,90
144,276,42474,6,0,P|184:256|296:268,1,135
296,272,42827,2,0,P|344:300|404:304,1,90
424,216,43180,5,0,0:0:0:0:
431,171,43268,1,0,0:0:0:0:
439,127,43356,1,0,0:0:0:0:
446,82,43445,1,0,0:0:0:0:
454,38,43533,2,0,L|408:8,2,45
328,68,43886,6,0,B|280:48|280:48|288:92|324:148|328:196|304:248|260:272|204:272|204:272|216:224|212:208|208:148|168:132|168:132|184:92|208:24|208:24|164:32|96:64,1,720
256,192,47062,12,0,49180,0:0:0:0:
44,224,49533,6,0,B|84:192|84:192|88:248|44:320|44:320|92:372|220:300|220:300|248:232|248:232|272:204|340:212|340:212|424:292|424:292|452:272|460:236,1,720
256,192,52709,12,0,54827,0:0:0:0:
256,64,55180,5,0,0:0:0:0:
320,120,55356,1,0,0:0:0:0:
360,200,55533,2,0,P|372:256|372:304,1,90
424,80,55886,1,0,0:0:0:0:
220,120,56239,5,0,0:0:0:0:
128,200,56415,1,0,0:0:0:0:
180,344,56592,1,0,0:0:0:0:
256,252,56768,2,0,B|244:188|244:188|268:140|268:140|272:60,1,180
276,0,57298,1,0,0:0:0:0:
392,36,57651,6,0,B|404:16|404:16|416:8|416:8|400:68|424:160,1,180
448,232,58533,5,0,0:0:0:0:
504,320,58709,1,0,0:0:0:0:
216,308,59062,6,0,P|156:252|156:144,2,180
288,100,60121,6,0,B|228:88|228:88|184:48|184:48|32:88,1,270
156,164,60827,6,0,P|136:236|172:172,1,180
256,148,61356,6,0,L|356:176,1,90
448,204,61709,1,0,0:0:0:0:
432,108,61886,2,0,L|420:12,1,90
220,72,62239,6,0,P|184:120|152:136,2,90
240,192,62945,6,0,P|276:240|308:256,2,90
160,268,63474,1,0,0:0:0:0:
160,268,63651,6,0,B|108:332|108:332|124:240|60:140,1,270
64,64,64356,6,0,B|124:80|124:80|184:52|184:52|256:36|256:36|336:64,1,270
420,96,65062,1,0,0:0:0:0:
420,228,65415,6,0,P|408:284|380:324,1,90
332,248,65768,6,0,P|281:274|232:279,3,90
128,296,66474,1,0,0:0:0:0:
