osu file format v14

[General]
AudioFilename: audio.mp3
AudioLeadIn: 0
PreviewTime: -1
Countdown: 1
SampleSet: Normal
StackLeniency: 0.7
Mode: 3
LetterboxInBreaks: 0
SpecialStyle: 0
WidescreenStoryboard: 0

[Editor]
Bookmarks: 58545
DistanceSpacing: 1
BeatDivisor: 4
GridSize: 16
TimelineZoom: 2.699999

[Metadata]
Title:Rift Rivals
TitleUnicode:Rift Rivals
Artist:Riot Games
ArtistUnicode:Riot Games
Creator:Sy[K]es
Version:Insane
Source:
Tags:
BeatmapID:1696001
BeatmapSetID:808180

[Difficulty]
HPDrainRate:5
CircleSize:4
OverallDifficulty:5
ApproachRate:5
SliderMultiplier:1.4
SliderTickRate:4

[Events]
//Background and Video events
0,0,"rr-header.jpg",0,0
//Break Periods
//Storyboard Layer 0 (Background)
//Storyboard Layer 1 (Fail)
//Storyboard Layer 2 (Pass)
//Storyboard Layer 3 (Foreground)
//Storyboard Sound Samples

[TimingPoints]
11132.1373924813,344.827586206897,4,1,1,50,1,0
18545,-200,4,1,1,50,0,0
18696,-33.3333333333333,4,1,1,50,0,0
18718,-100,4,1,1,50,0,0
18890,-200,4,1,1,50,0,0
19041,-33.3333333333333,4,1,1,50,0,0
19063,-100,4,1,1,50,0,0
22403,-200,4,1,1,50,0,0
22489,-33.3333333333333,4,1,1,50,0,0
22511,-100,4,1,1,50,0,0
24063,-33.3333333333333,4,1,1,50,0,0
24149,-100,4,1,1,50,0,0
24580,-33.3333333333333,4,1,1,50,0,0
24666,-100,4,1,1,50,0,0
25183,-200,4,1,1,50,0,0
25248,-33.3333333333333,4,1,1,50,0,0
25270,-100,4,1,1,50,0,0
26994,-33.3333333333333,4,1,1,50,0,0
27080,-100,4,1,1,50,0,0
27339,-33.3333333333333,4,1,1,50,0,0
27425,-100,4,1,1,50,0,0
27920,-200,4,1,1,50,0,0
28007,-33.3333333333333,4,1,1,50,0,0
28028,-100,4,1,1,50,0,0
29752,-33.3333333333333,4,1,1,50,0,0
29839,-100,4,1,1,50,0,0
30097,-33.3333333333333,4,1,1,50,0,0
30183,-100,4,1,1,50,0,0
30701,-200,4,1,1,50,0,0
30765,-33.3333333333333,4,1,1,50,0,0
30787,-100,4,1,1,50,0,0
33459,-200,4,1,1,50,0,0
33524,-33.3333333333333,4,1,1,50,0,0
33545,-100,4,1,1,50,0,0
35270,-33.3333333333333,4,1,1,50,0,0
35442,-100,4,1,1,50,0,0
35614,-33.3333333333333,4,1,1,50,0,0
35701,-100,4,1,1,50,0,0
36218,-33.3333333333333,4,1,1,50,0,0
36282,-200,4,1,1,50,0,0
36304,-100,4,1,1,50,0,0
38028,-33.3333333333333,4,1,1,50,0,0
38114,-100,4,1,1,50,0,0
38373,-33.3333333333333,4,1,1,50,0,0
38459,-100,4,1,1,50,0,0
40787,-33.3333333333333,4,1,1,50,0,0
40873,-100,4,1,1,50,0,0
41132,-33.3333333333333,4,1,1,50,0,0
41218,-100,4,1,1,50,0,0
57942,-33.3333333333333,4,1,1,50,0,0
58028,-100,4,1,1,50,0,0
58459,-33.3333333333333,4,1,1,50,0,0
58545,-100,4,1,1,50,0,0
58804,-33.3333333333333,4,1,1,50,0,0
58890,-100,4,1,1,50,0,0
59063,-33.3333333333333,4,1,1,50,0,0
59149,-100,4,1,1,50,0,0
59752,-33.3333333333333,4,1,1,50,0,0
59839,-100,4,1,1,50,0,0
60011,-33.3333333333333,4,1,1,50,0,0
60270,-100,4,1,1,50,0,0
66907,-33.3333333333333,4,1,1,50,0,0
67080,-40,4,1,1,50,0,0
67252,-50,4,1,1,50,0,0
67339,-66.6666666666667,4,1,1,50,0,0
67425,-100,4,1,1,50,0,0

[HitObjects]
320,192,16649,5,0,0:0:0:0:
192,192,16821,1,0,0:0:0:0:
448,192,16821,1,0,0:0:0:0:
320,192,16994,1,0,0:0:0:0:
64,192,16994,1,0,0:0:0:0:
192,192,17166,1,0,0:0:0:0:
448,192,17166,1,0,0:0:0:0:
64,192,17339,1,0,0:0:0:0:
320,192,17339,1,0,0:0:0:0:
448,192,17511,1,0,0:0:0:0:
192,192,17511,1,0,0:0:0:0:
320,192,17683,1,0,0:0:0:0:
64,192,17683,1,0,0:0:0:0:
192,192,17856,1,0,0:0:0:0:
192,192,18028,1,0,0:0:0:0:
448,192,18028,1,0,0:0:0:0:
64,192,18201,1,0,0:0:0:0:
320,192,18201,1,0,0:0:0:0:
448,192,18373,1,0,0:0:0:0:
192,192,18373,1,0,0:0:0:0:
64,192,18545,128,0,18718:0:0:0:0:
320,192,18718,1,0,0:0:0:0:
192,192,18718,1,0,0:0:0:0:
448,192,18718,1,0,0:0:0:0:
448,192,18890,128,0,19063:0:0:0:0:
192,192,19063,1,0,0:0:0:0:
320,192,19063,1,0,0:0:0:0:
64,192,19063,1,0,0:0:0:0:
320,192,19235,1,0,0:0:0:0:
64,192,19407,1,0,0:0:0:0:
448,192,19407,1,0,0:0:0:0:
320,192,19407,1,0,0:0:0:0:
192,192,19494,1,0,0:0:0:0:
320,192,19580,1,2,0:0:0:0:
448,192,19666,1,0,0:0:0:0:
64,192,19752,1,0,0:0:0:0:
320,192,19752,1,0,0:0:0:0:
192,192,19752,1,0,0:0:0:0:
192,192,19839,1,0,0:0:0:0:
320,192,19925,1,2,0:0:0:0:
448,192,20011,1,0,0:0:0:0:
320,192,20011,1,0,0:0:0:0:
192,192,20011,1,0,0:0:0:0:
64,192,20097,1,0,0:0:0:0:
192,192,20183,1,0,0:0:0:0:
64,192,20270,1,0,0:0:0:0:
320,192,20270,1,2,0:0:0:0:
448,192,20270,1,0,0:0:0:0:
448,192,20356,1,0,0:0:0:0:
320,192,20442,1,0,0:0:0:0:
192,192,20528,1,0,0:0:0:0:
448,192,20614,1,2,0:0:0:0:
64,192,20614,1,0,0:0:0:0:
320,192,20614,1,0,0:0:0:0:
192,192,20701,1,0,0:0:0:0:
320,192,20787,1,8,0:0:0:0:
448,192,20873,1,0,0:0:0:0:
192,192,20873,1,0,0:0:0:0:
320,192,20873,1,0,0:0:0:0:
64,192,20959,1,2,0:0:0:0:
192,192,21045,1,0,0:0:0:0:
192,192,21132,1,0,0:0:0:0:
320,192,21132,1,0,0:0:0:0:
448,192,21132,1,0,0:0:0:0:
64,192,21218,1,0,0:0:0:0:
192,192,21218,1,0,0:0:0:0:
320,192,21304,1,10,0:0:0:0:
448,192,21390,1,0,0:0:0:0:
192,192,21390,1,0,0:0:0:0:
64,192,21476,1,0,0:0:0:0:
320,192,21476,1,0,0:0:0:0:
192,192,21563,1,0,0:0:0:0:
320,192,21649,1,0,0:0:0:0:
448,192,21649,1,2,0:0:0:0:
192,192,21649,1,0,0:0:0:0:
64,192,21735,1,2,0:0:0:0:
448,192,21821,128,4,22166:0:0:0:0:
320,192,21821,128,2,22166:0:0:0:0:
192,192,21821,128,0,22166:0:0:0:0:
64,192,22166,128,8,22511:0:0:0:0:
192,192,22511,1,0,0:0:0:0:
448,192,22511,1,0,0:0:0:0:
320,192,22511,1,0,0:0:0:0:
448,192,22683,1,0,0:0:0:0:
320,192,22770,1,0,0:0:0:0:
192,192,22856,1,0,0:0:0:0:
64,192,22856,128,8,23028:0:0:0:0:
320,192,23114,1,0,0:0:0:0:
192,192,23201,128,4,23373:0:0:0:0:
320,192,23373,1,0,0:0:0:0:
448,192,23373,1,0,0:0:0:0:
64,192,23373,128,0,23545:0:0:0:0:
192,192,23632,1,0,0:0:0:0:
320,192,23718,1,0,0:0:0:0:
448,192,23718,128,0,23890:0:0:0:0:
320,192,23890,1,0,0:0:0:0:
192,192,23890,1,0,0:0:0:0:
64,192,23976,1,0,0:0:0:0:
192,192,24063,1,0,0:0:0:0:
448,192,24063,128,0,24235:0:0:0:0:
320,192,24149,128,0,24235:0:0:0:0:
192,192,24235,1,8,0:0:0:0:
64,192,24235,1,0,0:0:0:0:
448,192,24321,1,0,0:0:0:0:
320,192,24407,1,0,0:0:0:0:
192,192,24494,1,0,0:0:0:0:
64,192,24580,128,8,24752:0:0:0:0:
192,192,24666,128,0,24752:0:0:0:0:
320,192,24752,1,0,0:0:0:0:
448,192,24752,1,8,0:0:0:0:
192,192,24839,1,0,0:0:0:0:
448,192,24925,128,4,25270:0:0:0:0:
64,192,24925,1,0,0:0:0:0:
320,192,25270,1,0,0:0:0:0:
64,192,25270,1,0,0:0:0:0:
192,192,25270,1,0,0:0:0:0:
64,192,25442,1,0,0:0:0:0:
192,192,25528,1,0,0:0:0:0:
320,192,25614,1,0,0:0:0:0:
448,192,25614,128,8,25787:0:0:0:0:
192,192,25873,1,0,0:0:0:0:
320,192,25959,128,4,26132:0:0:0:0:
192,192,26132,1,0,0:0:0:0:
64,192,26132,1,0,0:0:0:0:
448,192,26132,128,0,26304:0:0:0:0:
320,192,26390,1,0,0:0:0:0:
192,192,26476,1,0,0:0:0:0:
64,192,26476,128,0,26649:0:0:0:0:
192,192,26649,1,0,0:0:0:0:
320,192,26649,1,0,0:0:0:0:
448,192,26735,1,0,0:0:0:0:
320,192,26821,1,0,0:0:0:0:
192,192,26907,1,0,0:0:0:0:
64,192,26994,128,8,27166:0:0:0:0:
192,192,27080,128,0,27166:0:0:0:0:
320,192,27166,1,0,0:0:0:0:
448,192,27166,1,0,0:0:0:0:
448,192,27339,128,8,27511:0:0:0:0:
320,192,27425,128,0,27511:0:0:0:0:
192,192,27511,1,0,0:0:0:0:
64,192,27511,1,8,0:0:0:0:
192,192,27683,128,4,28028:0:0:0:0:
320,192,28028,1,0,0:0:0:0:
448,192,28028,1,0,0:0:0:0:
64,192,28028,1,0,0:0:0:0:
448,192,28201,1,0,0:0:0:0:
320,192,28287,1,0,0:0:0:0:
64,192,28373,128,8,28545:0:0:0:0:
192,192,28373,1,0,0:0:0:0:
192,192,28632,1,0,0:0:0:0:
320,192,28718,128,4,28890:0:0:0:0:
64,192,28890,128,0,29063:0:0:0:0:
448,192,28890,1,0,0:0:0:0:
192,192,28890,1,0,0:0:0:0:
192,192,29149,1,0,0:0:0:0:
448,192,29235,128,0,29407:0:0:0:0:
320,192,29235,1,0,0:0:0:0:
192,192,29407,1,0,0:0:0:0:
320,192,29407,1,0,0:0:0:0:
64,192,29494,1,0,0:0:0:0:
192,192,29580,1,0,0:0:0:0:
320,192,29666,1,0,0:0:0:0:
448,192,29752,128,8,29925:0:0:0:0:
320,192,29839,128,0,29925:0:0:0:0:
64,192,29925,1,0,0:0:0:0:
192,192,29925,1,0,0:0:0:0:
64,192,30097,128,8,30270:0:0:0:0:
192,192,30183,128,0,30270:0:0:0:0:
448,192,30270,1,8,0:0:0:0:
320,192,30270,1,0,0:0:0:0:
192,192,30442,128,4,30787:0:0:0:0:
320,192,30787,1,0,0:0:0:0:
448,192,30787,1,0,0:0:0:0:
64,192,30787,1,0,0:0:0:0:
448,192,30959,1,0,0:0:0:0:
320,192,31045,1,0,0:0:0:0:
192,192,31132,128,8,31304:0:0:0:0:
64,192,31304,1,0,0:0:0:0:
448,192,31304,1,0,0:0:0:0:
320,192,31304,128,0,31476:0:0:0:0:
64,192,31476,1,0,0:0:0:0:
192,192,31476,1,0,0:0:0:0:
448,192,31476,1,2,0:0:0:0:
192,192,31563,1,0,0:0:0:0:
320,192,31649,128,0,31821:0:0:0:0:
192,192,31735,128,0,31821:0:0:0:0:
64,192,31821,1,0,0:0:0:0:
448,192,31821,1,0,0:0:0:0:
320,192,31994,5,0,0:0:0:0:
64,192,31994,1,0,0:0:0:0:
192,192,32080,1,0,0:0:0:0:
448,192,32080,1,0,0:0:0:0:
64,192,32166,1,0,0:0:0:0:
320,192,32166,1,0,0:0:0:0:
192,192,32252,5,0,0:0:0:0:
320,192,32339,1,2,0:0:0:0:
192,192,32425,1,0,0:0:0:0:
448,192,32425,1,0,0:0:0:0:
320,192,32511,1,8,0:0:0:0:
192,192,32597,5,0,0:0:0:0:
320,192,32683,1,2,0:0:0:0:
192,192,32770,1,0,0:0:0:0:
448,192,32770,1,0,0:0:0:0:
320,192,32856,1,8,0:0:0:0:
448,192,32942,1,0,0:0:0:0:
192,192,32942,1,0,0:0:0:0:
320,192,33028,1,0,0:0:0:0:
192,192,33114,1,0,0:0:0:0:
320,192,33201,128,4,33545:0:0:0:0:
448,192,33545,1,0,0:0:0:0:
64,192,33545,1,0,0:0:0:0:
192,192,33545,1,0,0:0:0:0:
448,192,33718,1,0,0:0:0:0:
320,192,33804,1,0,0:0:0:0:
64,192,33890,128,8,34063:0:0:0:0:
192,192,33890,1,0,0:0:0:0:
192,192,34149,1,0,0:0:0:0:
320,192,34235,128,4,34407:0:0:0:0:
64,192,34407,128,0,34580:0:0:0:0:
448,192,34407,1,0,0:0:0:0:
192,192,34407,1,0,0:0:0:0:
192,192,34666,1,0,0:0:0:0:
448,192,34752,128,0,34925:0:0:0:0:
320,192,34752,1,0,0:0:0:0:
192,192,34925,1,0,0:0:0:0:
320,192,34925,1,0,0:0:0:0:
64,192,35011,1,0,0:0:0:0:
192,192,35097,1,0,0:0:0:0:
320,192,35183,1,0,0:0:0:0:
448,192,35270,128,8,35442:0:0:0:0:
320,192,35356,128,0,35442:0:0:0:0:
64,192,35442,1,0,0:0:0:0:
192,192,35442,1,0,0:0:0:0:
64,192,35614,128,8,35787:0:0:0:0:
192,192,35701,128,0,35787:0:0:0:0:
448,192,35787,1,8,0:0:0:0:
320,192,35787,1,0,0:0:0:0:
192,192,35959,128,4,36304:0:0:0:0:
448,192,36304,1,0,0:0:0:0:
64,192,36304,1,0,0:0:0:0:
320,192,36304,1,0,0:0:0:0:
64,192,36476,1,0,0:0:0:0:
192,192,36563,1,0,0:0:0:0:
448,192,36649,128,8,36821:0:0:0:0:
320,192,36649,1,0,0:0:0:0:
320,192,36907,1,0,0:0:0:0:
192,192,36994,128,4,37166:0:0:0:0:
448,192,37166,128,0,37339:0:0:0:0:
64,192,37166,1,0,0:0:0:0:
320,192,37166,1,0,0:0:0:0:
320,192,37425,1,0,0:0:0:0:
64,192,37511,128,0,37683:0:0:0:0:
192,192,37511,1,0,0:0:0:0:
320,192,37683,1,0,0:0:0:0:
192,192,37683,1,0,0:0:0:0:
448,192,37770,1,0,0:0:0:0:
320,192,37856,1,0,0:0:0:0:
192,192,37942,1,0,0:0:0:0:
64,192,38028,128,8,38201:0:0:0:0:
192,192,38114,128,0,38201:0:0:0:0:
448,192,38201,1,0,0:0:0:0:
320,192,38201,1,0,0:0:0:0:
448,192,38373,128,8,38545:0:0:0:0:
320,192,38459,128,0,38545:0:0:0:0:
64,192,38545,1,8,0:0:0:0:
192,192,38545,1,0,0:0:0:0:
192,192,38718,128,4,38890:0:0:0:0:
320,192,38890,128,0,39063:0:0:0:0:
448,192,39063,1,0,0:0:0:0:
64,192,39063,1,0,0:0:0:0:
192,192,39063,1,0,0:0:0:0:
64,192,39235,1,0,0:0:0:0:
192,192,39321,1,0,0:0:0:0:
448,192,39407,128,8,39580:0:0:0:0:
320,192,39407,1,0,0:0:0:0:
320,192,39666,1,0,0:0:0:0:
192,192,39752,128,4,39925:0:0:0:0:
448,192,39925,128,0,40097:0:0:0:0:
64,192,39925,1,0,0:0:0:0:
320,192,39925,1,0,0:0:0:0:
320,192,40183,1,0,0:0:0:0:
64,192,40270,128,0,40442:0:0:0:0:
192,192,40270,1,0,0:0:0:0:
320,192,40442,1,0,0:0:0:0:
192,192,40442,1,0,0:0:0:0:
448,192,40528,1,0,0:0:0:0:
320,192,40614,1,0,0:0:0:0:
192,192,40701,1,0,0:0:0:0:
64,192,40787,128,8,40959:0:0:0:0:
192,192,40873,128,0,40959:0:0:0:0:
448,192,40959,1,0,0:0:0:0:
320,192,40959,1,0,0:0:0:0:
448,192,41132,128,8,41304:0:0:0:0:
320,192,41218,128,0,41304:0:0:0:0:
64,192,41304,1,8,0:0:0:0:
192,192,41304,1,0,0:0:0:0:
192,192,41476,128,4,41821:0:0:0:0:
448,192,41821,1,0,0:0:0:0:
64,192,41821,1,0,0:0:0:0:
320,192,41821,1,0,0:0:0:0:
64,192,41994,1,0,0:0:0:0:
192,192,42080,1,0,0:0:0:0:
448,192,42166,128,8,42339:0:0:0:0:
320,192,42166,1,0,0:0:0:0:
320,192,42425,1,0,0:0:0:0:
192,192,42511,128,4,42683:0:0:0:0:
448,192,42683,128,0,42856:0:0:0:0:
64,192,42683,1,0,0:0:0:0:
320,192,42683,1,0,0:0:0:0:
320,192,42942,1,0,0:0:0:0:
64,192,43028,128,0,43201:0:0:0:0:
192,192,43028,1,0,0:0:0:0:
64,192,43201,5,2,0:0:0:0:
320,192,43201,1,0,0:0:0:0:
192,192,43201,1,0,0:0:0:0:
448,192,43287,1,2,0:0:0:0:
320,192,43373,1,2,0:0:0:0:
64,192,43373,1,2,0:0:0:0:
192,192,43459,1,2,0:0:0:0:
320,192,43545,1,8,0:0:0:0:
448,192,43632,1,0,0:0:0:0:
64,192,43632,1,0,0:0:0:0:
320,192,43718,1,2,0:0:0:0:
192,192,43804,1,2,0:0:0:0:
64,192,43890,1,8,0:0:0:0:
320,192,43890,1,0,0:0:0:0:
192,192,43976,1,0,0:0:0:0:
320,192,44063,1,0,0:0:0:0:
448,192,44063,1,8,0:0:0:0:
64,192,44149,1,0,0:0:0:0:
192,192,44149,1,0,0:0:0:0:
320,192,44235,1,4,0:0:0:0:
64,192,44235,1,0,0:0:0:0:
448,192,44235,1,4,0:0:0:0:
192,192,44235,1,0,0:0:0:0:
448,192,46994,128,0,47339:0:0:0:0:
320,192,46994,128,0,47339:0:0:0:0:
192,192,46994,128,0,47339:0:0:0:0:
64,192,46994,1,8,0:0:0:0:
64,192,47339,5,0,0:0:0:0:
192,192,47511,1,8,0:0:0:0:
448,192,47683,128,0,47856:0:0:0:0:
192,192,47683,128,0,47856:0:0:0:0:
320,192,47856,1,0,0:0:0:0:
64,192,48028,1,0,0:0:0:0:
320,192,48028,1,8,0:0:0:0:
192,192,48201,128,0,48373:0:0:0:0:
320,192,48373,1,0,0:0:0:0:
64,192,48373,128,8,48545:0:0:0:0:
448,192,48545,128,0,48718:0:0:0:0:
320,192,48545,128,0,48718:0:0:0:0:
192,192,48545,128,0,48718:0:0:0:0:
320,192,48890,128,8,49063:0:0:0:0:
192,192,48890,128,0,49063:0:0:0:0:
64,192,49149,128,0,49235:0:0:0:0:
192,192,49235,1,0,0:0:0:0:
320,192,49235,1,0,0:0:0:0:
448,192,49235,128,8,49494:0:0:0:0:
192,192,49494,128,0,49580:0:0:0:0:
320,192,49580,128,0,49666:0:0:0:0:
448,192,49666,1,0,0:0:0:0:
192,192,49752,1,0,0:0:0:0:
448,192,49839,1,0,0:0:0:0:
320,192,49925,128,0,50097:0:0:0:0:
192,192,50097,128,0,50270:0:0:0:0:
448,192,50097,1,8,0:0:0:0:
64,192,50183,128,0,50270:0:0:0:0:
448,192,50270,1,0,0:0:0:0:
192,192,50442,128,0,50614:0:0:0:0:
320,192,50614,128,0,50787:0:0:0:0:
192,192,50787,128,8,50959:0:0:0:0:
64,192,50959,128,0,51132:0:0:0:0:
320,192,50959,128,0,51304:0:0:0:0:
192,192,51132,128,0,51304:0:0:0:0:
448,192,51304,128,0,51476:0:0:0:0:
192,192,51476,1,0,0:0:0:0:
320,192,51476,1,8,0:0:0:0:
320,192,51649,128,0,51821:0:0:0:0:
64,192,51649,128,0,51821:0:0:0:0:
192,192,51821,1,0,0:0:0:0:
448,192,51994,1,0,0:0:0:0:
192,192,51994,128,0,52339:0:0:0:0:
320,192,51994,128,0,52339:0:0:0:0:
64,192,52166,128,8,52339:0:0:0:0:
448,192,52339,1,0,0:0:0:0:
320,192,52511,128,0,52683:0:0:0:0:
448,192,52511,128,0,52856:0:0:0:0:
192,192,52597,128,0,52683:0:0:0:0:
64,192,52683,1,0,0:0:0:0:
192,192,52856,1,8,0:0:0:0:
320,192,52942,1,0,0:0:0:0:
448,192,53028,1,0,0:0:0:0:
192,192,53114,1,0,0:0:0:0:
448,192,53201,128,0,53373:0:0:0:0:
64,192,53201,1,0,0:0:0:0:
192,192,53373,128,0,53545:0:0:0:0:
64,192,53545,128,0,53718:0:0:0:0:
448,192,53545,1,8,0:0:0:0:
320,192,53718,128,0,53890:0:0:0:0:
192,192,53890,1,0,0:0:0:0:
448,192,53890,128,0,54235:0:0:0:0:
192,192,54235,1,8,0:0:0:0:
64,192,54235,128,0,54407:0:0:0:0:
448,192,54407,1,0,0:0:0:0:
320,192,54407,128,0,54580:0:0:0:0:
448,192,54580,128,0,54752:0:0:0:0:
192,192,54666,1,8,0:0:0:0:
320,192,54752,1,0,0:0:0:0:
64,192,54752,128,0,54925:0:0:0:0:
192,192,54925,128,8,55097:0:0:0:0:
320,192,55011,128,0,55097:0:0:0:0:
448,192,55097,1,0,0:0:0:0:
192,192,55270,128,0,55442:0:0:0:0:
448,192,55270,128,0,55442:0:0:0:0:
320,192,55442,128,0,55614:0:0:0:0:
64,192,55614,1,8,0:0:0:0:
448,192,55701,1,0,0:0:0:0:
64,192,55787,128,0,55959:0:0:0:0:
320,192,55787,1,0,0:0:0:0:
192,192,55873,1,0,0:0:0:0:
448,192,55959,128,0,56132:0:0:0:0:
192,192,56132,128,0,56304:0:0:0:0:
320,192,56304,128,0,56476:0:0:0:0:
64,192,56304,1,8,0:0:0:0:
448,192,56476,1,0,0:0:0:0:
64,192,56649,128,0,56994:0:0:0:0:
448,192,56649,128,0,56821:0:0:0:0:
192,192,56821,128,0,56994:0:0:0:0:
320,192,56994,1,8,0:0:0:0:
320,192,57166,128,0,57339:0:0:0:0:
64,192,57166,128,0,57339:0:0:0:0:
192,192,57252,128,0,57339:0:0:0:0:
448,192,57339,1,0,0:0:0:0:
448,192,57511,128,0,57683:0:0:0:0:
192,192,57511,128,0,57683:0:0:0:0:
320,192,57597,128,0,57683:0:0:0:0:
64,192,57683,1,8,0:0:0:0:
320,192,57856,128,0,58028:0:0:0:0:
448,192,58028,128,0,58373:0:0:0:0:
64,192,58028,1,8,0:0:0:0:
192,192,58201,1,0,0:0:0:0:
64,192,58373,1,0,0:0:0:0:
192,192,58545,128,0,58718:0:0:0:0:
320,192,58545,128,8,58718:0:0:0:0:
448,192,58718,128,0,59407:0:0:0:0:
192,192,58890,128,8,59063:0:0:0:0:
64,192,58890,1,0,0:0:0:0:
64,192,59063,128,0,59407:0:0:0:0:
320,192,59149,128,0,59235:0:0:0:0:
192,192,59235,128,8,59407:0:0:0:0:
320,192,59407,128,0,59752:0:0:0:0:
64,192,59580,128,0,59752:0:0:0:0:
192,192,59752,1,0,0:0:0:0:
448,192,59752,128,8,59925:0:0:0:0:
320,192,59925,128,0,60097:0:0:0:0:
192,192,59925,128,0,60097:0:0:0:0:
64,192,60011,128,0,60270:0:0:0:0:
448,192,60097,128,8,60270:0:0:0:0:
192,192,60270,1,0,0:0:0:0:
320,192,60270,128,8,60442:0:0:0:0:
64,192,60442,128,0,60614:0:0:0:0:
448,192,60442,128,0,60787:0:0:0:0:
192,192,60614,128,0,60787:0:0:0:0:
320,192,60787,128,8,60959:0:0:0:0:
192,192,60959,128,0,61476:0:0:0:0:
448,192,61218,1,8,0:0:0:0:
64,192,61304,128,0,61476:0:0:0:0:
320,192,61476,1,8,0:0:0:0:
320,192,61649,128,0,61821:0:0:0:0:
192,192,61821,128,0,62166:0:0:0:0:
320,192,61994,128,0,62166:0:0:0:0:
448,192,62080,128,0,62166:0:0:0:0:
64,192,62166,1,8,0:0:0:0:
192,192,62339,128,0,62856:0:0:0:0:
64,192,62339,1,0,0:0:0:0:
320,192,62511,128,0,62683:0:0:0:0:
448,192,62683,128,0,62856:0:0:0:0:
64,192,62683,128,0,62856:0:0:0:0:
320,192,62856,128,8,63201:0:0:0:0:
64,192,63028,1,0,0:0:0:0:
192,192,63201,128,0,63545:0:0:0:0:
448,192,63201,1,0,0:0:0:0:
64,192,63373,1,0,0:0:0:0:
320,192,63373,128,0,63545:0:0:0:0:
448,192,63545,1,0,0:0:0:0:
64,192,63545,128,8,63890:0:0:0:0:
192,192,63890,128,0,64235:0:0:0:0:
448,192,63890,1,0,0:0:0:0:
320,192,64063,128,8,64235:0:0:0:0:
448,192,64063,1,0,0:0:0:0:
448,192,64235,1,0,0:0:0:0:
64,192,64235,128,0,64925:0:0:0:0:
192,192,64407,128,8,64580:0:0:0:0:
320,192,64407,128,0,64925:0:0:0:0:
448,192,64752,1,0,0:0:0:0:
448,192,64925,1,0,0:0:0:0:
192,192,64925,128,8,65270:0:0:0:0:
320,192,65270,128,0,65614:0:0:0:0:
448,192,65270,128,0,65614:0:0:0:0:
64,192,65270,128,0,65614:0:0:0:0:
192,192,65614,128,8,65959:0:0:0:0:
448,192,65787,1,8,0:0:0:0:
64,192,65787,128,0,65959:0:0:0:0:
320,192,65959,128,0,66304:0:0:0:0:
448,192,65959,128,8,66304:0:0:0:0:
64,192,66132,1,0,0:0:0:0:
192,192,66304,128,0,66476:0:0:0:0:
64,192,66304,128,0,66649:0:0:0:0:
192,192,66649,1,0,0:0:0:0:
448,192,66649,128,2,66994:0:0:0:0:
192,192,66994,128,0,67166:0:0:0:0:
64,192,66994,128,0,67166:0:0:0:0:
320,192,67252,128,0,67425:0:0:0:0:
448,192,67252,128,0,67425:0:0:0:0:
64,192,67425,128,0,67683:0:0:0:0:
192,192,67425,128,0,67683:0:0:0:0:
448,192,67683,128,2,67856:0:0:0:0:
192,192,67856,1,0,0:0:0:0:
320,192,67942,1,0,0:0:0:0:
192,192,68028,1,2,0:0:0:0:
320,192,68114,1,0,0:0:0:0:
320,192,68201,1,0,0:0:0:0:
192,192,68201,1,0,0:0:0:0:
448,192,68201,1,0,0:0:0:0:
64,192,68201,1,0,0:0:0:0:
448,192,68373,1,0,0:0:0:0:
320,192,68373,128,2,69063:0:0:0:0:
192,192,68373,128,2,69063:0:0:0:0:
64,192,68373,1,0,0:0:0:0:
64,192,68545,1,2,0:0:0:0:
448,192,68718,1,2,0:0:0:0:
64,192,68890,1,2,0:0:0:0:
448,192,69063,1,4,0:0:0:0:
64,192,69063,1,4,0:0:0:0:
