osu file format v14

[General]
AudioFilename: Edge of Infinity (Minnesota Remix).mp3
AudioLeadIn: 0
PreviewTime: 58022
Countdown: 0
SampleSet: Soft
StackLeniency: 0.8
Mode: 0
LetterboxInBreaks: 0
WidescreenStoryboard: 0

[Editor]
Bookmarks: 46386,58022,69659,81295,92931,98750,101659,104568,127840
DistanceSpacing: 0.9
BeatDivisor: 4
GridSize: 32
TimelineZoom: 1.2

[Metadata]
Title:Edge of Infinity (Minnesota Remix)
TitleUnicode:Edge of Infinity (Minnesota Remix)
Artist:Riot Games
ArtistUnicode:Riot Games
Creator:Midget
Version:Infinite
Source:
Tags:
BeatmapID:882613
BeatmapSetID:406110

[Difficulty]
HPDrainRate:6
CircleSize:4
OverallDifficulty:8
ApproachRate:9.2
SliderMultiplier:1.6
SliderTickRate:1

[Events]
//Background and Video events
0,0,"BG.jpg",0,0
//Break Periods
//Storyboard Layer 0 (Background)
//Storyboard Layer 1 (Fail)
//Storyboard Layer 2 (Pass)
//Storyboard Layer 3 (Foreground)
//Storyboard Sound Samples

[TimingPoints]
34750,363.636363636364,4,2,1,40,1,0
46386,-90.9090909090909,4,1,1,50,0,0
55113,-90.9090909090909,4,3,1,50,0,0
58022,-90.9090909090909,4,1,1,60,0,0
81295,-90.9090909090909,4,1,1,60,0,1
92204,-90.9090909090909,4,1,1,60,0,0
92931,-90.9090909090909,4,1,1,60,0,1
98750,-83.3333333333333,4,1,1,60,0,1
101659,-90.9090909090909,4,1,1,60,0,0
104568,-125,4,2,1,40,0,0

[Colours]
Combo1 : 255,255,255
Combo2 : 138,0,0
Combo3 : 89,89,89
Combo4 : 196,0,0
Combo5 : 30,30,30

[HitObjects]
354,270,34749,6,0,L|436:256,1,80,2|0,3:0|0:0,0:0:0:0:
300,338,35113,1,0,0:0:0:0:
455,253,35295,1,0,0:0:0:0:
332,133,35477,2,0,L|235:122,1,80
401,188,35840,1,0,0:0:0:0:
230,122,36022,1,0,0:0:0:0:
160,227,36204,6,0,L|145:319,1,80
101,127,36568,2,0,B|74:104|74:104|25:97,1,80
257,210,36931,2,0,B|294:200|294:200|334:166,1,80
216,44,37295,2,0,L|197:130,1,80
53,246,37659,6,0,L|38:143,2,80
181,325,38204,2,0,L|196:232,2,80
324,185,38749,2,0,L|424:162,2,80
205,207,39295,5,0,0:0:0:0:
46,170,39477,2,0,L|123:141,1,80
256,277,39840,2,0,P|218:293|160:274,1,80
145,67,40204,2,0,P|189:90|201:127,1,80
256,287,40568,6,0,L|335:266,1,80,2|0,3:0|0:0,0:0:0:0:
462,228,40931,1,0,0:0:0:0:
282,193,41113,2,0,L|182:174,1,80
77,156,41477,1,0,0:0:0:0:
252,107,41659,2,0,L|348:81,1,80
231,276,42022,5,0,0:0:0:0:
166,141,42204,1,0,0:0:0:0:
354,223,42386,1,0,0:0:0:0:
407,73,42568,1,0,0:0:0:0:
239,110,42749,2,0,P|191:90|164:51,1,80
327,177,43113,2,0,L|411:156,1,80
314,285,43477,5,0,0:0:0:0:
147,307,43659,1,0,0:0:0:0:
343,280,43840,1,0,0:0:0:0:
123,313,44022,1,0,0:0:0:0:
289,157,44204,1,0,0:0:0:0:
237,357,44386,1,0,0:0:0:0:
106,224,44568,1,0,0:0:0:0:
280,294,44749,1,0,0:0:0:0:
289,157,44931,6,0,P|282:105|298:71,1,80
149,108,45295,2,0,P|102:123|56:101,1,80
289,157,45659,2,0,P|338:171|356:215,1,80
195,262,46022,2,0,B|184:225|184:225|203:163,1,80
296,75,46386,6,0,B|326:59|326:59|379:72,1,80,2|0,3:0|0:0,0:0:0:0:
463,198,46750,1,0,0:0:0:0:
246,162,46931,1,0,0:0:0:0:
243,154,47022,1,0,0:0:0:0:
240,146,47113,1,0,0:0:0:0:
237,138,47204,1,0,0:0:0:0:
234,130,47295,1,0,0:0:0:0:
251,260,47477,1,0,0:0:0:0:
230,279,47568,1,0,0:0:0:0:
203,288,47659,1,0,0:0:0:0:
175,291,47750,1,0,0:0:0:0:
147,286,47840,6,0,P|103:265|80:237,1,80
134,57,48204,1,0,0:0:0:0:
33,159,48386,1,0,0:0:0:0:
252,88,48568,1,0,0:0:0:0:
337,212,48750,1,0,0:0:0:0:
343,235,48840,1,0,0:0:0:0:
345,258,48931,1,0,0:0:0:0:
341,281,49022,1,0,0:0:0:0:
328,301,49113,1,0,0:0:0:0:
108,227,49295,6,0,B|64:236|64:236|19:216,1,80,2|0,3:3|0:0,0:0:0:0:
325,176,49659,1,0,0:0:0:0:
226,304,49840,1,0,0:0:0:0:
221,315,49931,1,0,0:0:0:0:
217,326,50022,1,0,0:0:0:0:
212,337,50113,1,0,0:0:0:0:
207,348,50204,1,0,0:0:0:0:
153,209,50386,1,0,0:0:0:0:
133,188,50477,1,0,0:0:0:0:
106,178,50568,1,0,0:0:0:0:
78,179,50659,1,0,0:0:0:0:
51,189,50750,6,0,B|37:230|37:230|60:276,1,80
282,97,51113,1,0,0:0:0:0:
171,239,51295,1,0,0:0:0:0:
117,89,51477,1,0,0:0:0:0:
287,180,51659,1,0,0:0:0:0:
313,189,51750,1,0,0:0:0:0:
341,190,51840,1,0,0:0:0:0:
368,184,51931,1,0,0:0:0:0:
393,171,52022,1,0,0:0:0:0:
215,282,52204,6,0,B|180:302|180:302|114:290,1,80,2|0,3:3|0:0,0:0:0:0:
27,269,52568,1,0,0:0:0:0:
27,269,52750,1,0,0:0:0:0:
279,208,52931,2,2,B|320:201|320:201|379:222,1,80,2|2,3:0|0:0,0:0:0:0:
452,253,53295,1,0,0:0:0:0:
452,253,53477,1,0,0:0:0:0:
192,182,53659,6,0,B|179:147|179:147|192:100,1,80,2|0,3:0|0:0,0:0:0:0:
230,14,54022,1,0,0:0:0:0:
86,142,54204,1,0,0:0:0:0:
237,266,54386,2,0,B|248:302|248:302|231:360,1,80,2|0,3:0|0:0,0:0:0:0:
325,236,54750,1,0,0:0:0:0:
151,297,54931,1,0,0:0:0:0:
232,103,55113,5,2,0:0:0:0:
381,309,55295,1,2,0:0:0:0:
420,109,55477,1,2,0:0:0:0:
237,266,55659,1,2,0:0:0:0:
179,43,55840,1,2,0:0:0:0:
335,247,56022,1,2,0:0:0:0:
446,30,56204,1,2,0:0:0:0:
229,185,56386,1,2,0:0:0:0:
353,30,56931,6,0,L|372:211,1,176.000005371094,0|0,2:0|0:0,0:0:0:0:
372,218,57386,1,0,0:0:0:0:
374,230,57477,1,0,0:0:0:0:
376,243,57568,1,0,0:0:0:0:
377,256,57659,1,0,0:0:0:0:
246,117,57840,1,8,2:0:0:0:
141,279,58022,5,2,3:0:0:0:
311,199,58204,1,0,0:0:0:0:
145,104,58386,2,0,B|109:92|109:92|57:105,1,88.000002685547,0|2,0:0|3:0,0:0:0:0:
227,242,58750,1,8,0:0:0:0:
388,148,58931,1,0,0:0:0:0:
405,122,59022,1,0,0:0:0:0:
410,91,59113,1,0,0:0:0:0:
407,60,59204,1,0,0:0:0:0:
390,33,59295,1,0,0:0:0:0:
390,279,59477,5,0,0:0:0:0:
326,88,59659,1,0,0:0:0:0:
256,237,59840,1,2,3:0:0:0:
197,44,60022,2,0,P|154:29|105:42,1,88.000002685547,0|8,0:0|0:0,0:0:0:0:
110,243,60386,1,0,0:0:0:0:
138,259,60477,1,0,0:0:0:0:
170,268,60568,1,0,3:0:0:0:
202,264,60659,1,0,0:0:0:0:
233,251,60750,1,0,0:0:0:0:
335,115,60931,6,0,L|348:26,1,88.000002685547,2|0,3:0|0:0,0:0:0:0:
187,186,61295,1,0,0:0:0:0:
388,232,61477,1,2,3:0:0:0:
255,65,61659,1,8,0:0:0:0:
141,265,61840,1,0,0:0:0:0:
117,284,61931,1,0,0:0:0:0:
88,296,62022,1,0,0:0:0:0:
57,296,62113,1,0,0:0:0:0:
26,289,62204,1,2,3:0:0:0:
187,186,62386,6,0,B|181:144|181:144|197:93,1,88.000002685547
353,186,62750,2,0,B|360:229|360:229|329:292,1,88.000002685547,2|0,3:0|0:0,0:0:0:0:
224,28,63113,1,8,0:0:0:0:
170,222,63295,1,0,0:0:0:0:
167,234,63386,1,0,0:0:0:0:
164,246,63477,1,2,3:0:0:0:
161,258,63568,1,0,0:0:0:0:
158,271,63659,1,0,0:0:0:0:
273,129,63840,5,2,3:0:0:0:
359,316,64022,1,0,0:0:0:0:
428,159,64204,2,0,P|470:141|515:150,1,88.000002685547,0|2,0:0|3:0,0:0:0:0:
269,257,64568,1,8,0:0:0:0:
183,116,64750,1,0,0:0:0:0:
174,86,64840,1,0,0:0:0:0:
176,55,64931,1,0,0:0:0:0:
188,27,65022,1,0,0:0:0:0:
210,6,65113,1,0,0:0:0:0:
340,140,65295,6,0,B|354:180|354:180|339:243,1,88.000002685547
187,192,65659,1,2,3:0:0:0:
425,134,65840,1,0,0:0:0:0:
253,246,66022,1,8,0:0:0:0:
124,125,66204,1,0,0:0:0:0:
97,110,66295,1,0,0:0:0:0:
66,107,66386,1,2,3:0:0:0:
35,113,66477,1,0,0:0:0:0:
9,130,66568,1,0,0:0:0:0:
239,166,66750,6,0,L|252:70,1,88.000002685547,2|0,3:0|0:0,0:0:0:0:
385,288,67113,2,0,L|395:192,1,88.000002685547,0|2,0:0|3:0,0:0:0:0:
218,333,67477,1,8,0:0:0:0:
332,156,67659,1,0,0:0:0:0:
356,136,67750,1,0,0:0:0:0:
385,126,67840,1,0,0:0:0:0:
415,128,67931,1,0,0:0:0:0:
442,141,68022,1,2,3:0:0:0:
218,103,68204,6,0,B|178:91|178:91|122:102,1,88.000002685547
298,233,68568,2,0,B|339:241|339:241|392:225,1,88.000002685547,2|0,3:0|0:0,0:0:0:0:
275,34,68931,1,8,0:0:0:0:
464,290,69113,2,0,L|455:236,1,44.0000013427735
427,56,69295,2,0,L|434:105,1,44.0000013427735,2|0,3:0|0:0,0:0:0:0:
445,173,69477,1,0,0:0:0:0:
216,281,69659,6,0,B|206:236|206:236|219:194,1,88.000002685547,2|0,3:0|0:0,0:0:0:0:
367,134,70022,1,0,0:0:0:0:
114,239,70204,1,2,3:0:0:0:
263,60,70386,1,8,0:0:0:0:
281,238,70568,1,0,0:0:0:0:
281,246,70659,1,0,0:0:0:0:
282,254,70750,1,0,0:0:0:0:
282,262,70840,1,0,0:0:0:0:
283,270,70931,1,0,0:0:0:0:
160,164,71113,5,0,0:0:0:0:
358,203,71295,1,0,0:0:0:0:
152,242,71477,1,2,3:0:0:0:
316,129,71659,1,0,0:0:0:0:
128,258,71840,1,8,0:0:0:0:
220,110,72022,1,0,0:0:0:0:
233,87,72113,1,0,0:0:0:0:
235,60,72204,1,2,3:0:0:0:
229,34,72295,1,0,0:0:0:0:
216,10,72386,1,0,0:0:0:0:
330,145,72568,6,0,P|363:172|413:172,1,88.000002685547,2|0,3:0|0:0,0:0:0:0:
512,129,72931,1,0,0:0:0:0:
262,236,73113,1,2,3:0:0:0:
298,44,73295,1,8,0:0:0:0:
364,253,73477,1,0,0:0:0:0:
377,280,73568,1,0,0:0:0:0:
399,300,73659,1,0,0:0:0:0:
427,311,73750,1,0,0:0:0:0:
457,311,73840,1,2,3:0:0:0:
333,147,74022,5,0,0:0:0:0:
203,316,74204,1,0,0:0:0:0:
353,119,74386,1,2,3:0:0:0:
162,256,74568,1,0,0:0:0:0:
440,235,74750,1,8,0:0:0:0:
258,190,74931,1,0,0:0:0:0:
236,185,75022,1,0,0:0:0:0:
214,179,75113,1,2,3:0:0:0:
192,173,75204,1,0,0:0:0:0:
170,167,75295,1,0,0:0:0:0:
346,85,75477,6,0,L|440:68,1,88.000002685547,2|0,3:0|0:0,0:0:0:0:
340,261,75840,1,0,0:0:0:0:
249,102,76022,1,2,3:0:0:0:
440,235,76204,1,8,0:0:0:0:
242,286,76386,1,0,0:0:0:0:
241,294,76477,1,0,0:0:0:0:
240,302,76568,1,0,0:0:0:0:
239,310,76659,1,0,0:0:0:0:
238,318,76750,1,0,0:0:0:0:
91,212,76931,5,0,0:0:0:0:
284,151,77113,1,0,0:0:0:0:
113,137,77295,1,2,3:0:0:0:
271,233,77477,1,0,0:0:0:0:
58,224,77659,1,8,0:0:0:0:
309,138,77840,1,0,0:0:0:0:
339,131,77931,1,0,0:0:0:0:
369,133,78022,1,2,3:0:0:0:
397,143,78113,1,0,0:0:0:0:
419,163,78204,1,0,0:0:0:0:
339,294,78386,6,0,L|350:200,1,88.000002685547,2|0,3:0|0:0,0:0:0:0:
369,44,78750,1,0,0:0:0:0:
219,179,78931,1,2,3:0:0:0:
461,247,79113,1,8,0:0:0:0:
301,121,79295,1,0,0:0:0:0:
283,95,79386,1,0,0:0:0:0:
274,65,79477,1,0,0:0:0:0:
274,34,79568,1,0,0:0:0:0:
288,6,79659,1,2,3:0:0:0:
133,119,79840,6,0,B|86:130|86:130|32:111,1,88.000002685547,0|8,0:0|0:0,0:0:0:0:
352,61,80204,1,2,3:0:0:0:
282,253,80386,1,0,0:0:0:0:
133,119,80568,5,8,0:0:0:0:
164,355,80750,6,0,L|157:301,1,44.0000013427735
61,275,80931,5,2,3:0:0:0:
350,202,81113,5,0,0:0:0:0:
261,38,81295,6,0,L|252:130,1,88.000002685547,2|0,3:0|0:0,0:0:0:0:
363,313,81659,2,0,B|406:323|406:323|455:305,1,88.000002685547,0|2,0:0|3:0,0:0:0:0:
341,123,82022,1,8,0:0:0:0:
189,237,82204,1,0,0:0:0:0:
158,254,82295,1,0,0:0:0:0:
123,259,82386,1,0,0:0:0:0:
88,251,82477,1,0,0:0:0:0:
61,227,82568,1,0,0:0:0:0:
197,35,82750,6,0,L|208:129,1,88.000002685547
233,320,83113,1,2,3:0:0:0:
372,100,83295,1,0,0:0:0:0:
189,237,83477,1,8,0:0:0:0:
386,313,83659,1,0,0:0:0:0:
419,322,83750,1,0,0:0:0:0:
453,320,83840,1,2,3:0:0:0:
485,305,83931,1,0,0:0:0:0:
505,276,84022,1,0,0:0:0:0:
175,100,84204,5,2,3:0:0:0:
399,200,84386,1,0,0:0:0:0:
207,222,84568,1,0,0:0:0:0:
388,99,84750,1,2,3:0:0:0:
317,241,84931,1,8,0:0:0:0:
255,129,85113,1,0,0:0:0:0:
247,99,85204,1,0,0:0:0:0:
251,68,85295,1,0,0:0:0:0:
270,44,85386,1,0,0:0:0:0:
295,26,85477,1,2,3:0:0:0:
400,166,85659,6,0,B|412:210|412:210|404:263,1,88.000002685547
207,313,86022,2,0,L|100:282,1,88.000002685547,2|0,3:0|0:0,0:0:0:0:
322,124,86386,1,8,0:0:0:0:
158,192,86568,1,0,0:0:0:0:
124,203,86659,1,0,0:0:0:0:
88,201,86750,1,2,3:0:0:0:
55,187,86840,1,0,0:0:0:0:
32,160,86931,1,0,0:0:0:0:
270,65,87113,6,0,P|320:44|379:64,1,88.000002685547,2|0,3:0|0:0,0:0:0:0:
266,265,87477,2,0,L|241:157,2,88.000002685547,0|2|8,0:0|3:0|0:0,0:0:0:0:
379,335,88022,1,0,0:0:0:0:
380,326,88113,1,0,0:0:0:0:
381,317,88204,1,0,0:0:0:0:
382,308,88295,1,0,0:0:0:0:
383,299,88386,1,0,0:0:0:0:
418,56,88568,5,0,0:0:0:0:
245,152,88750,1,0,0:0:0:0:
432,139,88931,1,2,3:0:0:0:
219,76,89113,1,0,0:0:0:0:
465,149,89295,1,8,0:0:0:0:
304,213,89477,1,0,0:0:0:0:
276,226,89568,1,0,0:0:0:0:
245,230,89659,1,2,3:0:0:0:
214,226,89750,1,0,0:0:0:0:
186,212,89840,1,0,0:0:0:0:
368,338,90022,6,0,B|385:297|385:297|380:252,1,88.000002685547,2|0,3:0|0:0,0:0:0:0:
261,93,90386,2,0,B|219:85|219:85|165:103,1,88.000002685547,0|2,0:0|3:0,0:0:0:0:
61,307,90750,2,0,B|100:325|100:325|173:309,1,88.000002685547,8|0,0:0|0:0,0:0:0:0:
177,305,91022,1,0,0:0:0:0:
211,295,91113,1,0,0:0:0:0:
244,285,91204,1,0,0:0:0:0:
277,275,91295,1,2,3:0:0:0:
42,165,91477,5,0,0:0:0:0:
307,264,91659,1,0,0:0:0:0:
83,253,91840,1,2,3:0:0:0:
166,105,92022,1,0,0:0:0:0:
287,347,92204,1,8,0:0:0:0:
430,128,92386,6,0,L|411:74,1,44.0000013427735
258,193,92568,6,0,L|242:244,1,44.0000013427735,2|0,3:0|0:0,0:0:0:0:
343,161,92750,5,0,0:0:0:0:
166,105,92931,6,0,L|73:98,1,88.000002685547,2|0,3:0|0:0,0:0:0:0:
363,276,93295,1,0,0:0:0:0:
343,161,93477,1,2,3:0:0:0:
325,47,93659,1,8,0:0:0:0:
146,208,93840,1,0,0:0:0:0:
113,230,93931,1,0,0:0:0:0:
74,238,94022,1,0,0:0:0:0:
35,229,94113,1,0,0:0:0:0:
5,202,94204,1,0,0:0:0:0:
362,147,94386,6,0,P|405:132|468:155,1,88.000002685547
256,296,94750,2,0,B|215:311|215:311|167:301|167:301,1,88.000002685547,2|0,3:0|0:0,0:0:0:0:
79,144,95113,1,8,0:0:0:0:
316,251,95295,1,0,0:0:0:0:
355,257,95386,1,0,0:0:0:0:
394,251,95477,1,2,3:0:0:0:
428,231,95568,1,0,0:0:0:0:
451,199,95659,1,0,0:0:0:0:
188,225,95840,5,2,3:0:0:0:
451,152,96022,1,0,0:0:0:0:
269,331,96204,1,0,0:0:0:0:
361,86,96386,1,2,3:0:0:0:
455,323,96568,1,8,0:0:0:0:
285,143,96750,1,0,0:0:0:0:
282,117,96840,1,0,0:0:0:0:
278,91,96931,1,0,0:0:0:0:
274,64,97022,1,0,0:0:0:0:
270,37,97113,1,2,3:0:0:0:
371,183,97295,5,0,0:0:0:0:
183,218,97477,1,0,0:0:0:0:
389,266,97659,1,2,3:0:0:0:
147,298,97840,1,0,0:0:0:0:
423,118,98022,1,8,0:0:0:0:
154,224,98204,1,0,0:0:0:0:
114,226,98295,1,0,0:0:0:0:
79,207,98386,1,2,3:0:0:0:
56,174,98477,1,0,0:0:0:0:
60,134,98568,1,0,0:0:0:0:
377,216,98750,5,2,3:0:0:0:
134,148,98931,1,0,0:0:0:0:
165,282,99113,1,0,0:0:0:0:
258,113,99295,1,2,3:0:0:0:
8,198,99477,1,8,0:0:0:0:
297,304,99659,1,0,0:0:0:0:
324,295,99750,1,0,0:0:0:0:
351,286,99840,1,0,0:0:0:0:
378,276,99931,1,0,0:0:0:0:
405,266,100022,1,0,0:0:0:0:
353,123,100204,6,0,L|231:110,1,95.9999970703126
114,296,100568,2,0,L|221:274,1,95.9999970703126,2|0,3:0|0:0,0:0:0:0:
88,101,100931,1,8,0:0:0:0:
338,217,101113,1,0,0:0:0:0:
380,225,101204,1,0,0:0:0:0:
422,216,101295,1,2,3:0:0:0:
455,188,101386,1,0,0:0:0:0:
468,146,101477,1,0,0:0:0:0:
185,35,101659,6,0,L|200:126,1,88.000002685547,2|0,3:0|0:0,0:0:0:0:
353,299,102022,2,2,B|390:309|390:309|471:283,1,88.000002685547,2|0,3:0|0:0,0:0:0:0:
124,181,102386,2,0,B|77:169|77:169|19:189,1,88.000002685547,2|0,3:0|0:0,0:0:0:0:
228,338,102750,2,0,L|239:243,1,88.000002685547,2|0,3:0|0:0,0:0:0:0:
280,122,103113,5,2,3:0:0:0:
103,263,103295,1,2,3:0:0:0:
103,263,103386,1,2,3:0:0:0:
103,263,103477,1,2,3:0:0:0:
350,312,103659,5,2,3:0:0:0:
194,118,103840,1,8,2:0:0:0:
350,312,104022,1,2,3:0:0:0:
441,17,104204,1,8,2:0:0:0:
350,312,104386,1,0,0:0:0:0:
201,219,104568,6,0,L|63:257,1,128,2|0,3:0|0:0,0:0:0:0:
140,123,105113,1,2,3:0:0:0:
302,179,105295,2,0,P|350:187|396:153,1,96
230,89,105840,1,0,0:0:0:0:
230,89,105931,1,0,0:0:0:0:
230,89,106022,6,0,L|218:10,1,64
200,218,106386,2,0,L|210:293,1,64,2|0,3:0|0:0,0:0:0:0:
321,311,106750,2,0,P|350:300|415:312,2,96
321,311,107386,1,0,0:0:0:0:
321,311,107477,5,2,3:0:0:0:
372,207,107659,1,0,0:0:0:0:
182,146,107840,1,0,0:0:0:0:
226,238,108022,1,2,3:0:0:0:
351,109,108204,2,0,L|460:137,2,96,0|0|2,0:0|0:0|3:0,0:0:0:0:
351,109,108840,1,0,0:0:0:0:
351,109,108931,5,0,0:0:0:0:
96,166,109113,1,0,0:0:0:0:
149,69,109295,1,2,3:0:0:0:
193,217,109477,1,0,0:0:0:0:
47,271,109659,2,0,L|33:378,2,96
223,207,110386,6,0,P|260:202|306:224,1,64,2|0,3:0|0:0,0:0:0:0:
156,129,110750,2,0,P|115:123|87:99,1,64,0|2,0:0|3:0,0:0:0:0:
253,80,111113,1,0,0:0:0:0:
311,228,111386,5,0,0:0:0:0:
386,34,111659,1,0,0:0:0:0:
386,34,111750,1,0,0:0:0:0:
386,34,111840,6,0,P|376:67|384:106,1,64
450,239,112204,2,0,P|462:198|452:155,1,64,2|0,3:0|0:0,0:0:0:0:
311,228,112568,5,0,0:0:0:0:
172,354,112840,1,0,0:0:0:0:
382,324,113113,1,0,0:0:0:0:
382,324,113204,1,0,0:0:0:0:
382,324,113295,5,2,3:0:0:0:
339,136,113477,1,0,0:0:0:0:
220,247,113659,1,0,0:0:0:0:
401,215,113840,1,2,3:0:0:0:
351,54,114022,2,0,L|243:72,2,96,0|0|2,0:0|0:0|3:0,0:0:0:0:
351,54,114659,1,0,0:0:0:0:
351,54,114750,5,0,0:0:0:0:
177,218,114931,1,0,0:0:0:0:
159,82,115113,1,2,3:0:0:0:
307,146,115295,1,0,0:0:0:0:
95,184,115477,2,0,L|0:201,2,96
249,196,116204,6,0,P|251:237|227:281,1,64,2|0,3:0|0:0,0:0:0:0:
332,136,116568,2,0,P|326:96|347:59,1,64,0|2,0:0|3:0,0:0:0:0:
167,223,116931,2,0,P|108:221|74:173,1,96
339,255,117477,1,0,0:0:0:0:
339,255,117568,1,0,0:0:0:0:
339,255,117659,6,0,P|372:245|412:259,1,64
256,323,118022,2,0,P|217:336|181:325,1,64,2|0,3:0|0:0,0:0:0:0:
351,168,118386,2,0,P|354:112|385:80,1,96
212,210,118931,1,0,0:0:0:0:
212,210,119022,1,0,0:0:0:0:
212,210,119113,5,2,3:0:0:0:
239,97,119295,1,0,0:0:0:0:
100,242,119477,1,0,0:0:0:0:
289,261,119659,1,2,3:0:0:0:
129,155,119840,2,0,L|123:48,2,96,0|0|2,0:0|0:0|3:0,0:0:0:0:
129,155,120477,1,0,0:0:0:0:
129,155,120568,5,0,0:0:0:0:
211,51,120750,1,0,0:0:0:0:
288,203,120931,1,2,3:0:0:0:
356,106,121113,1,0,0:0:0:0:
215,155,121295,2,0,P|197:218|238:281,1,128,0|2,0:0|3:0,0:0:0:0:
79,204,122022,6,0,L|56:135,1,64,2|0,3:0|0:0,0:0:0:0:
186,273,122386,2,0,L|167:353,1,64,0|2,0:0|3:0,0:0:0:0:
290,195,122750,2,0,L|262:84,2,96
298,222,123386,5,0,0:0:0:0:
298,222,123477,1,0,0:0:0:0:
379,83,123659,1,0,0:0:0:0:
187,169,123840,1,2,3:0:0:0:
370,249,124022,1,0,0:0:0:0:
237,104,124204,2,0,P|188:87|139:103,2,96
237,104,124840,1,0,0:0:0:0:
237,104,124931,5,2,3:0:0:0:
126,225,125113,1,0,0:0:0:0:
309,189,125295,1,0,0:0:0:0:
93,230,125477,1,2,3:0:0:0:
288,308,125659,2,0,P|314:266|311:209,2,96,0|0|2,0:0|0:0|3:0,0:0:0:0:
288,308,126295,1,0,0:0:0:0:
288,308,126386,5,0,0:0:0:0:
437,186,126568,1,0,0:0:0:0:
307,60,126750,2,0,L|311:124,1,64,2|0,3:0|0:0,0:0:0:0:
204,185,127113,2,0,P|153:182|121:146,1,96
297,21,127659,1,0,0:0:0:0:
355,242,127840,5,2,3:0:0:0:
