osu file format v14

[General]
AudioFilename: audio.ogg
AudioLeadIn: 0
PreviewTime: 33168
Countdown: 0
SampleSet: Normal
StackLeniency: 0.7
Mode: 1
LetterboxInBreaks: 0
WidescreenStoryboard: 1

[Editor]
Bookmarks: 243,2782,12941,23100,30084,33258,53576,56116,63735,73893,80877,88496,90401,95481,123417,125957,136116
DistanceSpacing: 1
BeatDivisor: 4
GridSize: 32
TimelineZoom: 1.9

[Metadata]
Title:Manmaru Dance
TitleUnicode:マンマルダンス
Artist:Rinu
ArtistUnicode:莉犬
Creator:KyeX
Version:Muzukashii
Source:
Tags:japanese pop jpop j-pop Riinu りいぬ utaite utattemita かいりきベア kairiki bear Strawberry Prince すとろべりーぷりんす sutopuri すとぷり nanao シャッターチャンス! The Perfect Shot!
BeatmapID:3657207
BeatmapSetID:1785510

[Difficulty]
HPDrainRate:6
CircleSize:3
OverallDifficulty:5
ApproachRate:10
SliderMultiplier:1.4
SliderTickRate:1

[Events]
//Background and Video events
0,0,"vlcsnap-2022-05-27-22h24m07s876.png",0,25
//Break Periods
//Storyboard Layer 0 (Background)
//Storyboard Layer 1 (Fail)
//Storyboard Layer 2 (Pass)
//Storyboard Layer 3 (Foreground)
//Storyboard Layer 4 (Overlay)
//Storyboard Sound Samples

[TimingPoints]
232,317.460317460318,4,1,0,90,1,0
866,-90.909090909091,4,1,0,90,0,0
2771,-100,4,1,0,85,0,0
12612,-105.263157894737,4,1,0,85,0,0
12930,-111.111111111111,4,1,0,80,0,0
23089,-105.263157894737,4,1,0,85,0,0
30073,-105.263157894737,4,1,0,90,0,0
30152,-104.239340091107,4,1,0,90,0,0
30232,-103.222660218637,4,1,0,90,0,0
30390,-101.271879111678,4,1,0,90,0,0
30549,-99.381798262775,4,1,0,90,0,0
30708,-97.560975609756,4,1,0,90,0,0
31343,-90.909090909091,4,1,0,90,0,0
32295,-90.909090909091,4,1,0,90,0,0
32454,-91.955687495475,4,1,0,90,0,0
32612,-93.01984911741,4,1,0,90,0,0
32771,-94.115903364458,4,1,0,90,0,0
32930,-95.238095238095,4,1,0,90,0,0
33247,-90.909090909091,4,1,0,90,0,1
53565,-90.9090909090909,4,1,0,90,0,0
54041,-100,4,1,0,90,0,0
56105,-125,4,1,0,80,0,0
62771,-121.21790588909,4,1,0,80,0,0
63089,-117.647058823529,4,1,0,80,0,0
63406,-114.290856731461,4,1,0,80,0,0
63724,-111.111111111111,4,1,0,80,0,0
73882,-105.263157894737,4,1,0,85,0,0
80867,-105.250072514814,4,1,0,90,0,0
80946,-104.226508001641,4,1,0,90,0,0
81025,-103.222660218637,4,1,0,90,0,0
81105,-102.225620799292,4,1,0,90,0,0
81184,-101.259767182268,4,1,0,90,0,0
81343,-99.370134188803,4,1,0,90,0,0
81501,-97.560975609756,4,1,0,90,0,0
82136,-90.909090909091,4,1,0,90,0,0
88644,-90.909090909091,4,1,0,80,0,0
91660,-100,4,1,0,80,0,0
94358,-100,4,1,0,80,0,0
94517,-99.008666375709,4,1,0,80,0,0
94676,-98.036794666008,4,1,0,80,0,0
94835,-97.083817325916,4,1,0,80,0,0
95152,-95.238095238095,4,1,0,80,0,0
95470,-90.909090909091,4,1,0,90,0,1
123406,-90.9090909090909,4,1,0,90,0,0
123882,-100,4,1,0,90,0,0
125946,-100,4,1,0,85,0,0

[HitObjects]
256,192,232,5,8,0:0:0:0:
256,192,866,1,4,0:0:0:0:
256,192,1105,1,4,0:0:0:0:
256,192,1343,1,4,0:0:0:0:
256,192,1501,1,12,0:0:0:0:
256,192,1739,1,12,0:0:0:0:
256,192,1978,1,12,0:0:0:0:
256,192,2136,1,0,0:0:0:0:
256,192,2771,1,4,0:0:0:0:
256,192,2930,1,8,0:0:0:0:
256,192,3247,1,0,0:0:0:0:
256,192,3327,1,0,0:0:0:0:
256,192,3406,1,0,0:0:0:0:
256,192,3565,1,8,0:0:0:0:
256,192,3882,1,8,0:0:0:0:
256,192,3962,1,8,0:0:0:0:
256,192,4041,1,8,0:0:0:0:
256,192,4200,1,0,0:0:0:0:
256,192,4358,1,8,0:0:0:0:
256,192,4517,1,0,0:0:0:0:
256,192,4676,1,8,0:0:0:0:
256,192,4835,1,8,0:0:0:0:
256,192,4993,1,0,0:0:0:0:
256,192,5152,1,8,0:0:0:0:
256,192,5311,1,4,0:0:0:0:
256,192,5628,1,0,0:0:0:0:
256,192,5787,1,8,0:0:0:0:
256,192,5866,1,8,0:0:0:0:
256,192,5946,1,8,0:0:0:0:
256,192,6105,1,0,0:0:0:0:
256,192,6263,1,8,0:0:0:0:
256,192,6422,1,4,0:0:0:0:
256,192,6898,1,8,0:0:0:0:
256,192,7057,1,0,0:0:0:0:
256,192,7216,1,8,0:0:0:0:
256,192,7533,1,8,0:0:0:0:
256,192,7851,1,4,0:0:0:0:
256,192,8009,1,8,0:0:0:0:
256,192,8327,1,0,0:0:0:0:
256,192,8406,1,0,0:0:0:0:
256,192,8485,1,0,0:0:0:0:
256,192,8644,1,8,0:0:0:0:
256,192,8962,1,8,0:0:0:0:
256,192,9041,1,8,0:0:0:0:
256,192,9120,1,8,0:0:0:0:
256,192,9279,1,0,0:0:0:0:
256,192,9438,1,8,0:0:0:0:
256,192,9597,1,8,0:0:0:0:
256,192,9755,1,0,0:0:0:0:
256,192,9914,1,8,0:0:0:0:
256,192,10073,1,8,0:0:0:0:
256,192,10232,1,8,0:0:0:0:
256,192,10390,1,4,0:0:0:0:
256,192,10708,1,0,0:0:0:0:
256,192,10866,1,8,0:0:0:0:
256,192,10946,1,8,0:0:0:0:
256,192,11025,1,8,0:0:0:0:
256,192,11184,1,0,0:0:0:0:
256,192,11343,1,8,0:0:0:0:
256,192,11501,1,4,0:0:0:0:
256,192,11978,1,8,0:0:0:0:
256,192,12136,1,0,0:0:0:0:
256,192,12295,1,8,0:0:0:0:
256,192,12612,1,8,0:0:0:0:
256,192,12930,1,4,0:0:0:0:
256,192,13247,1,0,0:0:0:0:
256,192,13565,1,8,0:0:0:0:
256,192,13724,1,0,0:0:0:0:
256,192,14041,1,8,0:0:0:0:
256,192,14517,1,8,0:0:0:0:
256,192,14676,1,0,0:0:0:0:
256,192,14835,1,8,0:0:0:0:
256,192,15152,1,0,0:0:0:0:
256,192,15470,1,0,0:0:0:0:
256,192,15628,1,8,0:0:0:0:
256,192,15787,1,0,0:0:0:0:
256,192,15946,1,8,0:0:0:0:
256,192,16105,1,0,0:0:0:0:
256,192,16263,1,8,0:0:0:0:
256,192,16581,1,0,0:0:0:0:
256,192,16898,1,8,0:0:0:0:
256,192,17057,1,0,0:0:0:0:
256,192,17374,1,8,0:0:0:0:
256,192,17533,1,8,0:0:0:0:
256,192,17612,1,8,0:0:0:0:
256,192,17692,1,8,0:0:0:0:
256,192,18009,1,4,0:0:0:0:
256,192,18327,1,0,0:0:0:0:
256,192,18644,1,8,0:0:0:0:
256,192,18803,1,0,0:0:0:0:
256,192,19120,1,8,0:0:0:0:
256,192,19597,1,8,0:0:0:0:
256,192,19755,1,0,0:0:0:0:
256,192,19914,1,8,0:0:0:0:
256,192,20232,1,0,0:0:0:0:
256,192,20549,1,0,0:0:0:0:
256,192,20708,1,8,0:0:0:0:
256,192,20866,1,0,0:0:0:0:
256,192,21025,1,8,0:0:0:0:
256,192,21184,1,0,0:0:0:0:
256,192,21660,1,12,0:0:0:0:
256,192,22295,1,0,0:0:0:0:
256,192,22454,1,8,0:0:0:0:
256,192,22612,1,8,0:0:0:0:
256,192,22692,1,8,0:0:0:0:
256,192,22771,1,8,0:0:0:0:
256,192,23089,1,4,0:0:0:0:
256,192,23406,1,8,0:0:0:0:
256,192,23724,1,0,0:0:0:0:
256,192,24041,1,8,0:0:0:0:
256,192,24200,1,0,0:0:0:0:
256,192,24517,1,0,0:0:0:0:
256,192,24676,1,8,0:0:0:0:
256,192,24835,1,0,0:0:0:0:
256,192,25152,1,12,0:0:0:0:
256,192,25311,1,12,0:0:0:0:
256,192,25470,1,12,0:0:0:0:
256,192,25628,1,4,0:0:0:0:
256,192,25946,1,8,0:0:0:0:
256,192,26263,1,0,0:0:0:0:
256,192,26581,1,8,0:0:0:0:
256,192,26739,1,0,0:0:0:0:
256,192,27057,1,0,0:0:0:0:
256,192,27216,1,8,0:0:0:0:
256,192,27374,1,8,0:0:0:0:
256,192,27692,1,12,0:0:0:0:
256,192,27851,1,12,0:0:0:0:
256,192,28009,1,12,0:0:0:0:
256,192,28168,1,4,0:0:0:0:
256,192,28485,1,8,0:0:0:0:
256,192,28803,1,0,0:0:0:0:
256,192,29120,1,8,0:0:0:0:
256,192,29279,1,0,0:0:0:0:
256,192,29597,1,0,0:0:0:0:
256,192,29755,1,8,0:0:0:0:
256,192,29914,1,0,0:0:0:0:
256,192,30073,1,8,0:0:0:0:
256,192,30152,1,8,0:0:0:0:
256,192,30232,1,8,0:0:0:0:
256,192,30390,1,0,0:0:0:0:
256,192,30549,1,8,0:0:0:0:
256,192,30708,1,0,0:0:0:0:
256,192,31343,1,12,0:0:0:0:
256,192,31581,1,12,0:0:0:0:
256,192,31819,1,12,0:0:0:0:
256,192,31978,1,0,0:0:0:0:
256,192,32136,1,8,0:0:0:0:
256,192,32216,1,8,0:0:0:0:
256,192,32295,1,8,0:0:0:0:
256,192,32454,1,0,0:0:0:0:
256,192,32612,1,8,0:0:0:0:
256,192,32930,1,8,0:0:0:0:
256,192,33247,1,4,0:0:0:0:
256,192,33565,1,8,0:0:0:0:
256,192,33882,1,8,0:0:0:0:
256,192,34200,1,8,0:0:0:0:
256,192,34517,1,0,0:0:0:0:
256,192,34676,1,8,0:0:0:0:
256,192,34755,1,8,0:0:0:0:
256,192,34835,1,8,0:0:0:0:
256,192,34993,1,0,0:0:0:0:
256,192,35152,1,8,0:0:0:0:
256,192,35470,1,8,0:0:0:0:
256,192,35628,1,8,0:0:0:0:
256,192,35787,1,0,0:0:0:0:
256,192,35946,1,0,0:0:0:0:
256,192,36105,1,8,0:0:0:0:
256,192,36422,1,8,0:0:0:0:
256,192,36581,1,0,0:0:0:0:
256,192,36660,1,0,0:0:0:0:
256,192,36739,1,0,0:0:0:0:
256,192,36898,1,8,0:0:0:0:
256,192,37216,1,0,0:0:0:0:
256,192,37374,1,8,0:0:0:0:
256,192,37533,1,8,0:0:0:0:
256,192,37612,1,8,0:0:0:0:
256,192,37692,1,8,0:0:0:0:
256,192,37851,1,0,0:0:0:0:
256,192,38009,1,8,0:0:0:0:
256,192,38327,1,4,0:0:0:0:
256,192,38644,1,8,0:0:0:0:
256,192,38962,1,8,0:0:0:0:
256,192,39279,1,8,0:0:0:0:
256,192,39597,1,8,0:0:0:0:
256,192,39755,1,0,0:0:0:0:
256,192,39835,1,0,0:0:0:0:
256,192,39914,1,0,0:0:0:0:
256,192,40073,1,0,0:0:0:0:
256,192,40232,1,8,0:0:0:0:
256,192,40549,1,8,0:0:0:0:
256,192,40708,1,8,0:0:0:0:
256,192,40866,1,0,0:0:0:0:
256,192,41025,1,8,0:0:0:0:
256,192,41184,1,8,0:0:0:0:
256,192,41501,1,8,0:0:0:0:
256,192,41660,1,0,0:0:0:0:
256,192,41739,1,0,0:0:0:0:
256,192,41819,1,0,0:0:0:0:
256,192,41978,1,8,0:0:0:0:
256,192,42295,1,0,0:0:0:0:
256,192,42454,1,8,0:0:0:0:
256,192,42612,1,8,0:0:0:0:
256,192,42692,1,8,0:0:0:0:
256,192,42771,1,8,0:0:0:0:
256,192,42930,1,0,0:0:0:0:
256,192,43089,1,8,0:0:0:0:
256,192,43247,1,8,0:0:0:0:
256,192,43406,1,4,0:0:0:0:
256,192,43724,1,8,0:0:0:0:
256,192,44041,1,8,0:0:0:0:
256,192,44358,1,8,0:0:0:0:
256,192,44676,1,0,0:0:0:0:
256,192,44835,1,8,0:0:0:0:
256,192,44914,1,8,0:0:0:0:
256,192,44993,1,8,0:0:0:0:
256,192,45152,1,8,0:0:0:0:
256,192,45311,1,0,0:0:0:0:
256,192,45946,1,8,0:0:0:0:
256,192,46105,1,0,0:0:0:0:
256,192,46184,1,0,0:0:0:0:
256,192,46263,1,0,0:0:0:0:
256,192,46422,1,8,0:0:0:0:
256,192,46581,1,0,0:0:0:0:
256,192,47216,1,8,0:0:0:0:
256,192,47374,1,0,0:0:0:0:
256,192,47454,1,0,0:0:0:0:
256,192,47533,1,0,0:0:0:0:
256,192,47692,1,8,0:0:0:0:
256,192,47851,1,0,0:0:0:0:
256,192,48009,1,8,0:0:0:0:
256,192,48089,1,8,0:0:0:0:
256,192,48168,1,8,0:0:0:0:
256,192,48327,1,8,0:0:0:0:
256,192,48485,1,0,0:0:0:0:
256,192,48803,1,0,0:0:0:0:
256,192,49120,1,8,0:0:0:0:
256,192,49438,1,8,0:0:0:0:
256,192,49597,1,8,0:0:0:0:
256,192,49755,1,0,0:0:0:0:
256,192,49914,1,8,0:0:0:0:
256,192,49993,1,8,0:0:0:0:
256,192,50073,1,8,0:0:0:0:
256,192,50232,1,8,0:0:0:0:
256,192,50390,1,0,0:0:0:0:
256,192,51025,1,8,0:0:0:0:
256,192,51184,1,8,0:0:0:0:
256,192,51343,1,0,0:0:0:0:
256,192,51660,1,8,0:0:0:0:
256,192,51819,1,0,0:0:0:0:
256,192,51978,1,8,0:0:0:0:
256,192,52295,1,8,0:0:0:0:
256,192,52454,1,8,0:0:0:0:
256,192,52533,1,8,0:0:0:0:
256,192,52612,1,8,0:0:0:0:
256,192,52771,1,0,0:0:0:0:
256,192,52930,1,8,0:0:0:0:
256,192,53089,1,0,0:0:0:0:
256,192,53406,1,8,0:0:0:0:
256,192,53565,1,0,0:0:0:0:
256,192,54200,1,4,0:0:0:0:
256,192,54438,1,4,0:0:0:0:
256,192,54676,1,4,0:0:0:0:
256,192,54835,1,12,0:0:0:0:
256,192,55073,1,12,0:0:0:0:
256,192,55311,1,12,0:0:0:0:
256,192,55470,1,0,0:0:0:0:
256,192,56105,1,4,0:0:0:0:
256,192,56422,1,8,0:0:0:0:
256,192,56739,1,8,0:0:0:0:
256,192,57057,1,0,0:0:0:0:
256,192,57374,1,8,0:0:0:0:
256,192,57692,1,8,0:0:0:0:
256,192,58009,1,0,0:0:0:0:
256,192,58327,1,8,0:0:0:0:
256,192,58485,1,0,0:0:0:0:
256,192,58644,1,8,0:0:0:0:
256,192,58803,1,8,0:0:0:0:
256,192,58962,1,0,0:0:0:0:
256,192,59279,1,8,0:0:0:0:
256,192,59438,1,0,0:0:0:0:
256,192,59597,1,8,0:0:0:0:
256,192,59914,1,4,0:0:0:0:
256,192,60232,1,8,0:0:0:0:
256,192,60549,1,8,0:0:0:0:
256,192,60866,1,0,0:0:0:0:
256,192,61184,1,8,0:0:0:0:
256,192,61501,1,8,0:0:0:0:
256,192,61819,1,0,0:0:0:0:
256,192,62136,1,8,0:0:0:0:
256,192,62295,1,0,0:0:0:0:
256,192,62454,1,8,0:0:0:0:
256,192,62612,1,8,0:0:0:0:
256,192,62771,1,4,0:0:0:0:
256,192,63089,1,4,0:0:0:0:
256,192,63406,1,4,0:0:0:0:
256,192,63724,1,4,0:0:0:0:
256,192,64041,1,0,0:0:0:0:
256,192,64358,1,8,0:0:0:0:
256,192,64517,1,0,0:0:0:0:
256,192,64835,1,8,0:0:0:0:
256,192,65311,1,0,0:0:0:0:
256,192,65470,1,0,0:0:0:0:
256,192,65628,1,8,0:0:0:0:
256,192,65946,1,0,0:0:0:0:
256,192,66263,1,0,0:0:0:0:
256,192,66422,1,8,0:0:0:0:
256,192,66581,1,0,0:0:0:0:
256,192,66739,1,8,0:0:0:0:
256,192,66898,1,0,0:0:0:0:
256,192,67374,1,8,0:0:0:0:
256,192,67692,1,8,0:0:0:0:
256,192,67851,1,0,0:0:0:0:
256,192,68168,1,8,0:0:0:0:
256,192,68327,1,8,0:0:0:0:
256,192,68406,1,8,0:0:0:0:
256,192,68485,1,8,0:0:0:0:
256,192,68803,1,4,0:0:0:0:
256,192,69120,1,0,0:0:0:0:
256,192,69438,1,8,0:0:0:0:
224,192,69597,1,0,0:0:0:0:
256,192,69914,1,8,0:0:0:0:
256,192,70390,1,8,0:0:0:0:
256,192,70549,1,0,0:0:0:0:
256,192,70708,1,8,0:0:0:0:
256,192,71025,1,0,0:0:0:0:
256,192,71343,1,0,0:0:0:0:
256,192,71501,1,8,0:0:0:0:
256,192,71660,1,0,0:0:0:0:
256,192,71819,1,8,0:0:0:0:
256,192,71978,1,0,0:0:0:0:
256,192,72136,1,8,0:0:0:0:
256,192,72454,1,12,0:0:0:0:
256,192,73089,1,0,0:0:0:0:
256,192,73247,1,8,0:0:0:0:
256,192,73406,1,8,0:0:0:0:
256,192,73485,1,8,0:0:0:0:
256,192,73565,1,8,0:0:0:0:
256,192,73882,1,4,0:0:0:0:
256,192,74200,1,8,0:0:0:0:
256,192,74517,1,0,0:0:0:0:
256,192,74835,1,8,0:0:0:0:
256,192,74993,1,0,0:0:0:0:
256,192,75311,1,8,0:0:0:0:
256,192,75470,1,8,0:0:0:0:
256,192,75628,1,0,0:0:0:0:
256,192,75946,1,12,0:0:0:0:
256,192,76105,1,12,0:0:0:0:
256,192,76263,1,12,0:0:0:0:
256,192,76422,1,4,0:0:0:0:
256,192,76739,1,8,0:0:0:0:
256,192,77057,1,0,0:0:0:0:
256,192,77374,1,8,0:0:0:0:
256,192,77533,1,0,0:0:0:0:
256,192,77851,1,0,0:0:0:0:
256,192,78009,1,8,0:0:0:0:
256,192,78168,1,8,0:0:0:0:
256,192,78485,1,12,0:0:0:0:
256,192,78644,1,12,0:0:0:0:
256,192,78803,1,12,0:0:0:0:
256,192,78962,1,4,0:0:0:0:
256,192,79279,1,8,0:0:0:0:
256,192,79597,1,0,0:0:0:0:
256,192,79914,1,8,0:0:0:0:
256,192,80073,1,0,0:0:0:0:
256,192,80390,1,0,0:0:0:0:
256,192,80549,1,8,0:0:0:0:
256,192,80866,1,8,0:0:0:0:
256,192,80946,1,8,0:0:0:0:
256,192,81025,1,8,0:0:0:0:
256,192,81184,1,0,0:0:0:0:
256,192,81343,1,8,0:0:0:0:
256,192,81501,1,0,0:0:0:0:
256,192,82136,1,12,0:0:0:0:
256,192,82374,1,12,0:0:0:0:
256,192,82612,1,12,0:0:0:0:
256,192,82771,1,0,0:0:0:0:
256,192,82930,1,8,0:0:0:0:
256,192,83009,1,8,0:0:0:0:
256,192,83089,1,8,0:0:0:0:
256,192,83247,1,0,0:0:0:0:
256,192,83406,1,8,0:0:0:0:
256,192,83724,1,8,0:0:0:0:
256,192,84041,1,8,0:0:0:0:
256,192,84200,1,0,0:0:0:0:
256,192,84279,1,0,0:0:0:0:
256,192,84358,1,0,0:0:0:0:
256,192,84517,1,8,0:0:0:0:
256,192,84676,1,0,0:0:0:0:
256,192,84993,1,8,0:0:0:0:
256,192,85311,1,8,0:0:0:0:
256,192,85470,1,8,0:0:0:0:
256,192,85549,1,8,0:0:0:0:
256,192,85628,1,8,0:0:0:0:
256,192,85787,1,0,0:0:0:0:
256,192,85946,1,8,0:0:0:0:
256,192,86105,1,0,0:0:0:0:
256,192,86263,1,8,0:0:0:0:
256,192,86581,1,8,0:0:0:0:
256,192,86739,1,0,0:0:0:0:
256,192,86819,1,0,0:0:0:0:
256,192,86898,1,0,0:0:0:0:
256,192,87057,1,8,0:0:0:0:
256,192,87216,1,0,0:0:0:0:
256,192,87533,1,8,0:0:0:0:
256,192,87692,1,0,0:0:0:0:
256,192,87851,1,12,0:0:0:0:
256,192,88089,1,12,0:0:0:0:
256,192,88327,1,12,0:0:0:0:
256,192,88485,1,0,0:0:0:0:
256,192,90390,1,4,0:0:0:0:
256,192,91660,1,12,0:0:0:0:
256,192,92295,1,8,0:0:0:0:
256,192,92454,1,0,0:0:0:0:
256,192,92612,1,8,0:0:0:0:
256,192,92930,1,4,0:0:0:0:
256,192,93247,1,4,0:0:0:0:
256,192,93565,1,12,0:0:0:0:
256,192,93882,1,8,0:0:0:0:
256,192,94041,1,4,0:0:0:0:
256,192,94358,1,8,0:0:0:0:
256,192,94517,1,8,0:0:0:0:
256,192,94676,1,0,0:0:0:0:
256,192,94835,1,8,0:0:0:0:
256,192,95152,1,8,0:0:0:0:
256,192,95470,1,4,0:0:0:0:
256,192,95787,1,8,0:0:0:0:
256,192,96105,1,8,0:0:0:0:
256,192,96422,1,8,0:0:0:0:
256,192,96739,1,8,0:0:0:0:
256,192,96898,1,8,0:0:0:0:
256,192,96978,1,8,0:0:0:0:
256,192,97057,1,8,0:0:0:0:
256,192,97216,1,0,0:0:0:0:
256,192,97374,1,8,0:0:0:0:
256,192,97692,1,8,0:0:0:0:
256,192,97851,1,0,0:0:0:0:
256,192,98009,1,8,0:0:0:0:
256,192,98168,1,8,0:0:0:0:
256,192,98327,1,0,0:0:0:0:
256,192,98644,1,8,0:0:0:0:
256,192,98803,1,0,0:0:0:0:
256,192,98882,1,0,0:0:0:0:
256,192,98962,1,0,0:0:0:0:
256,192,99120,1,8,0:0:0:0:
256,192,99438,1,0,0:0:0:0:
256,192,99597,1,8,0:0:0:0:
256,192,99755,1,8,0:0:0:0:
256,192,99835,1,8,0:0:0:0:
256,192,99914,1,8,0:0:0:0:
256,192,100073,1,0,0:0:0:0:
256,192,100232,1,8,0:0:0:0:
256,192,100549,1,4,0:0:0:0:
256,192,100866,1,8,0:0:0:0:
256,192,101184,1,8,0:0:0:0:
256,192,101501,1,8,0:0:0:0:
256,192,101819,1,0,0:0:0:0:
256,192,101978,1,8,0:0:0:0:
256,192,102057,1,8,0:0:0:0:
256,192,102136,1,8,0:0:0:0:
256,192,102295,1,0,0:0:0:0:
256,192,102454,1,8,0:0:0:0:
256,192,102771,1,8,0:0:0:0:
256,192,102930,1,8,0:0:0:0:
256,192,103089,1,0,0:0:0:0:
256,192,103247,1,0,0:0:0:0:
256,192,103406,1,8,0:0:0:0:
256,192,103724,1,8,0:0:0:0:
256,192,103882,1,0,0:0:0:0:
256,192,103962,1,0,0:0:0:0:
256,192,104041,1,0,0:0:0:0:
256,192,104200,1,8,0:0:0:0:
256,192,104517,1,0,0:0:0:0:
256,192,104676,1,8,0:0:0:0:
256,192,104835,1,8,0:0:0:0:
256,192,104914,1,8,0:0:0:0:
256,192,104993,1,8,0:0:0:0:
256,192,105152,1,0,0:0:0:0:
256,192,105311,1,8,0:0:0:0:
256,192,105628,1,4,0:0:0:0:
256,192,105946,1,8,0:0:0:0:
256,192,106263,1,8,0:0:0:0:
256,192,106581,1,8,0:0:0:0:
256,192,106898,1,8,0:0:0:0:
256,192,107057,1,0,0:0:0:0:
256,192,107136,1,0,0:0:0:0:
256,192,107216,1,0,0:0:0:0:
256,192,107374,1,0,0:0:0:0:
256,192,107533,1,8,0:0:0:0:
256,192,107851,1,8,0:0:0:0:
256,192,108009,1,8,0:0:0:0:
256,192,108168,1,0,0:0:0:0:
256,192,108327,1,8,0:0:0:0:
256,192,108485,1,8,0:0:0:0:
256,192,108803,1,8,0:0:0:0:
256,192,108962,1,0,0:0:0:0:
256,192,109041,1,0,0:0:0:0:
256,192,109120,1,0,0:0:0:0:
256,192,109279,1,8,0:0:0:0:
256,192,109597,1,0,0:0:0:0:
256,192,109755,1,8,0:0:0:0:
256,192,109914,1,8,0:0:0:0:
256,192,109993,1,8,0:0:0:0:
256,192,110073,1,8,0:0:0:0:
256,192,110232,1,0,0:0:0:0:
256,192,110390,1,8,0:0:0:0:
256,192,110549,1,8,0:0:0:0:
256,192,110708,1,4,0:0:0:0:
256,192,111025,1,8,0:0:0:0:
256,192,111343,1,8,0:0:0:0:
256,192,111660,1,8,0:0:0:0:
256,192,111978,1,0,0:0:0:0:
256,192,112136,1,8,0:0:0:0:
256,192,112216,1,8,0:0:0:0:
256,192,112295,1,8,0:0:0:0:
256,192,112454,1,8,0:0:0:0:
256,192,112612,1,0,0:0:0:0:
256,192,113247,1,8,0:0:0:0:
256,192,113406,1,0,0:0:0:0:
256,192,113485,1,0,0:0:0:0:
256,192,113565,1,0,0:0:0:0:
256,192,113724,1,8,0:0:0:0:
256,192,113882,1,0,0:0:0:0:
256,192,114517,1,8,0:0:0:0:
256,192,114676,1,0,0:0:0:0:
256,192,114755,1,0,0:0:0:0:
256,192,114835,1,0,0:0:0:0:
256,192,114993,1,8,0:0:0:0:
256,192,115152,1,0,0:0:0:0:
256,192,115311,1,8,0:0:0:0:
256,192,115390,1,8,0:0:0:0:
256,192,115470,1,8,0:0:0:0:
256,192,115628,1,8,0:0:0:0:
256,192,115787,1,0,0:0:0:0:
256,192,116105,1,0,0:0:0:0:
256,192,116422,1,8,0:0:0:0:
256,192,116739,1,8,0:0:0:0:
256,192,116898,1,8,0:0:0:0:
256,192,117057,1,0,0:0:0:0:
256,192,117216,1,8,0:0:0:0:
256,192,117295,1,8,0:0:0:0:
256,192,117374,1,8,0:0:0:0:
256,192,117533,1,8,0:0:0:0:
256,192,117692,1,0,0:0:0:0:
256,192,118327,1,8,0:0:0:0:
256,192,118485,1,0,0:0:0:0:
256,192,118644,1,8,0:0:0:0:
256,192,118962,1,0,0:0:0:0:
256,192,119120,1,8,0:0:0:0:
256,192,119279,1,8,0:0:0:0:
256,192,119597,1,8,0:0:0:0:
256,192,119755,1,0,0:0:0:0:
256,192,119835,1,0,0:0:0:0:
256,192,119914,1,0,0:0:0:0:
256,192,120073,1,0,0:0:0:0:
256,192,120232,1,8,0:0:0:0:
256,192,120390,1,8,0:0:0:0:
256,192,120549,1,0,0:0:0:0:
256,192,120866,1,8,0:0:0:0:
256,192,121025,1,8,0:0:0:0:
256,192,121184,1,0,0:0:0:0:
256,192,121501,1,0,0:0:0:0:
256,192,121660,1,8,0:0:0:0:
256,192,121819,1,0,0:0:0:0:
256,192,122136,1,0,0:0:0:0:
256,192,122295,1,8,0:0:0:0:
256,192,122374,1,8,0:0:0:0:
256,192,122454,1,8,0:0:0:0:
256,192,122612,1,0,0:0:0:0:
256,192,122771,1,8,0:0:0:0:
256,192,122930,1,8,0:0:0:0:
256,192,123089,1,0,0:0:0:0:
256,192,123247,1,8,0:0:0:0:
256,192,123406,1,0,0:0:0:0:
256,192,124041,1,4,0:0:0:0:
256,192,124279,1,4,0:0:0:0:
256,192,124517,1,4,0:0:0:0:
256,192,124676,1,12,0:0:0:0:
256,192,124914,1,12,0:0:0:0:
256,192,125152,1,12,0:0:0:0:
256,192,125311,1,0,0:0:0:0:
256,192,125946,1,4,0:0:0:0:
256,192,126105,1,8,0:0:0:0:
256,192,126422,1,0,0:0:0:0:
256,192,126501,1,0,0:0:0:0:
256,192,126581,1,0,0:0:0:0:
256,192,126739,1,8,0:0:0:0:
256,192,127057,1,8,0:0:0:0:
256,192,127136,1,8,0:0:0:0:
256,192,127216,1,8,0:0:0:0:
256,192,127374,1,0,0:0:0:0:
256,192,127533,1,8,0:0:0:0:
256,192,127692,1,0,0:0:0:0:
256,192,127851,1,8,0:0:0:0:
256,192,128009,1,8,0:0:0:0:
256,192,128168,1,0,0:0:0:0:
256,192,128327,1,8,0:0:0:0:
256,192,128485,1,4,0:0:0:0:
256,192,128803,1,0,0:0:0:0:
256,192,128962,1,8,0:0:0:0:
256,192,129041,1,8,0:0:0:0:
256,192,129120,1,8,0:0:0:0:
256,192,129279,1,0,0:0:0:0:
256,192,129438,1,8,0:0:0:0:
256,192,129597,1,4,0:0:0:0:
256,192,130073,1,8,0:0:0:0:
256,192,130232,1,0,0:0:0:0:
256,192,130390,1,8,0:0:0:0:
256,192,130708,1,8,0:0:0:0:
256,192,131025,1,4,0:0:0:0:
256,192,131184,1,8,0:0:0:0:
256,192,131501,1,0,0:0:0:0:
256,192,131581,1,0,0:0:0:0:
256,192,131660,1,0,0:0:0:0:
256,192,131819,1,8,0:0:0:0:
256,192,132136,1,8,0:0:0:0:
256,192,132216,1,8,0:0:0:0:
256,192,132295,1,8,0:0:0:0:
256,192,132454,1,0,0:0:0:0:
256,192,132612,1,8,0:0:0:0:
256,192,132771,1,8,0:0:0:0:
256,192,132930,1,0,0:0:0:0:
256,192,133089,1,8,0:0:0:0:
256,192,133247,1,8,0:0:0:0:
256,192,133406,1,8,0:0:0:0:
256,192,133565,1,4,0:0:0:0:
256,192,133882,1,0,0:0:0:0:
256,192,134041,1,8,0:0:0:0:
256,192,134120,1,8,0:0:0:0:
256,192,134200,1,8,0:0:0:0:
256,192,134358,1,0,0:0:0:0:
256,192,134517,1,8,0:0:0:0:
256,192,134676,1,4,0:0:0:0:
256,192,135152,1,8,0:0:0:0:
256,192,135311,1,0,0:0:0:0:
256,192,135470,1,8,0:0:0:0:
256,192,135787,1,8,0:0:0:0:
256,192,136105,1,4,0:0:0:0:
