osu file format v14

[General]
AudioFilename: audio.ogg
AudioLeadIn: 0
PreviewTime: 33168
Countdown: 0
SampleSet: Normal
StackLeniency: 0.7
Mode: 1
LetterboxInBreaks: 0
WidescreenStoryboard: 1

[Editor]
Bookmarks: 243,2782,12941,23100,30084,33258,53576,56116,63735,73893,80877,88496,90401,95481,123417,125957,136116
DistanceSpacing: 1
BeatDivisor: 4
GridSize: 32
TimelineZoom: 1.9

[Metadata]
Title:Manmaru Dance
TitleUnicode:マンマルダンス
Artist:Rinu
ArtistUnicode:莉犬
Creator:KyeX
Version:Kantan
Source:
Tags:japanese pop jpop j-pop Riinu りいぬ utaite utattemita かいりきベア kairiki bear Strawberry Prince すとろべりーぷりんす sutopuri すとぷり nanao シャッターチャンス! The Perfect Shot!
BeatmapID:3657206
BeatmapSetID:1785510

[Difficulty]
HPDrainRate:8
CircleSize:3
OverallDifficulty:3
ApproachRate:10
SliderMultiplier:1.4
SliderTickRate:1

[Events]
//Background and Video events
0,0,"vlcsnap-2022-05-27-22h24m07s876.png",0,25
//Break Periods
//Storyboard Layer 0 (Background)
//Storyboard Layer 1 (Fail)
//Storyboard Layer 2 (Pass)
//Storyboard Layer 3 (Foreground)
//Storyboard Layer 4 (Overlay)
//Storyboard Sound Samples

[TimingPoints]
232,317.460317460318,4,1,0,90,1,0
2771,-100,4,1,0,85,0,0
12930,-100,4,1,0,80,0,0
23089,-100,4,1,0,85,0,0
30073,-100,4,1,0,90,0,0
33247,-100,4,1,0,90,0,1
53565,-100,4,1,0,90,0,0
56105,-100,4,1,0,80,0,0
73882,-100,4,1,0,85,0,0
80867,-100,4,1,0,90,0,0
88644,-100,4,1,0,80,0,0
95470,-100,4,1,0,90,0,1
123406,-100,4,1,0,90,0,0
125946,-100,4,1,0,85,0,0

[HitObjects]
256,192,232,5,8,0:0:0:0:
256,192,866,1,4,0:0:0:0:
256,192,1501,1,12,0:0:0:0:
256,192,2771,1,4,0:0:0:0:
256,192,4041,1,0,0:0:0:0:
256,192,4358,1,8,0:0:0:0:
256,192,4676,1,0,0:0:0:0:
256,192,5311,1,4,0:0:0:0:
256,192,5946,1,8,0:0:0:0:
256,192,6422,1,4,0:0:0:0:
256,192,7216,1,8,0:0:0:0:
256,192,7533,1,8,0:0:0:0:
256,192,7851,1,4,0:0:0:0:
256,192,9120,1,8,0:0:0:0:
256,192,9438,1,8,0:0:0:0:
256,192,9755,1,0,0:0:0:0:
256,192,10390,1,4,0:0:0:0:
256,192,11025,1,8,0:0:0:0:
256,192,11501,1,4,0:0:0:0:
256,192,12295,1,8,0:0:0:0:
256,192,12612,1,8,0:0:0:0:
256,192,12930,1,4,0:0:0:0:
256,192,13565,1,8,0:0:0:0:
256,192,14517,1,8,0:0:0:0:
256,192,14835,1,0,0:0:0:0:
256,192,15470,1,8,0:0:0:0:
256,192,16105,1,8,0:0:0:0:
256,192,16581,1,0,0:0:0:0:
256,192,17374,1,8,0:0:0:0:
256,192,17692,1,8,0:0:0:0:
256,192,18009,1,4,0:0:0:0:
256,192,18644,1,8,0:0:0:0:
256,192,19597,1,0,0:0:0:0:
256,192,19914,1,8,0:0:0:0:
256,192,20549,1,8,0:0:0:0:
256,192,21184,1,0,0:0:0:0:
256,192,21660,1,12,0:0:0:0:
256,192,22454,1,8,0:0:0:0:
256,192,22771,1,8,0:0:0:0:
256,192,23089,1,4,0:0:0:0:
256,192,23724,1,8,0:0:0:0:
256,192,24200,1,0,0:0:0:0:
256,192,24676,1,8,0:0:0:0:
256,192,25628,1,4,0:0:0:0:
256,192,26263,1,8,0:0:0:0:
256,192,26739,1,8,0:0:0:0:
256,192,27216,1,8,0:0:0:0:
256,192,28168,1,4,0:0:0:0:
256,192,28803,1,0,0:0:0:0:
256,192,29279,1,8,0:0:0:0:
256,192,30073,1,8,0:0:0:0:
256,192,30390,1,8,0:0:0:0:
256,192,30708,1,0,0:0:0:0:
256,192,31343,1,12,0:0:0:0:
256,192,32295,1,0,0:0:0:0:
256,192,32612,1,8,0:0:0:0:
256,192,33247,1,4,0:0:0:0:
256,192,34517,1,8,0:0:0:0:
256,192,34835,1,0,0:0:0:0:
256,192,35152,1,8,0:0:0:0:
256,192,35787,1,0,0:0:0:0:
256,192,36422,1,8,0:0:0:0:
256,192,36898,1,0,0:0:0:0:
256,192,37374,1,8,0:0:0:0:
256,192,37692,1,8,0:0:0:0:
256,192,38327,1,4,0:0:0:0:
256,192,39597,1,8,0:0:0:0:
256,192,39914,1,8,0:0:0:0:
256,192,40232,1,8,0:0:0:0:
256,192,40866,1,0,0:0:0:0:
256,192,41501,1,8,0:0:0:0:
256,192,41978,1,0,0:0:0:0:
256,192,42454,1,8,0:0:0:0:
256,192,42771,1,8,0:0:0:0:
256,192,43406,1,4,0:0:0:0:
256,192,44676,1,0,0:0:0:0:
256,192,44993,1,8,0:0:0:0:
256,192,45311,1,0,0:0:0:0:
256,192,45946,1,8,0:0:0:0:
256,192,46581,1,0,0:0:0:0:
256,192,47216,1,8,0:0:0:0:
256,192,47533,1,0,0:0:0:0:
256,192,47851,1,0,0:0:0:0:
256,192,48485,1,8,0:0:0:0:
256,192,49755,1,0,0:0:0:0:
256,192,50073,1,8,0:0:0:0:
256,192,50390,1,8,0:0:0:0:
256,192,51025,1,0,0:0:0:0:
256,192,51660,1,8,0:0:0:0:
256,192,51978,1,8,0:0:0:0:
256,192,52295,1,0,0:0:0:0:
256,192,52930,1,8,0:0:0:0:
256,192,53565,1,0,0:0:0:0:
256,192,54200,1,4,0:0:0:0:
256,192,54835,1,12,0:0:0:0:
256,192,56105,1,4,0:0:0:0:
256,192,57057,1,0,0:0:0:0:
256,192,57374,1,8,0:0:0:0:
256,192,58009,1,0,0:0:0:0:
256,192,58644,1,8,0:0:0:0:
256,192,59279,1,8,0:0:0:0:
256,192,59597,1,8,0:0:0:0:
256,192,59914,1,4,0:0:0:0:
256,192,60866,1,0,0:0:0:0:
256,192,61184,1,8,0:0:0:0:
256,192,61819,1,0,0:0:0:0:
256,192,62136,1,8,0:0:0:0:
256,192,62771,1,4,0:0:0:0:
256,192,63724,1,4,0:0:0:0:
256,192,64835,1,8,0:0:0:0:
256,192,65311,1,0,0:0:0:0:
256,192,65628,1,8,0:0:0:0:
256,192,66263,1,0,0:0:0:0:
256,192,66898,1,0,0:0:0:0:
256,192,67374,1,8,0:0:0:0:
256,192,68168,1,8,0:0:0:0:
256,192,68485,1,8,0:0:0:0:
256,192,68803,1,4,0:0:0:0:
256,192,69914,1,8,0:0:0:0:
256,192,70390,1,8,0:0:0:0:
256,192,70708,1,0,0:0:0:0:
256,192,71343,1,8,0:0:0:0:
256,192,72454,1,12,0:0:0:0:
256,192,73247,1,8,0:0:0:0:
256,192,73565,1,8,0:0:0:0:
256,192,73882,1,4,0:0:0:0:
256,192,74517,1,8,0:0:0:0:
256,192,74993,1,0,0:0:0:0:
256,192,75470,1,8,0:0:0:0:
256,192,76422,1,4,0:0:0:0:
256,192,77057,1,8,0:0:0:0:
256,192,77533,1,8,0:0:0:0:
256,192,78009,1,0,0:0:0:0:
256,192,78962,1,4,0:0:0:0:
256,192,79597,1,0,0:0:0:0:
256,192,80073,1,8,0:0:0:0:
256,192,80866,1,8,0:0:0:0:
256,192,81184,1,8,0:0:0:0:
256,192,81501,1,0,0:0:0:0:
256,192,82136,1,12,0:0:0:0:
256,192,82771,1,0,0:0:0:0:
256,192,83089,1,0,0:0:0:0:
256,192,83406,1,8,0:0:0:0:
256,192,84041,1,0,0:0:0:0:
256,192,84676,1,8,0:0:0:0:
256,192,85311,1,0,0:0:0:0:
256,192,85628,1,0,0:0:0:0:
256,192,85946,1,8,0:0:0:0:
256,192,86581,1,8,0:0:0:0:
256,192,87216,1,0,0:0:0:0:
256,192,87851,1,12,0:0:0:0:
256,192,88485,1,0,0:0:0:0:
256,192,90390,1,4,0:0:0:0:
256,192,91660,1,12,0:0:0:0:
256,192,92295,1,8,0:0:0:0:
256,192,92930,1,4,0:0:0:0:
256,192,93565,1,12,0:0:0:0:
256,192,94041,1,4,0:0:0:0:
256,192,95470,1,4,0:0:0:0:
256,192,96739,1,0,0:0:0:0:
256,192,97057,1,0,0:0:0:0:
256,192,97374,1,8,0:0:0:0:
256,192,98009,1,0,0:0:0:0:
256,192,98644,1,8,0:0:0:0:
256,192,99120,1,0,0:0:0:0:
256,192,99597,1,8,0:0:0:0:
256,192,99914,1,8,0:0:0:0:
256,192,100549,1,4,0:0:0:0:
256,192,101819,1,8,0:0:0:0:
256,192,102136,1,0,0:0:0:0:
256,192,102454,1,8,0:0:0:0:
256,192,103089,1,0,0:0:0:0:
256,192,103724,1,8,0:0:0:0:
256,192,104200,1,0,0:0:0:0:
256,192,104676,1,8,0:0:0:0:
256,192,104993,1,8,0:0:0:0:
256,192,105628,1,4,0:0:0:0:
256,192,106898,1,8,0:0:0:0:
256,192,107216,1,8,0:0:0:0:
256,192,107533,1,8,0:0:0:0:
256,192,108168,1,0,0:0:0:0:
256,192,108803,1,8,0:0:0:0:
256,192,109279,1,0,0:0:0:0:
256,192,109755,1,8,0:0:0:0:
256,192,110073,1,8,0:0:0:0:
256,192,110708,1,4,0:0:0:0:
256,192,111978,1,0,0:0:0:0:
256,192,112295,1,8,0:0:0:0:
256,192,112612,1,0,0:0:0:0:
256,192,113247,1,8,0:0:0:0:
256,192,113882,1,0,0:0:0:0:
256,192,114517,1,8,0:0:0:0:
256,192,114835,1,0,0:0:0:0:
256,192,115152,1,0,0:0:0:0:
256,192,115787,1,8,0:0:0:0:
256,192,117057,1,0,0:0:0:0:
256,192,117374,1,8,0:0:0:0:
256,192,117692,1,8,0:0:0:0:
256,192,118327,1,8,0:0:0:0:
256,192,118962,1,0,0:0:0:0:
256,192,119279,1,8,0:0:0:0:
256,192,119597,1,8,0:0:0:0:
256,192,120866,1,8,0:0:0:0:
256,192,121184,1,8,0:0:0:0:
256,192,121501,1,0,0:0:0:0:
256,192,122136,1,0,0:0:0:0:
256,192,122771,1,8,0:0:0:0:
256,192,123089,1,8,0:0:0:0:
256,192,123406,1,0,0:0:0:0:
256,192,124041,1,4,0:0:0:0:
256,192,124676,1,12,0:0:0:0:
256,192,125946,1,4,0:0:0:0:
256,192,127216,1,0,0:0:0:0:
256,192,127533,1,8,0:0:0:0:
256,192,127851,1,0,0:0:0:0:
256,192,128485,1,4,0:0:0:0:
256,192,129120,1,8,0:0:0:0:
256,192,129597,1,4,0:0:0:0:
256,192,130390,1,8,0:0:0:0:
256,192,130708,1,8,0:0:0:0:
256,192,131025,1,4,0:0:0:0:
256,192,132295,1,8,0:0:0:0:
256,192,132612,1,8,0:0:0:0:
256,192,132930,1,0,0:0:0:0:
256,192,133565,1,4,0:0:0:0:
256,192,134200,1,8,0:0:0:0:
256,192,134676,1,4,0:0:0:0:
256,192,135470,1,8,0:0:0:0:
256,192,135787,1,8,0:0:0:0:
256,192,136105,1,4,0:0:0:0:
