osu file format v14

[General]
AudioFilename: audio.mp3
AudioLeadIn: 0
PreviewTime: 100486
Countdown: 0
SampleSet: Soft
StackLeniency: 0.7
Mode: 0
LetterboxInBreaks: 0
WidescreenStoryboard: 0

[Editor]
DistanceSpacing: 0.3
BeatDivisor: 4
GridSize: 32
TimelineZoom: 2.599999

[Metadata]
Title:Hitotsu Hoshi
TitleUnicode:ひとつ星
Artist:Rinne Yoshida
ArtistUnicode:吉田凜音
Creator:timemon
Version:Insane
Source:祝姫
Tags:Iwaihime Visual Novel Ending Theme Full Version ちとせつづり DMM いわいひめ
BeatmapID:1680113
BeatmapSetID:800268

[Difficulty]
HPDrainRate:5.5
CircleSize:3.6
OverallDifficulty:7.5
ApproachRate:8.5
SliderMultiplier:3.2
SliderTickRate:1

[Events]
//Background and Video events
0,0,"bg.jpg",0,0
//Break Periods
2,19133,23643
2,126825,137489
2,240472,252104
//Storyboard Layer 0 (Background)
//Storyboard Layer 1 (Fail)
//Storyboard Layer 2 (Pass)
//Storyboard Layer 3 (Foreground)
//Storyboard Sound Samples

[TimingPoints]
6626,769.230769230769,4,2,1,40,1,0
6626,-133.333333333333,4,2,1,40,0,0
17395,-200,4,2,1,40,0,0
24318,-133.333333333333,4,2,1,40,0,0
100472,-133.333333333333,4,2,1,30,0,0
100856,-200,4,2,1,30,0,0
102010,-100,4,2,1,50,0,1
112779,-100,4,2,1,50,0,0
114318,-100,4,2,1,50,0,1
125087,-100,4,2,1,40,0,0
137395,-133.333333333333,4,2,1,40,0,0
188164,-100,4,2,1,50,0,1
198933,-100,4,2,1,50,0,0
200472,-100,4,2,1,50,0,1
211241,-100,4,2,1,40,0,0
212779,-100,4,2,1,50,0,1
212875,-100,4,2,1,50,0,0
238933,-100,4,2,1,25,0,0
252779,-200,4,2,1,40,0,0
258933,-133.333333333333,4,2,1,40,0,0
265151,-133.333333333333,4,2,1,30,0,0
265472,-200,4,2,1,30,0,0
266625,769.230769230769,4,2,1,50,1,1
266625,-100,4,2,1,50,0,1
277394,-100,4,2,1,50,0,0
278932,-100,4,2,1,50,0,1
289701,-100,4,2,1,40,0,0
291240,-133.333333333333,4,2,1,40,0,0
293163,-133.333333333333,4,2,1,20,0,0
293548,-133.333333333333,4,2,1,40,0,0
299317,-133.333333333333,4,2,1,20,0,0
299701,-133.333333333333,4,2,1,40,0,0
302009,-133.333333333333,4,2,1,30,0,0
303548,-133.333333333333,4,2,1,20,0,0
306112,-133.333333333333,4,2,1,20,0,0
315086,-133.333333333333,4,2,1,5,0,0

[Colours]
Combo1 : 188,160,109
Combo2 : 255,223,128
Combo3 : 199,141,141
Combo4 : 250,188,133

[HitObjects]
102,50,6626,6,0,L|232:57,2,120.000004577637,2|2|2,0:3|0:0|0:0,0:0:0:0:
19,167,7779,1,0,0:0:0:0:
78,242,7972,2,0,P|124:258|193:227,1,120.000004577637,2|0,0:0|0:0,0:0:0:0:
245,155,8549,2,0,P|291:139|360:170,2,120.000004577637,2|2|2,0:0|0:0|0:0,0:0:0:0:
383,253,9702,6,0,P|431:219|446:163,2,120.000004577637,2|0|0,0:3|0:3|0:3,0:0:0:0:
243,355,10856,2,0,L|256:281,1,60.0000022888184,2|2,0:0|0:0,0:0:0:0:
273,207,11241,1,0,0:0:0:0:
273,207,12010,1,2,0:0:0:0:
141,132,12395,1,2,0:0:0:0:
87,276,12779,6,0,P|148:250|216:262,1,120.000004577637,10|0,0:3|0:0,0:0:0:0:
260,330,13356,2,0,P|283:308|325:293,1,60.0000022888184
305,188,13741,2,0,P|366:214|434:202,1,120.000004577637,2|0,0:0|0:0,0:0:0:0:
384,58,14318,2,0,L|377:117,1,60.0000022888184,2|0,0:0|0:0,0:0:0:0:
292,22,14702,1,2,0:0:0:0:
292,22,14895,1,2,0:0:0:0:
91,363,15472,1,2,0:0:0:0:
63,271,15664,1,2,0:0:0:0:
119,193,15856,6,0,P|161:160|240:169,2,120.000004577637,10|0|0,0:3|0:0|0:0,0:0:0:0:
272,240,17010,1,2,0:0:0:0:
357,25,17395,6,0,B|381:103|316:97|350:194,2,160,2|2|8,0:0|0:0|1:3,0:0:0:0:
133,332,24318,6,0,B|143:284|143:284|131:207,1,120.000004577637
194,138,24895,1,0,0:0:0:0:
270,195,25087,6,0,P|320:204|392:153,2,120.000004577637,8|0|0,0:3|0:0|0:0,0:0:0:0:
89,16,26241,2,0,L|83:84,1,60.0000022888184
194,138,26625,2,0,L|188:70,1,60.0000022888184,2|0,0:3|0:0,0:0:0:0:
267,23,27010,2,0,P|298:15|329:12,1,60.0000022888184
194,138,27395,2,0,P|146:159|71:143,1,120.000004577637,2|0,0:0|0:0,0:0:0:0:
14,79,27972,1,0,0:0:0:0:
14,79,28164,6,0,P|21:145|19:209,2,120.000004577637,8|0|0,0:3|0:0|0:0,0:0:0:0:
142,14,29318,1,0,0:0:0:0:
244,114,29702,1,2,0:0:0:0:
360,29,30087,2,0,L|427:35,1,60.0000022888184
303,119,30472,2,0,L|243:113,1,60.0000022888184,2|0,0:0|0:0,0:0:0:0:
360,207,30856,1,0,0:0:0:0:
360,207,31049,1,0,0:0:0:0:
268,366,31241,6,0,P|276:304|264:236,1,120.000004577637,8|0,0:3|0:0,0:0:0:0:
147,167,32010,1,0,0:0:0:0:
147,167,32395,2,0,P|120:147|78:141,1,60.0000022888184
197,80,32779,2,0,P|248:65|282:1,2,120.000004577637,2|0|2,0:3|0:0|0:0,0:0:0:0:
381,133,33933,1,0,0:0:0:0:
353,225,34125,1,0,0:0:0:0:
390,313,34318,5,8,0:3:0:0:
381,133,34702,1,0,0:0:0:0:
229,230,35087,2,0,B|188:244|188:244|102:225,2,120.000004577637,0|0|2,0:0|0:0|0:3,0:0:0:0:
381,133,36625,2,0,L|386:64,1,60.0000022888184,2|0,0:0|0:0,0:0:0:0:
303,22,37010,1,0,0:0:0:0:
303,22,37202,1,0,0:0:0:0:
483,56,37395,6,0,L|474:175,2,120.000004577637,8|0|0,0:3|0:0|0:0,0:0:0:0:
358,128,38549,1,0,0:0:0:0:
401,213,38741,1,0,0:0:0:0:
353,296,38933,2,0,L|276:283,1,60.0000022888184,2|0,0:3|0:0,0:0:0:0:
227,216,39318,2,0,L|150:229,1,60.0000022888184
100,158,39702,2,0,P|86:99|111:40,2,120.000004577637,2|0|8,0:0|0:0|0:3,0:0:0:0:
239,26,40856,5,0,0:0:0:0:
50,64,41241,1,0,0:0:0:0:
195,181,41625,1,0,0:0:0:0:
167,89,41818,1,0,0:0:0:0:
239,26,42010,2,0,B|297:44|297:44|364:30,2,120.000004577637,2|0|2,0:0|0:0|0:0,0:0:0:0:
195,181,43164,1,0,0:0:0:0:
286,153,43356,1,0,0:0:0:0:
341,231,43549,6,0,P|386:240|465:209,1,120.000004577637,8|0,0:3|0:0,0:0:0:0:
297,317,44125,2,0,P|241:295|183:303,1,120.000004577637
125,380,44702,1,0,0:0:0:0:
52,263,44895,2,0,P|43:204|65:149,1,120.000004577637
132,80,45472,1,0,0:0:0:0:
57,19,45664,1,0,0:0:0:0:
57,19,45856,2,0,L|-14:35,1,60.0000022888184,2|0,0:0|0:0,0:0:0:0:
132,80,46241,1,0,0:0:0:0:
273,18,46625,6,0,L|411:35,2,120.000004577637,8|0|0,0:3|0:0|0:0,0:0:0:0:
313,211,47779,1,0,0:0:0:0:
97,334,48164,2,0,L|217:320,1,120.000004577637,2|0,0:3|0:0,0:0:0:0:
313,211,48933,2,0,L|304:79,1,120.000004577637,2|0,0:0|0:0,0:0:0:0:
224,38,49510,1,0,0:0:0:0:
151,101,49702,6,0,P|100:122|23:107,2,120.000004577637,8|0|0,0:3|0:0|0:0,0:0:0:0:
198,237,50856,1,0,0:0:0:0:
121,295,51049,2,0,P|91:310|52:312,2,60.0000022888184,0|2|0,0:0|0:3|0:0,0:0:0:0:
210,179,51625,2,0,P|199:207|198:237,1,60.0000022888184
295,345,52010,2,0,P|283:317|282:287,1,60.0000022888184,2|0,0:0|0:0,0:0:0:0:
344,213,52395,1,0,0:0:0:0:
430,254,52587,1,0,0:0:0:0:
495,184,52779,5,8,0:3:0:0:
344,213,53164,1,0,0:0:0:0:
394,67,53549,1,0,0:0:0:0:
344,213,53933,2,0,L|272:207,1,60.0000022888184
207,149,54318,2,0,L|135:155,1,60.0000022888184,2|0,0:3|0:0,0:0:0:0:
266,14,54702,2,0,P|273:44|268:82,1,60.0000022888184
147,153,55087,2,0,P|140:123|145:85,1,60.0000022888184,2|0,0:0|0:0,0:0:0:0:
167,1,55472,1,0,0:0:0:0:
167,1,55664,1,0,0:0:0:0:
49,136,55856,6,0,L|59:272,2,120.000004577637,8|0|0,0:3|0:0|0:0,0:0:0:0:
203,88,57010,1,0,0:0:0:0:
203,88,57395,2,0,B|245:99|245:99|317:66,2,120.000004577637,2|0|2,0:3|0:0|0:0,0:0:0:0:
124,263,58549,1,0,0:0:0:0:
202,207,58741,1,0,0:0:0:0:
286,252,58933,5,8,0:3:0:0:
203,89,59318,1,0,0:0:0:0:
124,263,59702,2,0,P|59:241|6:244,1,120.000004577637,2|0,0:0|0:0,0:0:0:0:
52,157,60279,1,0,0:0:0:0:
124,263,60472,1,2,0:3:0:0:
297,58,61241,2,0,L|290:132,1,60.0000022888184,2|0,0:0|0:0,0:0:0:0:
187,7,61625,2,0,L|194:81,1,60.0000022888184
251,194,62010,6,0,P|290:203|361:165,2,120.000004577637,8|0|0,0:3|0:0|0:0,0:0:0:0:
378,78,63164,1,0,0:0:0:0:
322,3,63356,2,0,P|294:32|292:112,1,120.000004577637
216,236,63933,2,0,P|219:177|184:129,2,120.000004577637,0|2|0,0:0|0:0|0:0,0:0:0:0:
290,108,65087,5,8,0:3:0:0:
125,207,65472,1,0,0:0:0:0:
293,300,65856,1,0,0:0:0:0:
290,108,66241,1,0,0:0:0:0:
240,204,66433,1,0,0:0:0:0:
293,300,66625,1,2,0:3:0:0:
125,207,67010,2,0,L|130:122,1,60.0000022888184
208,93,67395,2,0,L|203:8,1,60.0000022888184,2|0,0:0|0:0,0:0:0:0:
68,143,67779,2,0,L|153:148,1,60.0000022888184
304,144,68164,6,0,P|266:100|196:96,1,120.000004577637,8|0,0:3|0:0,0:0:0:0:
297,237,68741,2,0,P|354:226|392:167,1,120.000004577637
219,184,69318,1,0,0:0:0:0:
219,184,69510,2,0,P|199:238|231:301,1,120.000004577637
97,384,70087,1,0,0:0:0:0:
97,384,70279,2,0,P|119:329|100:274,1,120.000004577637
25,214,70856,1,0,0:0:0:0:
180,101,71241,5,8,0:3:0:0:
6,17,71625,1,0,0:0:0:0:
180,101,72010,1,0,0:0:0:0:
355,22,72395,1,0,0:0:0:0:
401,105,72587,1,0,0:0:0:0:
365,194,72779,1,2,0:3:0:0:
166,375,73549,2,0,P|185:317|162:239,1,120.000004577637,2|0,0:0|0:0,0:0:0:0:
85,296,74125,1,0,0:0:0:0:
166,145,74318,6,0,P|155:203|174:259,2,120.000004577637,8|0|0,0:3|0:0|0:0,0:0:0:0:
319,30,75472,2,0,L|395:35,1,60.0000022888184
273,120,75856,2,0,L|213:116,2,60.0000022888184,2|0|0,0:3|0:0|0:0,0:0:0:0:
430,300,76625,2,0,L|433:240,1,60.0000022888184,2|0,0:0|0:0,0:0:0:0:
352,359,77010,1,0,0:0:0:0:
284,291,77202,1,0,0:0:0:0:
284,291,77395,6,0,P|230:258|155:267,1,120.000004577637,8|0,0:3|0:0,0:0:0:0:
261,180,77972,2,0,P|320:179|370:147,1,120.000004577637
296,85,78549,2,0,L|302:24,1,60.0000022888184
370,146,78933,2,0,L|383:283,2,120.000004577637,2|0|2,0:3|0:0|0:0,0:0:0:0:
223,366,80087,2,0,L|231:290,1,60.0000022888184
183,221,80472,6,0,P|137:241|55:232,1,120.000004577637,8|0,0:3|0:0,0:0:0:0:
102,147,81049,2,0,P|61:117|28:41,1,120.000004577637
119,20,81625,1,0,0:0:0:0:
119,20,82010,2,0,B|166:34|166:34|241:24|240:24,2,120.000004577637,2|0|2,0:3|0:0|0:0,0:0:0:0:
289,85,83164,1,0,0:0:0:0:
368,31,83356,1,0,0:0:0:0:
438,96,83549,6,0,P|455:149|434:218,2,120.000004577637,8|0|0,0:3|0:0|0:0,0:0:0:0:
438,96,85087,1,2,0:3:0:0:
249,31,85472,2,0,L|178:42,1,60.0000022888184
132,116,85856,2,0,L|61:105,1,60.0000022888184,2|0,0:0|0:0,0:0:0:0:
210,246,86241,2,0,P|200:214|198:176,1,60.0000022888184
117,373,86625,6,0,P|124:314|109:249,1,120.000004577637,8|0,0:3|0:0,0:0:0:0:
248,118,87395,2,0,P|307:124|365:112,1,120.000004577637
488,43,87972,1,0,0:0:0:0:
488,43,88164,2,0,P|500:101|493:160,1,120.000004577637,2|0,0:3|0:0,0:0:0:0:
347,364,88933,2,0,L|342:298,1,60.0000022888184,2|0,0:0|0:0,0:0:0:0:
412,237,89318,1,0,0:0:0:0:
412,237,89510,1,0,0:0:0:0:
298,155,89702,6,0,P|247:182|176:174,1,120.000004577637,8|0,0:3|0:0,0:0:0:0:
126,102,90279,2,0,P|92:151|90:210,1,120.000004577637
151,283,90856,1,0,0:0:0:0:
151,283,91049,1,0,0:0:0:0:
301,180,91241,2,0,B|225:194|225:194|181:176,2,120.000004577637,2|0|2,0:3|0:0|0:0,0:0:0:0:
446,50,92395,1,0,0:0:0:0:
446,50,92779,6,0,L|441:172,1,120.000004577637,8|0,0:3|0:0,0:0:0:0:
259,235,93549,2,0,L|264:357,2,120.000004577637,0|0|2,0:0|0:0|0:3,0:0:0:0:
123,163,94702,2,0,L|128:41,1,120.000004577637,0|2,0:0|0:0,0:0:0:0:
177,285,95472,1,0,0:0:0:0:
259,235,95664,1,0,0:0:0:0:
350,262,95856,6,0,P|416:277|486:261,1,120.000004577637,8|0,0:3|0:0,0:0:0:0:
249,345,96625,2,0,P|189:337|132:351,1,120.000004577637,2|0,0:0|0:0,0:0:0:0:
31,137,97395,2,0,P|23:197|37:254,1,120.000004577637,2|0,0:0|0:0,0:0:0:0:
142,34,98164,1,2,0:0:0:0:
256,192,98933,5,8,0:3:0:0:
256,192,99029,12,2,100472,0:3:0:0:
138,184,100856,6,0,L|144:269,2,80
372,185,102010,6,0,P|308:229|233:212,1,160,4|0,1:2|0:0,0:0:0:0:
288,61,102587,1,0,0:0:0:0:
288,61,102779,2,0,P|292:105|290:149,1,80,8|0,0:0|0:0,0:0:0:0:
431,328,103164,2,0,P|429:288|433:248,1,80,0|8,0:0|0:3,0:0:0:0:
152,209,103549,2,0,P|191:212|231:211,1,80,8|0,0:3|0:0,0:0:0:0:
429,29,103933,2,0,P|384:67|283:58,2,160,0|10|0,0:0|0:0|0:0,0:0:0:0:
503,171,104895,1,0,3:0:0:0:
503,171,104991,1,0,3:0:0:0:
503,171,105087,6,0,P|495:249|491:337,1,160,8|0,0:3|0:0,0:0:0:0:
349,383,105664,1,0,0:0:0:0:
349,383,105856,2,0,P|345:303|337:223,1,160,8|0,0:0|0:0,0:0:0:0:
248,53,106433,1,8,0:3:0:0:
192,168,106625,1,8,0:3:0:0:
112,67,106818,2,0,L|20:58,1,80,8|0,0:0|0:0,0:0:0:0:
192,168,107202,1,8,0:3:0:0:
88,291,107395,2,0,P|82:248|79:199,1,80,10|0,0:0|0:0,0:0:0:0:
266,298,107779,2,0,P|260:340|257:390,1,80,8|8,0:3|0:0,0:0:0:0:
192,168,108164,6,0,P|243:185|336:142,2,160,8|0|8,0:3|0:0|0:0,0:0:0:0:
253,6,109125,1,0,0:0:0:0:
253,6,109318,2,0,P|252:48|255:95,1,80,0|8,0:0|0:3,0:0:0:0:
48,142,109702,2,0,P|99:125|192:168,2,160,8|0|8,0:3|0:0|0:0,0:0:0:0:
180,327,110664,1,0,0:0:0:0:
290,263,110856,1,0,0:0:0:0:
180,198,111049,1,0,0:0:0:0:
356,350,111241,6,0,P|388:305|356:185,1,160,4|8,0:0|0:3,0:0:0:0:
375,205,111818,1,0,0:0:0:0:
170,46,112010,2,0,P|192:96|312:128,1,160,12|8,0:0|0:3,0:0:0:0:
285,134,112587,1,0,0:0:0:0:
182,302,112779,1,8,0:3:0:0:
92,193,112972,2,0,L|-3:201,1,80,8|0,0:0|0:0,0:0:0:0:
190,316,113356,1,8,0:3:0:0:
285,134,113549,1,10,0:3:0:0:
92,193,113741,1,8,0:3:0:0:
176,11,113933,2,0,L|170:91,1,80,8|0,0:0|0:0,0:0:0:0:
190,316,114318,6,0,P|246:243|327:251,2,160,4|0|8,1:2|0:0|0:0,0:0:0:0:
407,209,115279,1,0,0:0:0:0:
407,209,115472,2,0,P|401:247|399:302,1,80,0|8,0:0|0:3,0:0:0:0:
285,150,115856,2,0,P|282:110|277:70,1,80,8|0,0:3|0:0,0:0:0:0:
190,316,116241,2,0,P|229:304|268:275,1,80
118,153,116625,2,0,P|147:180|192:200,1,80,10|0,0:0|0:0,0:0:0:0:
223,9,117010,2,0,P|213:48|219:97,1,80
285,150,117299,1,0,3:0:0:0:
285,150,117395,6,0,B|367:122|359:191|441:154,1,160,8|0,0:3|0:0,0:0:0:0:
120,277,117972,1,0,0:0:0:0:
221,355,118164,2,0,P|221:294|213:185,1,160,8|0,0:0|0:0,0:0:0:0:
83,18,118741,1,8,0:3:0:0:
106,143,118933,1,8,0:3:0:0:
194,50,119125,2,0,P|235:61|276:66,1,80,8|0,0:0|0:0,0:0:0:0:
19,214,119510,1,8,0:3:0:0:
131,218,119702,2,0,P|120:176|103:138,1,80,10|0,3:2|3:0,0:0:0:0:
236,261,120087,1,0,3:0:0:0:
200,368,120279,1,8,3:0:0:0:
231,141,120472,6,0,P|287:111|369:175,2,160,4|8|8,0:0|0:3|0:0,0:0:0:0:
110,337,121433,1,0,0:0:0:0:
110,337,121625,2,0,P|73:352|34:362,1,80
212,224,122010,1,8,0:3:0:0:
315,298,122202,2,0,P|351:275|405:272,2,80,8|0|8,0:0|0:0|0:3,0:0:0:0:
366,96,122779,1,8,0:0:0:0:
298,205,122972,1,8,0:0:0:0:
249,15,123164,1,8,0:3:0:0:
294,189,123356,1,8,0:0:0:0:
64,102,123549,6,0,B|111:126|111:126|232:110,2,160,4|8|8,0:0|0:3|0:0,0:0:0:0:
135,211,124510,1,8,3:3:0:0:
24,256,124702,1,8,3:3:0:0:
191,313,124895,1,8,0:0:0:0:
191,313,124991,1,8,0:0:0:0:
191,313,125087,2,0,P|113:307|58:362,2,160,8|8|0,0:3|3:3|0:0,0:0:0:0:
283,339,126049,1,8,3:3:0:0:
369,297,126241,5,2,0:0:0:0:
422,217,126433,1,2,0:0:0:0:
431,121,126625,1,2,0:0:0:0:
151,300,138164,6,0,P|195:313|267:288,1,120.000004577637,2|0,0:0|0:0,0:0:0:0:
334,226,138741,1,0,0:0:0:0:
343,345,138933,6,0,P|387:332|459:357,2,120.000004577637,8|0|0,0:3|0:0|0:0,0:0:0:0:
243,180,140087,2,0,P|246:212|248:263,1,60.0000022888184
332,147,140472,2,0,P|321:96|320:18,2,120.000004577637,2|0|2,0:3|0:0|0:0,0:0:0:0:
247,239,141625,1,0,0:0:0:0:
247,239,141818,1,0,0:0:0:0:
247,239,142010,6,0,P|209:232|182:228,1,60.0000022888184,8|0,0:3|0:0,0:0:0:0:
60,308,142395,2,0,P|90:302|120:298,1,60.0000022888184
171,379,142779,1,2,0:0:0:0:
171,379,143164,1,0,0:0:0:0:
60,222,143549,1,2,0:3:0:0:
148,51,143933,2,0,P|131:112|149:172,2,120.000004577637,0|2|0,0:0|0:0|0:0,0:0:0:0:
233,7,144895,1,0,0:0:0:0:
299,75,145087,6,0,L|372:68,1,60.0000022888184,8|0,0:3|0:0,0:0:0:0:
204,171,145472,2,0,L|144:165,1,60.0000022888184
247,251,145856,1,0,0:0:0:0:
247,251,146241,1,0,0:0:0:0:
247,251,146625,2,0,P|307:252|356:212,2,120.000004577637,2|0|2,0:3|0:0|0:0,0:0:0:0:
52,358,147779,1,0,0:0:0:0:
39,262,147972,1,0,0:0:0:0:
106,194,148164,5,8,0:3:0:0:
52,358,148549,1,0,0:0:0:0:
221,322,148933,1,0,0:0:0:0:
221,322,149318,2,0,L|286:328,1,60.0000022888184
348,260,149702,2,0,P|365:196|344:139,1,120.000004577637,2|0,0:3|0:0,0:0:0:0:
177,25,150472,2,0,P|217:68|275:83,1,120.000004577637,2|0,0:0|0:0,0:0:0:0:
359,36,151049,1,0,0:0:0:0:
420,109,151241,6,0,P|409:167|407:238,2,120.000004577637,8|0|0,0:3|0:0|0:0,0:0:0:0:
473,287,152395,1,0,0:0:0:0:
369,348,152587,1,0,0:0:0:0:
369,348,152779,2,0,L|291:334,1,60.0000022888184,2|0,0:3|0:0,0:0:0:0:
268,250,153164,2,0,L|208:260,1,60.0000022888184
153,181,153549,2,0,P|146:144|154:114,1,60.0000022888184,2|0,0:0|0:0,0:0:0:0:
255,37,153933,2,0,P|262:65|257:95,1,60.0000022888184
153,181,154318,6,0,L|20:171,2,120.000004577637,8|0|0,0:3|0:0|0:0,0:0:0:0:
310,290,155472,2,0,L|385:284,1,60.0000022888184
261,358,155856,2,0,P|230:308|245:240,1,120.000004577637,2|0,0:0|0:0,0:0:0:0:
281,130,156625,2,0,P|289:68|263:6,1,120.000004577637,2|0,0:0|0:0,0:0:0:0:
269,15,157202,1,0,0:0:0:0:
258,210,157395,6,0,P|309:164|366:163,1,120.000004577637,8|0,0:3|0:0,0:0:0:0:
333,357,157972,2,0,P|355:302|340:245,1,120.000004577637
216,288,158549,1,0,0:0:0:0:
216,288,158741,2,0,P|156:280|82:273,1,120.000004577637
14,187,159318,1,0,0:0:0:0:
14,187,159510,2,0,L|93:179,2,60.0000022888184,0|2|0,0:0|0:0|0:0,0:0:0:0:
121,108,160087,1,0,0:0:0:0:
121,108,160472,6,0,L|248:122,2,120.000004577637,8|0|0,0:3|0:0|0:0,0:0:0:0:
302,45,161625,1,0,0:0:0:0:
349,230,162010,1,2,0:0:0:0:
30,313,162779,2,0,P|75:328|150:303,1,120.000004577637,2|0,0:0|0:0,0:0:0:0:
217,247,163356,1,0,0:0:0:0:
160,168,163549,6,0,B|145:125|145:125|157:43,1,120.000004577637,12|0,0:3|0:0,0:0:0:0:
314,159,164318,2,0,B|329:202|329:202|317:284,1,120.000004577637
279,363,164895,2,0,P|326:325|396:329,1,120.000004577637
464,375,165472,1,0,0:0:0:0:
510,188,165856,2,0,L|500:59,1,120.000004577637,2|0,0:0|0:0,0:0:0:0:
417,20,166433,1,0,0:0:0:0:
417,20,166625,6,0,P|363:38|301:43,1,120.000004577637,8|0,0:3|0:0,0:0:0:0:
267,132,167202,2,0,P|213:114|151:109,1,120.000004577637
63,68,167779,1,0,0:0:0:0:
32,159,167972,1,0,0:0:0:0:
85,238,168164,2,0,P|96:283|84:361,2,120.000004577637,2|0|2,0:0|0:0|0:0,0:0:0:0:
241,202,169318,2,0,P|233:172|237:132,1,60.0000022888184
276,57,169702,6,0,P|311:30|398:47,1,120.000004577637,8|0,0:3|0:0,0:0:0:0:
434,117,170279,2,0,B|444:161|444:161|430:246,1,120.000004577637
386,319,170856,1,0,0:0:0:0:
386,319,171049,1,0,0:0:0:0:
305,266,171241,1,2,0:3:0:0:
305,266,171625,2,0,P|285:237|273:205,1,60.0000022888184
327,133,172010,2,0,P|338:105|356:81,1,60.0000022888184,2|0,0:0|0:0,0:0:0:0:
288,13,172395,1,0,0:0:0:0:
288,13,172587,1,0,0:0:0:0:
188,87,172779,6,0,L|58:73,2,120.000004577637,8|0|0,0:3|0:0|0:0,0:0:0:0:
242,246,173933,1,0,0:0:0:0:
324,205,174125,1,0,0:0:0:0:
413,238,174318,1,2,0:0:0:0:
413,238,174510,1,0,3:0:0:0:
327,377,174702,2,0,P|321:343|326:315,1,60.0000022888184,0|0,0:0|3:0,0:0:0:0:
199,240,175087,2,0,P|231:251|253:270,1,60.0000022888184,2|0,3:0|0:0,0:0:0:0:
381,197,175472,2,0,P|354:219|327:228,1,60.0000022888184
251,143,175856,6,0,P|262:80|263:15,1,120.000004577637,8|0,0:3|0:0,0:0:0:0:
101,102,176625,2,0,P|102:161|113:220,1,120.000004577637
192,282,177202,1,0,0:0:0:0:
192,282,177395,2,0,P|251:280|310:269,1,120.000004577637,2|0,0:3|0:0,0:0:0:0:
432,83,178164,2,0,P|372:81|313:70,1,120.000004577637,2|0,0:0|0:0,0:0:0:0:
251,143,178741,1,0,0:0:0:0:
251,143,178933,6,0,P|191:144|132:155,1,120.000004577637,8|0,0:3|0:0,0:0:0:0:
267,236,179510,2,0,P|326:237|385:248,1,120.000004577637
481,148,180087,1,0,0:0:0:0:
481,148,180279,1,0,0:0:0:0:
389,119,180472,2,0,P|390:60|401:1,1,120.000004577637,2|0,0:0|0:0,0:0:0:0:
401,0,181241,1,2,0:0:0:0:
224,75,181625,1,0,0:0:0:0:
325,237,182010,6,0,L|316:362,1,120.000004577637,8|0,0:3|0:0,0:0:0:0:
140,278,182779,2,0,P|146:239|140:204,1,60.0000022888184
48,228,183164,2,0,P|33:191|11:163,1,60.0000022888184
77,91,183549,2,0,P|138:92|200:55,2,120.000004577637,2|0|2,0:3|0:0|0:0,0:0:0:0:
196,346,184702,1,0,0:0:0:0:
196,346,184895,1,0,0:0:0:0:
261,276,185087,6,0,L|337:283,1,60.0000022888184,8|0,0:0|0:0,0:0:0:0:
193,185,185472,2,0,L|117:192,1,60.0000022888184,8|0,0:0|0:0,0:0:0:0:
275,44,185856,2,0,L|269:103,1,60.0000022888184,8|0,0:0|0:0,0:0:0:0:
133,190,186241,2,0,L|127:130,1,60.0000022888184,8|0,0:0|0:0,0:0:0:0:
275,44,186625,2,0,P|302:29|339:25,1,60.0000022888184,8|0,0:0|0:0,0:0:0:0:
402,178,187010,2,0,P|375:162|353:132,1,60.0000022888184,8|0,0:0|0:0,0:0:0:0:
236,170,187395,1,10,0:0:0:0:
350,283,187587,1,8,0:0:0:0:
350,283,187779,2,0,L|343:358,1,60.0000022888184,8|0,0:3|0:0,0:0:0:0:
144,187,188164,6,0,P|207:257|272:255,2,160,4|0|8,1:2|0:0|0:2,0:0:0:0:
229,91,189125,1,0,0:0:0:0:
116,9,189318,1,0,0:0:0:0:
22,114,189510,2,0,P|114:133|144:190,1,160,8|0,0:3|0:0,0:0:0:0:
42,281,190087,2,0,P|49:241|51:201,1,80
225,290,190472,2,0,P|226:329|234:369,1,80,10|0,0:0|0:0,0:0:0:0:
143,185,190856,1,0,0:0:0:0:
308,57,191049,1,0,3:0:0:0:
308,57,191145,1,0,3:0:0:0:
308,57,191241,6,0,B|385:32|384:90|467:71,1,160,8|0,0:3|0:0,0:0:0:0:
506,214,191818,1,0,0:0:0:0:
506,214,192010,2,0,P|482:288|463:368,1,160,8|0,0:0|0:0,0:0:0:0:
330,204,192587,1,0,0:0:0:0:
241,343,192779,1,8,0:3:0:0:
180,231,192972,2,0,P|186:190|189:146,1,80,8|0,0:0|0:0,0:0:0:0:
241,343,193356,1,8,0:3:0:0:
18,270,193549,2,0,P|20:310|26:350,1,80,10|0,0:0|0:0,0:0:0:0:
102,186,193933,1,8,0:3:0:0:
263,292,194125,1,0,3:0:0:0:
263,292,194222,1,0,3:0:0:0:
263,292,194318,6,0,P|293:221|365:182,1,160,8|0,0:3|0:0,0:0:0:0:
154,50,194895,1,0,0:0:0:0:
154,50,195087,2,0,P|107:60|57:67,1,80,8|0,0:0|0:0,0:0:0:0:
284,167,195472,2,0,P|323:173|363:182,1,80,0|8,0:0|0:3,0:0:0:0:
159,359,195856,2,0,P|165:283|157:196,2,160,8|0|10,0:3|0:0|0:0,0:0:0:0:
197,105,196818,1,0,0:0:0:0:
69,232,197010,1,0,0:0:0:0:
22,119,197202,1,0,0:0:0:0:
159,359,197395,6,0,P|215:288|294:298,1,160,4|0,0:0|0:0,0:0:0:0:
380,380,197972,1,0,0:0:0:0:
471,232,198164,2,0,P|381:219|350:145,1,160,12|0,0:0|0:0,0:0:0:0:
389,24,198741,1,0,0:0:0:0:
169,90,198933,1,8,0:3:0:0:
169,90,199125,2,0,L|161:175,1,80,8|0,0:0|0:0,0:0:0:0:
71,322,199510,1,8,3:3:0:0:
20,143,199702,1,10,3:3:0:0:
202,253,199895,1,8,3:3:0:0:
71,322,200087,2,0,L|63:237,1,80,8|0,0:0|0:0,0:0:0:0:
169,90,200472,6,0,P|231:109|326:67,1,160,4|0,1:2|0:0,0:0:0:0:
262,207,201049,1,0,0:0:0:0:
262,207,201241,2,0,P|220:195|173:199,1,80,8|0,0:0|0:0,0:0:0:0:
284,308,201625,1,0,0:0:0:0:
415,156,201818,1,8,0:3:0:0:
298,39,202010,2,0,P|299:78|305:134,1,80,8|0,0:3|0:0,0:0:0:0:
284,308,202395,2,0,P|212:275|135:294,2,160,0|10|0,0:0|0:0|0:0,0:0:0:0:
411,191,203356,1,0,3:0:0:0:
411,191,203452,1,0,3:0:0:0:
411,191,203549,6,0,B|435:144|435:144|422:31,1,160,8|0,0:3|0:0,0:0:0:0:
302,118,204125,1,0,0:0:0:0:
302,118,204318,2,0,P|227:116|134:102,1,160,8|0,0:0|0:0,0:0:0:0:
19,245,204895,1,8,0:3:0:0:
149,207,205087,1,8,0:3:0:0:
99,333,205279,2,0,L|6:325,1,80,8|0,0:0|0:0,0:0:0:0:
149,207,205664,1,8,0:3:0:0:
79,90,205856,2,0,P|70:46|81:2,1,80,10|0,0:0|3:0,0:0:0:0:
206,55,206241,1,0,3:0:0:0:
50,187,206433,1,8,3:3:0:0:
223,284,206625,6,0,P|302:309|387:276,2,160,4|0|8,0:0|0:0|0:0,0:0:0:0:
134,191,207587,1,0,0:0:0:0:
215,92,207779,2,0,L|208:7,1,80
398,89,208164,1,8,0:3:0:0:
309,181,208356,2,0,L|302:266,2,80,8|0|0,0:0|0:0|0:0,0:0:0:0:
195,117,208933,1,10,0:0:0:0:
405,203,209125,1,8,0:0:0:0:
227,286,209318,1,8,0:3:0:0:
427,362,209510,1,8,0:0:0:0:
280,384,209702,6,0,P|223:319|139:339,1,160,4|0,0:0|0:0,0:0:0:0:
26,250,210279,1,0,0:0:0:0:
26,250,210472,2,0,P|35:167|43:84,1,160,8|0,0:0|0:0,0:0:0:0:
266,53,211049,1,8,0:0:0:0:
266,53,211145,1,8,0:0:0:0:
266,53,211241,5,8,3:0:0:0:
182,28,211433,1,8,3:0:0:0:
132,101,211625,1,8,3:0:0:0:
186,170,211818,1,8,3:0:0:0:
270,141,212010,1,8,3:0:0:0:
124,284,212202,5,8,0:0:0:0:
320,338,212395,1,8,0:0:0:0:
151,384,212587,1,8,0:0:0:0:
320,338,212779,6,0,P|311:254|325:176,1,160,4|0,0:0|0:0,0:0:0:0:
286,36,213356,1,0,0:0:0:0:
286,36,213549,2,0,P|202:45|124:31,1,160,8|0,0:0|0:0,0:0:0:0:
169,342,214318,2,0,P|181:263|172:184,2,160,8|0|10,0:3|0:0|0:0,0:0:0:0:
77,253,215279,1,0,0:0:0:0:
269,153,215472,1,0,0:0:0:0:
141,77,215664,1,8,0:0:0:0:
306,17,215856,6,0,L|470:29,1,160,8|0,0:3|0:0,0:0:0:0:
505,150,216433,1,0,0:0:0:0:
422,200,216625,2,0,B|412:298|412:298|431:361,1,160,8|0,0:0|0:0,0:0:0:0:
506,280,217202,1,0,0:0:0:0:
341,369,217395,1,8,0:3:0:0:
256,234,217587,2,0,P|280:201|315:180,1,80,8|0,0:0|0:0,0:0:0:0:
139,183,217972,1,8,0:3:0:0:
148,295,218164,2,0,P|107:290|71:270,1,80,10|0,0:0|0:0,0:0:0:0:
26,122,218549,1,8,0:3:0:0:
158,22,218741,1,0,0:0:0:0:
158,22,218837,1,0,0:0:0:0:
158,22,218933,6,0,P|226:43|315:38,2,160,8|0|8,0:3|0:0|0:0,0:0:0:0:
26,122,219895,2,0,P|16:81|13:41,1,80
188,126,220279,1,8,0:3:0:0:
188,126,220472,2,0,P|184:165|174:204,1,80,8|0,0:3|0:0,0:0:0:0:
66,241,220856,2,0,P|83:277|94:315,1,80,8|0,0:3|0:0,0:0:0:0:
223,364,221241,2,0,P|234:325|251:289,1,80,10|0,0:0|0:0,0:0:0:0:
468,228,221625,1,0,0:0:0:0:
351,105,221818,1,0,0:0:0:0:
251,290,222010,6,0,P|158:322|94:298,1,160,4|8,0:0|0:3,0:0:0:0:
102,303,222587,1,0,0:0:0:0:
317,342,222779,2,0,P|298:265|330:193,1,160,12|8,0:0|0:3,0:0:0:0:
329,193,223356,1,0,0:0:0:0:
70,27,223549,1,4,0:0:0:0:
154,99,223741,2,0,L|145:190,1,80,8|0,0:0|0:0,0:0:0:0:
40,218,224125,2,0,L|49:309,1,80,8|2,0:0|0:0,0:0:0:0:
136,365,224510,2,0,P|172:344|219:338,1,80,8|8,3:0|3:0,0:0:0:0:
209,337,224895,1,8,3:0:0:0:
146,178,225087,6,0,P|196:190|289:130,2,160,4|0|8,0:0|0:0|0:0,0:0:0:0:
357,108,226049,2,0,P|329:73|284:59,1,80
400,251,226433,1,8,0:3:0:0:
400,251,226625,2,0,P|444:244|478:212,1,80,8|0,0:3|0:0,0:0:0:0:
303,197,227010,1,0,0:0:0:0:
279,344,227202,1,0,0:0:0:0:
166,187,227395,2,0,P|171:145|172:99,1,80,10|0,0:0|0:0,0:0:0:0:
37,252,227779,2,0,P|38:291|43:331,1,80
121,368,228068,1,0,0:0:0:0:
121,368,228164,6,0,P|191:345|279:333,1,160,8|0,0:3|0:0,0:0:0:0:
404,222,228741,1,0,0:0:0:0:
319,65,228933,2,0,P|317:106|312:151,1,80,8|0,0:0|0:0,0:0:0:0:
129,259,229318,2,0,P|124:219|123:179,1,80
236,25,229702,1,8,0:3:0:0:
16,111,229895,2,0,L|111:101,1,80,8|0,0:0|0:0,0:0:0:0:
247,226,230279,1,8,0:3:0:0:
193,113,230472,1,10,0:0:0:0:
74,353,230664,5,8,3:0:0:0:
109,264,230856,1,8,3:0:0:0:
54,184,231049,1,8,3:2:0:0:
74,353,231241,6,0,P|142:353|206:275,2,160,4|0|8,0:0|0:0|0:0,0:0:0:0:
370,26,232395,2,0,L|381:187,1,160,4|0,0:0|0:0,0:0:0:0:
276,85,232972,1,8,0:0:0:0:
471,129,233164,1,0,0:0:0:0:
335,275,233356,1,8,0:0:0:0:
335,275,233452,1,8,0:0:0:0:
335,275,233549,1,10,0:0:0:0:
258,169,233741,1,8,0:0:0:0:
317,359,233933,1,8,0:3:0:0:
453,213,234125,1,8,0:0:0:0:
317,359,234318,6,0,P|264:372|167:315,1,160,4|0,0:0|0:0,0:0:0:0:
258,169,234895,1,0,0:0:0:0:
163,109,235087,2,0,P|155:63|161:22,1,80,8|0,0:0|0:0,0:0:0:0:
400,135,235472,2,0,P|347:122|250:179,1,160,4|0,0:0|0:0,0:0:0:0:
157,366,236049,5,8,0:0:0:0:
157,366,236145,1,8,0:0:0:0:
157,366,236241,1,8,0:0:0:0:
70,191,236433,1,8,0:0:0:0:
256,280,236625,1,8,0:0:0:0:
41,344,236818,1,8,0:0:0:0:
196,148,237010,5,8,3:3:0:0:
144,63,237202,5,8,3:3:0:0:
8,23,237395,5,4,3:2:0:0:
256,192,237491,12,2,238933,0:0:0:0:
256,192,252779,5,8,0:3:0:0:
256,192,253164,1,8,0:3:0:0:
256,192,255856,5,8,0:3:0:0:
256,192,256241,1,8,0:3:0:0:
162,228,258933,6,0,L|157:162,1,60.0000022888184,4|0,0:0|0:0,0:0:0:0:
263,57,259318,2,0,L|258:123,1,60.0000022888184,8|0,0:0|0:0,0:0:0:0:
207,312,259702,2,0,P|177:321|137:322,1,60.0000022888184,8|0,0:0|0:0,0:0:0:0:
322,180,260087,2,0,P|351:182|380:190,1,60.0000022888184,8|0,0:0|0:0,0:0:0:0:
263,57,260472,2,0,P|234:65|204:67,1,60.0000022888184,8|0,0:0|0:0,0:0:0:0:
51,147,260856,2,0,P|80:149|109:157,1,60.0000022888184,8|0,0:0|0:0,0:0:0:0:
207,312,261241,1,8,0:0:0:0:
245,202,261433,1,8,0:0:0:0:
91,290,261625,1,8,0:3:0:0:
292,365,261818,1,8,0:3:0:0:
240,142,262010,6,0,L|246:219,1,60.0000022888184,12|0,0:0|0:0,0:0:0:0:
364,53,262395,2,0,L|358:130,1,60.0000022888184,8|0,0:0|0:0,0:0:0:0:
252,9,262779,1,8,0:0:0:0:
84,119,262972,1,8,0:0:0:0:
244,201,263164,1,8,0:3:0:0:
96,318,263356,1,8,0:0:0:0:
215,114,263549,5,12,0:0:0:0:
318,148,263741,1,8,3:3:0:0:
318,256,263933,1,8,3:3:0:0:
215,289,264125,1,8,3:3:0:0:
152,201,264318,1,8,3:3:0:0:
279,379,264510,6,0,B|310:344|318:255|318:255|323:291|350:317,1,200.000007629395,8|2,0:0|0:0,0:0:0:0:
351,319,265472,6,0,L|438:314,2,80
273,191,266625,6,0,P|213:211|129:161,1,160,4|0,1:2|0:0,0:0:0:0:
21,231,267201,1,0,0:0:0:0:
123,277,267394,2,0,P|113:317|115:358,1,80,8|0,0:0|0:0,0:0:0:0:
264,270,267778,2,0,P|274:230|272:189,1,80,0|8,0:0|0:3,0:0:0:0:
166,96,268163,1,8,0:3:0:0:
166,96,268355,1,0,0:0:0:0:
272,191,268548,2,0,P|300:164|319:129,1,80,8|0,0:3|0:0,0:0:0:0:
138,235,268932,2,0,P|147:273|168:307,1,80,10|0,0:0|0:0,0:0:0:0:
166,96,269317,2,0,P|128:85|89:86,1,80
36,149,269605,1,0,3:0:0:0:
36,149,269701,6,0,P|34:229|41:309,1,160,8|0,0:3|0:0,0:0:0:0:
328,302,270278,1,0,0:0:0:0:
328,302,270471,2,0,P|248:300|168:307,1,160,8|0,0:0|0:0,0:0:0:0:
249,46,271048,1,8,0:3:0:0:
193,161,271240,1,8,0:3:0:0:
113,60,271432,2,0,L|21:51,1,80,8|0,0:0|0:0,0:0:0:0:
193,161,271817,1,8,0:3:0:0:
44,260,272009,2,0,P|38:217|35:168,1,80,10|0,0:0|0:0,0:0:0:0:
267,291,272394,2,0,P|261:333|258:383,1,80,8|8,0:3|0:0,0:0:0:0:
44,260,272778,6,0,P|109:284|204:252,2,160,8|0|8,0:3|0:0|0:0,0:0:0:0:
115,94,273740,1,0,0:0:0:0:
115,94,273932,2,0,L|120:178,1,80,0|8,0:0|0:3,0:0:0:0:
274,14,274317,2,0,L|270:94,1,80,8|0,0:3|0:0,0:0:0:0:
335,179,274701,2,0,P|299:196|255:202,1,80
362,290,275086,1,10,0:0:0:0:
362,290,275278,1,0,0:0:0:0:
418,100,275471,1,0,0:0:0:0:
418,100,275663,1,0,0:0:0:0:
226,101,275855,6,0,P|270:177|357:165,1,160,4|8,0:0|0:3,0:0:0:0:
418,100,276432,1,0,0:0:0:0:
269,32,276625,2,0,P|181:32|148:113,1,160,12|8,0:0|0:3,0:0:0:0:
212,176,277201,1,0,0:0:0:0:
99,302,277394,1,8,0:3:0:0:
44,204,277586,2,0,P|89:209|135:211,1,80,8|0,0:0|0:0,0:0:0:0:
334,178,277971,1,8,0:3:0:0:
240,81,278163,1,8,0:3:0:0:
432,27,278355,1,8,0:3:0:0:
334,178,278548,2,0,P|339:133|341:87,1,80,8|0,0:0|0:0,0:0:0:0:
311,340,278932,6,0,P|279:275|187:256,2,160,4|0|8,1:2|0:0|0:0,0:0:0:0:
311,340,279894,1,0,0:0:0:0:
422,186,280086,2,0,L|415:271,1,80,0|8,0:0|0:3,0:0:0:0:
324,54,280471,2,0,P|266:79|166:68,1,160,8|0,0:3|0:0,0:0:0:0:
30,142,281048,1,0,0:0:0:0:
30,142,281240,2,0,P|71:126|121:126,1,80,10|0,0:0|0:0,0:0:0:0:
222,300,281625,2,0,P|182:297|145:281,1,80
208,207,281913,1,0,3:0:0:0:
208,207,282009,6,0,P|269:158|351:179,1,160,8|0,0:3|0:0,0:0:0:0:
158,370,282586,1,0,0:0:0:0:
158,370,282778,2,0,P|85:341|62:260,1,160,8|0,0:0|0:0,0:0:0:0:
187,54,283355,1,8,0:3:0:0:
39,144,283548,1,8,0:3:0:0:
208,207,283740,2,0,L|303:197,1,80,8|0,0:0|0:0,0:0:0:0:
326,17,284125,1,8,0:3:0:0:
187,54,284317,2,0,L|92:44,1,80,8|8,0:0|3:3,0:0:0:0:
326,17,284701,1,8,3:0:0:0:
287,198,284894,1,8,3:0:0:0:
34,282,285086,6,0,P|109:269|198:278,2,160,4|0|8,0:0|0:0|0:0,0:0:0:0:
143,174,286048,1,0,0:0:0:0:
214,352,286240,2,0,P|206:309|188:269,1,80
364,38,286625,1,8,0:3:0:0:
312,132,286817,2,0,P|296:168|289:208,2,80,8|0|0,0:0|0:0|0:0,0:0:0:0:
167,19,287394,1,10,0:0:0:0:
312,132,287586,1,8,0:0:0:0:
141,201,287778,1,8,0:3:0:0:
306,308,287971,1,8,0:0:0:0:
306,308,288163,6,0,B|388:283|382:347|474:313,2,160,4|0|8,0:0|0:0|0:0,0:0:0:0:
225,229,289125,1,0,0:0:0:0:
294,141,289317,1,0,0:0:0:0:
240,42,289509,1,8,0:0:0:0:
240,42,289605,1,8,0:0:0:0:
240,42,289701,2,0,P|171:64|73:52,2,160,8|0|0,0:3|0:0|0:0,0:0:0:0:
470,248,290855,1,0,0:0:0:0:
405,199,291048,1,0,0:0:0:0:
338,248,291240,6,0,P|286:272|215:259,2,120,8|0|0,0:3|0:0|0:0,0:0:0:0:
285,60,292394,1,0,0:0:0:0:
285,60,292586,1,0,0:0:0:0:
285,60,292778,2,0,L|273:183,2,120.000004577637,2|2|2,0:3|0:3|0:0,0:0:0:0:
34,180,293932,1,0,0:0:0:0:
34,180,294317,6,0,L|22:57,2,120.000004577637,8|0|0,0:3|0:0|0:0,0:0:0:0:
83,340,295471,1,0,0:0:0:0:
154,296,295663,1,0,0:0:0:0:
229,331,295855,2,0,P|268:340|349:310,2,120.000004577637,2|0|0,0:0|0:0|0:0,0:0:0:0:
365,232,297009,1,0,0:0:0:0:
206,130,297394,6,0,P|198:67|219:15,1,120.000004577637,8|0,0:3|0:0,0:0:0:0:
218,15,297971,1,0,0:0:0:0:
361,88,298355,1,0,0:0:0:0:
361,88,298548,1,0,0:0:0:0:
512,6,298932,2,0,L|501:134,2,120.000004577637,2|2|2,0:3|0:3|0:0,0:0:0:0:
491,211,300086,1,0,0:0:0:0:
342,108,300471,5,8,0:3:0:0:
342,108,302009,5,2,0:3:0:0:
342,108,303548,5,2,0:0:0:0:
256,192,306112,12,0,315086,0:0:0:0:
