osu file format v14

[General]
AudioFilename: audio.mp3
AudioLeadIn: 0
PreviewTime: 38221
Countdown: 0
SampleSet: Soft
StackLeniency: 0.7
Mode: 0
LetterboxInBreaks: 0
WidescreenStoryboard: 0

[Editor]
DistanceSpacing: 1.5
BeatDivisor: 4
GridSize: 32
TimelineZoom: 1.6

[Metadata]
Title:Shiny Sky Memories
TitleUnicode:Shiny Sky Memories
Artist:Rinne Berlinetta (CV: Ogura Yui)
ArtistUnicode:リンネ・ベルリネッタ (CV: 小倉唯)
Creator:Yuuma
Version:Rinne
Source:ViVid Strike!
Tags:kokezigoku little CloudSplash16 魔法少女リリカルなのは mahou shoujo lyrical nanoha magical girl Summer Time Vacance Songs japanese anime
BeatmapID:2028119
BeatmapSetID:969377

[Difficulty]
HPDrainRate:6
CircleSize:4
OverallDifficulty:7.2
ApproachRate:8.2
SliderMultiplier:1.7
SliderTickRate:1

[Events]
//Background and Video events
0,0,"rinne.jpg",0,0
//Break Periods
//Storyboard Layer 0 (Background)
//Storyboard Layer 1 (Fail)
//Storyboard Layer 2 (Pass)
//Storyboard Layer 3 (Foreground)
//Storyboard Sound Samples

[TimingPoints]
621,400,4,2,1,80,1,0
621,-100,4,2,1,60,0,0
13421,-125,4,2,1,50,0,0
24621,-125,4,2,1,60,0,0
26221,-142.857142857143,4,2,1,50,0,0
32621,-111.111111111111,4,2,1,50,0,0
39021,-100,4,2,1,80,0,1
41621,-100,4,2,22,80,0,1
42021,-100,4,2,1,80,0,1
44821,-100,4,2,22,80,0,1
45221,-100,4,2,1,80,0,1
48021,-100,4,2,22,80,0,1
48621,-100,4,2,1,80,0,1
54421,-100,4,2,22,80,0,1
54821,-100,4,2,1,80,0,1
57621,-100,4,2,22,80,0,1
58021,-100,4,2,1,80,0,1
66221,-100,4,2,1,80,0,0
67821,-100,4,2,1,80,0,1
73621,-100,4,2,22,80,0,1
74021,-100,4,2,1,80,0,1
80021,-100,4,2,22,80,0,1
80621,-100,4,2,1,80,0,0
91821,-100,4,2,1,10,0,0

[Colours]
Combo1 : 160,231,75
Combo2 : 240,112,190
Combo3 : 240,225,40

[HitObjects]
33,227,621,6,0,P|112:250|180:204,1,170,6|10,0:0|0:0,0:0:0:0:
265,146,1221,2,0,L|278:229,1,85,2|0,0:0|0:0,0:0:0:0:
98,143,1621,2,0,L|111:59,1,85,2|8,0:0|0:0,0:0:0:0:
180,204,2021,1,2,0:0:0:0:
325,92,2221,6,0,P|248:65|186:117,1,170,2|8,0:0|0:0,0:0:0:0:
278,229,2821,1,0,0:0:0:0:
422,207,3021,1,0,0:0:0:0:
265,146,3221,1,8,0:0:0:0:
291,312,3421,2,0,P|331:325|373:325,1,85,10|0,0:0|0:0,0:0:0:0:
278,229,3821,6,0,B|182:196|208:266|113:236,1,170,2|10,0:0|0:0,0:0:0:0:
10,162,4421,1,0,0:0:0:0:
113,87,4621,2,0,B|209:54|183:124|278:94,1,170,2|8,0:0|0:0,0:0:0:0:
402,68,5221,1,2,0:0:0:0:
500,206,5421,6,0,P|425:237|361:189,1,170,2|8,0:0|0:0,0:0:0:0:
433,61,6021,1,2,0:0:0:0:
433,61,6121,1,2,0:0:0:0:
433,61,6221,2,0,P|444:103|438:145,1,85,2|0,0:0|0:0,0:0:0:0:
276,193,6621,2,0,P|318:182|360:188,1,85,8|0,0:0|0:0,0:0:0:0:
326,318,7021,6,0,P|248:285|165:270,1,170,2|8,0:0|0:0,0:0:0:0:
106,182,7621,1,2,0:0:0:0:
276,193,7821,1,2,0:0:0:0:
59,277,8021,1,2,0:0:0:0:
153,87,8221,1,10,0:0:0:0:
165,270,8421,6,0,L|154:357,1,85,2|0,0:0|0:0,0:0:0:0:
276,193,8821,2,0,L|265:108,1,85,2|8,0:0|0:0,0:0:0:0:
387,270,9221,2,0,L|376:354,1,85,2|0,0:0|0:0,0:0:0:0:
498,193,9621,1,10,0:0:0:0:
375,135,9821,1,10,0:0:0:0:
486,58,10021,1,2,0:0:0:0:
387,270,10221,6,0,P|316:228|237:250,1,170,2|10,0:0|0:0,0:0:0:0:
150,344,10821,1,2,0:0:0:0:
7,231,11021,2,0,P|46:216|88:216,1,85
236,249,11421,1,8,0:0:0:0:
62,315,11621,1,0,0:0:0:0:
23,332,12021,5,6,0:0:0:0:
236,249,12221,2,0,P|296:230|360:229,1,127.5,6|0,0:0|0:0,0:0:0:0:
401,243,12621,5,6,0:0:0:0:
187,159,12821,2,0,P|107:132|25:151,1,170,6|0,0:0|3:0,0:0:0:0:
25,150,13421,6,0,P|45:214|48:282,1,136,6|8,0:0|0:0,0:0:0:0:
92,373,14021,1,0,0:0:0:0:
213,283,14221,2,0,P|179:281|146:290,1,68,2|0,0:0|0:0,0:0:0:0:
190,379,14621,1,8,0:0:0:0:
309,306,14821,1,0,0:0:0:0:
309,306,14921,1,0,0:0:0:0:
309,306,15021,6,0,L|297:231,1,68,2|0,0:0|0:0,0:0:0:0:
222,111,15421,2,0,L|211:178,1,68,8|0,0:0|0:0,0:0:0:0:
374,170,15821,1,2,0:0:0:0:
374,170,16021,1,0,0:0:0:0:
285,32,16221,1,8,0:0:0:0:
285,32,16421,1,0,0:0:0:0:
210,178,16621,6,0,L|143:189,1,68,2|0,0:0|0:0,0:0:0:0:
38,102,17021,2,0,L|105:113,1,68,8|0,0:0|0:0,0:0:0:0:
136,273,17421,2,0,P|75:246|57:183,1,136,2|8,0:0|0:0,0:0:0:0:
187,119,18021,1,0,0:0:0:0:
326,158,18221,6,0,P|331:191|324:224,1,68,2|0,0:0|0:0,0:0:0:0:
290,347,18621,2,0,P|323:352|356:345,1,68,8|0,0:0|0:0,0:0:0:0:
471,300,19021,1,2,0:0:0:0:
471,300,19221,1,0,0:0:0:0:
325,225,19421,1,8,0:0:0:0:
325,225,19621,1,0,0:0:0:0:
460,82,19821,6,0,L|471:150,1,68,2|0,0:0|0:0,0:0:0:0:
325,225,20221,2,0,L|335:157,1,68,8|0,0:0|0:0,0:0:0:0:
189,82,20621,2,0,L|199:149,1,68,2|0,0:0|0:0,0:0:0:0:
53,224,21021,2,0,L|63:156,1,68,8|0,0:0|0:0,0:0:0:0:
130,289,21421,6,0,P|76:326|10:316,1,136,2|8,0:0|0:0,0:0:0:0:
137,203,22021,2,0,P|170:212|198:232,1,68,0|2,0:0|0:0,0:0:0:0:
235,332,22421,1,0,0:0:0:0:
295,184,22621,2,0,L|304:251,1,68,8|0,0:0|0:0,0:0:0:0:
385,331,23021,6,0,L|403:196,1,136,2|8,0:0|0:0,0:0:0:0:
416,95,23621,1,0,0:0:0:0:
295,184,23821,2,0,L|286:117,1,68,2|0,0:0|0:0,0:0:0:0:
425,27,24221,2,0,L|416:94,1,68,8|0,0:0|0:0,0:0:0:0:
272,42,24621,5,2,0:0:0:0:
491,165,25021,1,14,0:0:0:0:
270,289,25421,2,0,P|239:301|205:300,1,68,2|0,0:0|0:0,0:0:0:0:
99,256,25821,1,14,0:0:0:0:
82,257,25921,1,0,0:0:0:0:
65,259,26021,1,0,0:0:0:0:
194,188,26221,6,0,P|215:243|205:301,1,118.999996368408
311,236,26821,1,0,3:0:0:0:
311,236,27021,2,0,P|300:178|321:123,1,118.999996368408,8|0,0:0|0:0,0:0:0:0:
430,68,27621,1,0,3:0:0:0:
430,68,28021,5,0,3:0:0:0:
390,187,28221,1,0,0:0:0:0:
327,1,28421,1,0,3:0:0:0:
234,87,28621,5,8,0:0:0:0:
510,163,28921,5,8,0:0:0:0:
232,232,29221,5,8,0:0:0:0:
130,167,29421,6,0,P|72:155|22:185,1,118.999996368408
51,346,30021,1,0,3:0:0:0:
51,346,30221,2,0,P|108:357|158:327,1,118.999996368408,8|0,0:0|0:0,0:0:0:0:
232,232,30821,1,0,3:0:0:0:
232,232,31221,5,0,3:0:0:0:
92,262,31421,1,0,0:0:0:0:
240,336,31621,1,0,3:0:0:0:
397,228,31821,6,0,P|367:224|338:230,1,59.4999981842042,12|0,0:0|3:0,0:0:0:0:
370,354,32221,2,0,P|399:357|428:351,1,59.4999981842042,8|0,0:0|3:0,0:0:0:0:
498,206,32621,6,0,L|506:46,1,152.999995330811,6|8,0:0|0:0,0:0:0:0:
365,39,33221,1,0,0:0:0:0:
339,170,33421,2,0,P|377:171|413:161,1,76.4999976654053,2|0,0:0|0:0,0:0:0:0:
365,39,33821,2,0,P|326:37|290:47,1,76.4999976654053,8|0,0:0|0:0,0:0:0:0:
193,104,34221,6,0,B|225:187|167:171|191:252,1,152.999995330811,2|8,0:0|0:0,0:0:0:0:
239,350,34821,2,0,P|201:362|162:361,1,76.4999976654053
276,219,35221,1,0,0:0:0:0:
119,141,35421,1,10,0:0:0:0:
119,141,35521,1,2,0:0:0:0:
119,141,35621,1,2,0:0:0:0:
290,108,35821,6,0,P|354:72|425:95,1,152.999995330811,2|8,0:0|0:0,0:0:0:0:
366,196,36421,1,0,3:0:0:0:
101,96,36821,1,0,3:0:0:0:
213,200,37021,1,8,0:0:0:0:
199,0,37221,1,4,0:0:0:0:
63,244,37621,5,4,3:2:0:0:
66,262,37721,1,0,3:0:0:0:
69,281,37821,1,0,3:0:0:0:
72,300,37921,1,0,3:0:0:0:
75,319,38021,1,4,3:2:0:0:
206,237,38221,5,8,0:0:0:0:
206,237,38321,1,8,0:0:0:0:
206,237,38421,2,0,L|246:225,1,38.2499988327027,8|8,0:0|0:0,0:0:0:0:
368,179,38621,2,0,L|331:168,1,38.2499988327027,8|8,0:0|0:0,0:0:0:0:
206,121,38821,1,2,0:0:0:0:
409,60,39021,5,4,0:0:0:0:
285,14,39221,1,0,0:0:0:0:
331,168,39421,1,8,0:0:0:0:
493,52,39621,2,0,P|450:49|410:60,1,85,2|0,0:0|0:0,0:0:0:0:
287,95,40021,1,0,0:0:0:0:
463,181,40221,1,8,0:0:0:0:
340,243,40421,6,0,P|299:254|257:251,1,85,2|0,0:0|0:0,0:0:0:0:
142,172,40821,1,0,0:0:0:0:
286,97,41021,1,8,0:0:0:0:
136,256,41221,2,0,L|142:171,1,85,2|0,0:0|0:0,0:0:0:0:
211,68,41621,1,10,0:0:0:0:
211,68,41821,1,8,0:0:0:0:
255,222,42021,6,0,L|261:306,1,85,2|0,0:0|0:0,0:0:0:0:
370,162,42421,1,0,0:0:0:0:
260,92,42621,1,8,0:0:0:0:
337,257,42821,2,0,P|378:262|418:248,1,85,2|0,0:0|0:0,0:0:0:0:
455,114,43221,1,0,0:0:0:0:
503,199,43421,1,8,0:0:0:0:
368,161,43621,6,0,P|286:167|238:234,1,170,2|0,0:0|0:0,0:0:0:0:
185,324,44221,1,8,0:0:0:0:
125,149,44421,2,0,P|133:247|132:257,1,85,2|0,0:0|0:0,0:0:0:0:
81,323,44821,1,8,0:0:0:0:
81,323,45021,1,8,0:0:0:0:
237,234,45221,1,0,0:0:0:0:
33,203,45421,6,0,P|39:118|55:34,1,170,2|8,0:0|0:0,0:0:0:0:
125,149,46021,1,0,0:0:0:0:
190,31,46221,2,0,P|229:15|272:13,1,85,2|0,0:0|0:0,0:0:0:0:
259,145,46621,1,8,0:0:0:0:
407,72,46821,6,0,P|420:152|415:178,1,85,2|0,0:0|0:0,0:0:0:0:
305,273,47221,1,0,0:0:0:0:
459,227,47421,1,8,0:0:0:0:
338,121,47621,2,0,P|295:125|258:145,1,85,2|0,0:0|0:0,0:0:0:0:
112,214,48021,1,8,0:0:0:0:
305,273,48221,1,8,0:0:0:0:
305,273,48621,6,0,L|315:357,1,85,4|0,0:0|0:0,0:0:0:0:
101,298,49021,2,0,L|111:214,1,85,10|0,0:0|0:0,0:0:0:0:
305,154,49421,2,0,L|315:238,1,85,2|0,0:0|0:0,0:0:0:0:
101,179,49821,1,10,0:0:0:0:
315,119,50021,5,14,0:0:0:0:
37,47,50421,1,14,0:0:0:0:
114,324,50821,1,14,0:0:0:0:
186,46,51221,1,14,0:0:0:0:
221,184,51421,2,0,P|229:206|231:226,3,42.5,2|0|0|0,0:0|0:0|0:0|0:0,0:0:0:0:
239,268,51821,5,6,0:0:0:0:
147,143,52021,1,0,0:0:0:0:
277,117,52221,1,8,0:0:0:0:
155,226,52421,2,0,P|111:238|67:234,1,85,2|0,0:0|0:0,0:0:0:0:
161,320,52821,1,0,0:0:0:0:
220,159,53021,1,8,0:0:0:0:
329,290,53221,6,0,P|332:332|322:373,1,85,2|0,0:0|0:0,0:0:0:0:
253,234,53621,1,0,0:0:0:0:
399,225,53821,1,8,0:0:0:0:
247,318,54021,2,0,P|243:275|253:234,1,85,2|0,0:0|0:0,0:0:0:0:
318,104,54421,1,8,0:0:0:0:
318,104,54621,1,8,0:0:0:0:
399,225,54821,6,0,P|402:182|392:141,1,85,2|0,0:0|0:0,0:0:0:0:
328,11,55221,1,0,0:0:0:0:
466,104,55421,1,8,0:0:0:0:
318,188,55621,2,0,P|276:197|234:194,1,85,2|0,0:0|0:0,0:0:0:0:
114,131,56021,1,0,0:0:0:0:
269,99,56221,1,8,0:0:0:0:
114,131,56421,6,0,L|99:214,1,85,2|0,0:0|0:0,0:0:0:0:
249,277,56821,1,0,0:0:0:0:
84,328,57021,1,8,0:0:0:0:
249,277,57221,2,0,L|234:194,1,85,2|0,0:0|0:0,0:0:0:0:
205,41,57621,1,8,0:0:0:0:
205,41,57821,1,8,0:0:0:0:
372,8,58021,6,0,P|361:50|356:92,1,85,2|0,0:0|0:0,0:0:0:0:
361,200,58421,1,0,0:0:0:0:
452,141,58621,1,8,0:0:0:0:
249,67,58821,2,0,P|260:107|264:150,1,85,2|0,0:0|0:0,0:0:0:0:
214,247,59221,1,0,0:0:0:0:
361,200,59421,1,8,0:0:0:0:
155,156,59620,1,0,0:0:0:0:
356,91,59821,5,2,0:0:0:0:
311,297,60021,1,0,0:0:0:0:
270,130,60221,1,8,0:0:0:0:
414,182,60421,2,0,P|468:193|500:192,1,85,2|0,0:0|0:0,0:0:0:0:
421,292,60821,1,0,0:0:0:0:
251,205,61021,2,0,P|208:205|167:215,1,85,10|0,0:0|0:0,0:0:0:0:
62,290,61421,6,0,P|146:294|223:330,1,170,6|8,0:0|0:0,0:0:0:0:
344,293,62021,1,0,0:0:0:0:
238,120,62221,2,0,P|240:162|250:203,1,85,2|0,0:0|0:0,0:0:0:0:
451,197,62621,2,0,P|413:177|373:165,1,85,8|0,0:0|0:0,0:0:0:0:
277,345,63021,6,0,P|312:322|342:293,1,85,2|0,0:0|0:0,0:0:0:0:
238,120,63421,2,0,P|196:113|153:116,1,85,8|0,0:0|0:0,0:0:0:0:
115,134,63721,1,0,0:0:0:0:
115,134,63821,2,0,P|101:202|89:287,1,127.5,2|2,0:0|0:0,0:0:0:0:
102,301,64221,1,8,0:0:0:0:
193,193,64421,1,2,0:0:0:0:
320,301,64621,6,0,P|282:320|240:325,1,85,6|0,0:0|0:0,0:0:0:0:
92,259,65021,1,8,0:0:0:0:
254,223,65221,1,0,0:0:0:0:
115,134,65421,2,0,P|74:135|31:123,1,85,2|0,0:0|0:0,0:0:0:0:
227,35,65821,2,0,P|237:77|238:120,1,85,8|0,0:0|0:0,0:0:0:0:
226,304,66221,5,6,0:0:0:0:
346,177,66421,2,0,P|370:142|381:98,1,85,6|0,0:0|3:0,0:0:0:0:
344,280,66821,2,0,P|361:318|394:349,1,85,6|0,0:0|3:0,0:0:0:0:
256,226,67221,2,0,P|214:222|170:235,1,85,6|0,0:0|3:0,0:0:0:0:
52,292,67621,1,0,3:0:0:0:
42,296,67721,1,0,3:0:0:0:
32,301,67821,5,6,0:0:0:0:
225,354,68021,1,0,0:0:0:0:
22,306,68221,1,8,0:0:0:0:
173,233,68421,2,0,P|177:191|164:147,1,85,2|0,0:0|0:0,0:0:0:0:
110,53,68821,1,0,0:0:0:0:
62,204,69021,1,8,0:0:0:0:
222,54,69221,6,0,B|318:12|302:78|391:37,1,170,2|0,0:0|0:0,0:0:0:0:
486,110,69821,1,8,0:0:0:0:
375,162,70021,1,2,0:0:0:0:
461,315,70221,2,0,P|474:274|474:232,1,85
375,162,70621,2,0,P|361:202|361:244,1,85,8|0,0:0|0:0,0:0:0:0:
259,314,71021,6,0,P|222:333|181:334,1,85,2|0,0:0|0:0,0:0:0:0:
137,168,71421,2,0,P|173:191|195:228,1,85,10|0,0:0|0:0,0:0:0:0:
75,346,71821,2,0,P|77:304|98:268,1,85,2|0,0:0|0:0,0:0:0:0:
259,314,72221,1,8,0:0:0:0:
318,129,72421,6,0,P|276:123|234:133,1,85,2|0,0:0|0:0,0:0:0:0:
44,189,72821,1,2,0:0:0:0:
194,226,73021,1,8,0:0:0:0:
149,67,73221,2,0,P|133:106|133:149,1,85,2|0,0:0|0:0,0:0:0:0:
283,223,73621,1,8,0:0:0:0:
94,270,73821,1,8,0:0:0:0:
252,328,74021,1,2,0:0:0:0:
252,328,74121,1,0,0:0:0:0:
252,328,74221,5,4,0:0:0:0:
194,226,74421,1,0,0:0:0:0:
152,372,74621,1,8,0:0:0:0:
303,217,74821,2,0,P|342:201|388:204,1,85,2|0,0:0|0:0,0:0:0:0:
475,259,75221,1,0,0:0:0:0:
361,305,75421,1,8,0:0:0:0:
475,259,75621,6,0,P|491:219|489:177,1,85,2|0,0:0|0:0,0:0:0:0:
424,55,76021,1,0,0:0:0:0:
384,202,76221,1,8,0:0:0:0:
342,70,76421,2,0,P|381:55|424:55,1,85,2|0,0:0|0:0,0:0:0:0:
281,200,76821,2,0,P|238:200|198:185,1,85,2|8,0:0|0:0,0:0:0:0:
87,125,77221,1,2,0:0:0:0:
260,74,77421,5,0,0:0:0:0:
217,249,77621,1,0,0:0:0:0:
42,206,77821,1,8,0:0:0:0:
167,76,78021,2,0,P|177:117|173:159,1,85,2|0,0:0|0:0,0:0:0:0:
147,295,78421,1,0,0:0:0:0:
87,125,78621,1,8,0:0:0:0:
263,141,78821,6,0,B|359:108|333:178|426:149,1,170,2|2,0:0|0:0,0:0:0:0:
511,197,79421,1,8,0:0:0:0:
373,313,79621,2,0,P|372:273|384:230,1,85,2|0,0:0|0:0,0:0:0:0:
418,104,80021,1,10,0:0:0:0:
468,284,80221,1,10,0:0:0:0:
165,237,80621,5,14,0:0:0:0:
230,153,80821,1,0,0:0:0:0:
206,336,81021,1,0,0:0:0:0:
58,222,81221,2,0,P|103:207|158:208,1,85,8|0,0:0|0:0,0:0:0:0:
250,250,81621,1,0,0:0:0:0:
116,383,81821,6,0,P|107:341|111:299,1,85,12|0,0:0|0:0,0:0:0:0:
139,101,82221,1,0,0:0:0:0:
250,250,82421,2,0,P|258:208|254:166,1,85,12|0,0:0|0:0,0:0:0:0:
253,34,82821,1,0,0:0:0:0:
140,205,83021,5,12,0:0:0:0:
368,99,83221,1,0,0:0:0:0:
204,44,83421,1,12,0:0:0:0:
204,44,83521,1,0,0:0:0:0:
204,44,83621,1,0,0:0:0:0:
250,250,83821,5,14,0:0:0:0:
289,133,84021,1,0,0:0:0:0:
331,342,84221,1,0,0:0:0:0:
129,273,84421,2,0,P|52:263|21:267,1,85,12|0,0:0|0:0,0:0:0:0:
169,156,84821,1,0,0:0:0:0:
210,367,85021,6,0,P|252:366|293:357,1,85,12|0,0:0|0:0,0:0:0:0:
421,316,85421,1,0,0:0:0:0:
250,250,85621,1,12,0:0:0:0:
329,161,85821,1,0,0:0:0:0:
293,356,86021,1,0,3:0:0:0:
142,227,86221,5,12,0:0:0:0:
366,272,86421,1,0,0:0:0:0:
386,277,86521,1,0,0:0:0:0:
407,282,86621,2,0,L|418:229,1,42.5,12|0,0:0|0:0,0:0:0:0:
502,146,86821,2,0,L|510:187,1,42.5
404,117,87021,6,0,P|338:109|260:119,1,127.5,6|0,0:0|0:0,0:0:0:0:
238,133,87421,1,8,0:0:0:0:
415,240,87621,1,6,0:0:0:0:
38,183,88221,5,12,0:0:0:0:
286,333,88621,5,8,0:0:0:0:
238,133,88821,1,6,0:0:0:0:
256,192,88921,12,0,91821,0:0:0:0:
