osu file format v14

[General]
AudioFilename: audio.mp3
AudioLeadIn: 0
PreviewTime: 38221
Countdown: 0
SampleSet: Soft
StackLeniency: 0.7
Mode: 0
LetterboxInBreaks: 0
WidescreenStoryboard: 0

[Editor]
Bookmarks: 7635
DistanceSpacing: 1
BeatDivisor: 4
GridSize: 4
TimelineZoom: 1.7

[Metadata]
Title:Shiny Sky Memories
TitleUnicode:Shiny Sky Memories
Artist:Rinne Berlinetta (CV: Ogura Yui)
ArtistUnicode:リンネ・ベルリネッタ (CV: 小倉唯)
Creator:Yuuma
Version:Little's Normal
Source:ViVid Strike!
Tags:kokezigoku little CloudSplash16 魔法少女リリカルなのは mahou shoujo lyrical nanoha magical girl Summer Time Vacance Songs japanese anime
BeatmapID:2040114
BeatmapSetID:969377

[Difficulty]
HPDrainRate:4
CircleSize:3.5
OverallDifficulty:4.5
ApproachRate:5.5
SliderMultiplier:1.05
SliderTickRate:1

[Events]
//Background and Video events
0,0,"rinne.jpg",0,0
//Break Periods
//Storyboard Layer 0 (Background)
//Storyboard Layer 1 (Fail)
//Storyboard Layer 2 (Pass)
//Storyboard Layer 3 (Foreground)
//Storyboard Sound Samples

[TimingPoints]
621,400,4,2,16,70,1,0
13421,-100,4,2,16,60,0,0
24621,-100,4,2,16,80,0,0
26221,-100,4,2,16,70,0,0
32621,-100,4,2,16,75,0,0
39021,-100,4,2,16,80,0,1
67221,-100,4,2,16,80,0,0
67821,-100,4,2,16,80,0,1
70221,-100,4,2,16,70,0,1
73621,-100,4,2,16,80,0,1
76621,-100,4,2,16,70,0,1
80021,-100,4,2,16,80,0,1
80621,-100,4,2,16,70,0,0
83821,-100,4,2,16,75,0,0
87021,-100,4,2,16,80,0,0
89021,-100,4,2,16,70,0,0
91821,-100,4,2,16,30,0,0

[Colours]
Combo1 : 160,231,75
Combo2 : 240,112,190
Combo3 : 240,225,40

[HitObjects]
256,288,621,6,0,L|270:184,2,105,4|8|0,0:0|0:0|0:0,0:0:0:0:
344,344,1821,1,8,0:0:0:0:
436,296,2221,6,0,P|452:246|440:196,1,105,2|8,0:0|0:0,0:0:0:0:
348,144,3021,2,0,L|296:136,2,52.5,0|8|8,0:0|0:1|0:1,0:0:0:0:
380,44,3821,6,0,P|330:27|280:39,1,105,2|8,0:0|0:0,0:0:0:0:
231,60,4421,1,2,0:0:0:0:
231,60,4621,2,0,P|180:71|131:55,1,105,2|8,0:0|0:0,0:0:0:0:
36,100,5421,6,0,L|50:203,1,105,2|8,0:0|0:0,0:0:0:0:
92,236,6021,1,2,0:0:0:0:
92,236,6221,2,0,L|106:339,1,105,2|8,0:0|0:0,0:0:0:0:
212,356,7021,6,0,P|261:339|311:351,1,105,2|8,0:0|0:0,0:0:0:0:
416,364,7821,2,0,P|441:358|464:345,1,52.5,2|0,0:0|0:0,0:0:0:0:
496,304,8221,1,8,0:0:0:0:
496,304,8421,6,0,L|510:200,2,105,2|2|2,0:0|0:0|0:0,0:0:0:0:
396,336,9621,1,8,0:1:0:0:
396,336,9821,2,0,P|370:330|347:317,1,52.5,8|0,0:1|0:0,0:0:0:0:
304,288,10221,6,0,P|254:271|204:283,1,105,2|8,0:0|0:0,0:0:0:0:
155,304,10821,2,0,P|104:315|55:299,1,105,2|2,0:0|0:0,0:0:0:0:
16,264,11421,1,8,0:0:0:0:
72,116,12021,5,4,0:0:0:0:
72,116,12221,1,4,0:0:0:0:
109,215,12621,1,4,0:0:0:0:
109,215,12821,1,4,0:0:0:0:
20,344,13421,6,0,P|67:323|119:330,1,105,4|0,0:0|0:0,0:0:0:0:
220,360,14221,2,0,P|270:371|320:354,1,105,2|0,0:0|0:0,0:0:0:0:
360,320,14821,1,2,0:0:0:0:
360,320,15021,6,0,L|374:216,1,105,2|0,0:0|0:0,0:0:0:0:
392,112,15821,1,2,0:0:0:0:
292,148,16221,1,0,0:0:0:0:
196,104,16621,6,0,P|145:92|95:109,1,105,2|0,0:0|0:0,0:0:0:0:
36,196,17421,1,2,0:0:0:0:
128,248,17821,2,0,P|154:250|180:245,1,52.5,0|2,0:0|0:0,0:0:0:0:
228,228,18221,6,0,L|213:331,1,105,2|0,0:0|0:0,0:0:0:0:
312,372,19021,2,0,L|326:268,1,105,2|0,0:0|0:3,0:3:0:0:
344,164,19821,5,2,0:0:0:0:
426,231,20221,1,0,0:0:0:0:
493,149,20621,1,2,0:0:0:0:
411,82,21021,1,0,0:0:0:0:
344,164,21421,6,0,P|292:176|243:160,1,105,2|0,0:0|0:0,0:0:0:0:
196,134,22021,2,0,P|146:118|95:130,1,105,2|0,0:0|0:0,0:0:0:0:
54,162,22621,1,2,0:0:0:0:
88,260,23021,6,0,P|137:275|188:263,1,105,2|0,0:0|0:0,0:0:0:0:
276,204,23821,2,0,L|327:211,2,52.5,2|0|2,0:0|0:0|0:0,0:0:0:0:
196,134,24621,5,2,0:3:0:0:
288,84,25021,2,0,P|336:103|387:96,1,105,4|2,0:0|0:0,0:0:0:0:
488,60,25821,1,2,0:3:0:0:
488,60,26221,6,0,B|479:119|479:119|488:140|488:140|478:214,1,157.5,4|4,0:3|0:3,0:0:0:0:
452,260,27021,2,0,P|402:275|351:263,1,105,8|0,0:0|0:0,0:0:0:0:
304,240,27621,1,4,0:3:0:0:
208,280,28021,6,0,L|200:331,1,52.5,4|2,0:3|0:0,0:0:0:0:
96,344,28621,2,0,L|81:241,1,105,8|2,0:0|0:3,0:0:0:0:
144,156,29421,6,0,P|194:173|244:161,1,105,4|0,0:3|0:0,0:0:0:0:
292,140,30021,1,4,0:3:0:0:
292,140,30221,2,0,P|341:124|392:136,1,105,8|0,0:0|0:0,0:0:0:0:
436,164,30821,1,4,0:3:0:0:
376,252,31221,6,0,P|350:258|324:258,1,52.5,4|2,0:3|0:0,0:0:0:0:
272,252,31621,1,4,0:3:0:0:
272,252,31821,2,0,P|281:303|263:351,1,105,8|2,0:0|0:3,0:0:0:0:
216,372,32421,1,0,0:0:0:0:
216,372,32621,6,0,L|112:357,1,105,4|8,0:0|0:0,0:0:0:0:
8,340,33421,1,2,0:0:0:0:
76,260,33821,1,8,0:0:0:0:
8,180,34221,6,0,P|-1:128|16:80,1,105,2|8,0:0|0:0,0:0:0:0:
60,52,34821,2,0,L|163:37,1,105,2|2,0:0|0:0,0:0:0:0:
216,32,35421,1,8,0:0:0:0:
292,104,35821,6,0,P|340:121|391:112,1,105,4|2,0:0|0:0,0:0:0:0:
440,92,36421,1,4,0:3:0:0:
512,168,36821,1,4,0:3:0:0:
482,268,37221,5,12,0:0:0:0:
380,292,37621,1,12,0:0:0:0:
410,191,38021,1,12,0:0:0:0:
307,215,38421,1,8,0:1:0:0:
307,215,38621,2,0,L|255:207,1,52.5,8|2,0:1|0:0,0:0:0:0:
204,220,39021,6,0,P|155:237|104:228,1,105,4|8,0:0|0:0,0:0:0:0:
60,200,39621,2,0,P|53:147|53:95,1,105,2|0,0:0|0:0,0:0:0:0:
76,48,40221,1,8,0:0:0:0:
76,48,40421,6,0,P|124:30|175:39,1,105,2|2,0:0|0:0,0:0:0:0:
224,64,41021,1,8,0:0:0:0:
224,64,41221,1,2,0:3:0:0:
324,96,41621,1,8,0:1:0:0:
324,96,41821,2,0,P|349:92|373:81,1,52.5,8|2,0:1|0:0,0:0:0:0:
424,64,42221,6,0,P|413:115|408:167,1,105,2|8,0:0|0:0,0:0:0:0:
452,196,42821,2,0,P|462:247|467:299,1,105,2|0,0:0|0:0,0:0:0:0:
456,352,43421,1,8,0:0:0:0:
456,352,43621,6,0,P|407:369|356:360,1,105,2|2,0:0|0:0,0:0:0:0:
308,340,44221,1,8,0:0:0:0:
308,340,44421,2,0,P|257:326|207:339,1,105,2|8,0:0|0:1,0:0:0:0:
164,368,45021,1,8,0:1:0:0:
60,348,45421,6,0,P|42:299|51:248,1,105,2|8,0:0|0:0,0:0:0:0:
144,196,46221,2,0,L|195:203,1,52.5,2|0,0:0|0:0,0:0:0:0:
244,184,46621,1,8,0:0:0:0:
244,184,46821,6,0,P|261:135|252:84,1,105,2|2,0:0|0:0,0:0:0:0:
212,52,47421,1,8,0:0:0:0:
212,52,47621,2,0,L|108:37,1,105,2|8,0:0|0:1,0:0:0:0:
56,28,48221,1,8,0:1:0:0:
0,116,48621,5,4,0:0:0:0:
48,208,49021,1,8,0:0:0:0:
151,212,49421,1,2,0:0:0:0:
205,124,49821,1,8,0:0:0:0:
205,124,50021,6,0,L|190:20,2,105,4|4|4,0:0|0:0|0:0,0:0:0:0:
151,212,51221,1,8,0:1:0:0:
151,212,51421,2,0,L|158:263,1,52.5,8|2,0:1|0:0,0:0:0:0:
172,316,51821,6,0,P|221:333|272:324,1,105,4|8,0:0|0:0,0:0:0:0:
320,304,52421,2,0,P|369:287|420:296,1,105,2|0,0:0|0:0,0:0:0:0:
468,316,53021,1,8,0:0:0:0:
468,316,53221,6,0,P|472:263|484:212,1,105,2|2,0:0|0:0,0:0:0:0:
501,163,53821,1,8,0:0:0:0:
501,163,54021,1,2,0:3:0:0:
408,116,54421,1,8,0:1:0:0:
408,116,54621,2,0,P|384:127|358:131,1,52.5,8|2,0:1|0:0,0:0:0:0:
305,125,55021,6,0,P|253:125|208:152,1,105,2|8,0:0|0:0,0:0:0:0:
208,204,55621,2,0,P|251:231|302:233,1,105,2|0,0:0|0:0,0:0:0:0:
356,228,56221,1,8,0:0:0:0:
356,228,56421,6,0,P|377:275|372:326,1,105,2|2,0:0|0:0,0:0:0:0:
328,356,57021,1,8,0:0:0:0:
328,356,57221,2,0,P|275:360|224:372,1,105,2|8,0:0|0:1,0:0:0:0:
172,384,57821,1,8,0:1:0:0:
72,348,58221,6,0,P|67:296|88:248,1,105,2|8,0:0|0:0,0:0:0:0:
120,208,58821,2,0,P|124:156|103:108,1,105,2|2,0:0|0:0,0:0:0:0:
64,76,59421,1,8,0:0:0:0:
160,36,59821,6,0,P|211:24|263:19,1,105,2|8,0:0|0:0,0:0:0:0:
308,48,60421,2,0,P|359:59|411:64,1,105,2|2,0:0|0:0,0:0:0:0:
460,44,61021,1,8,0:0:0:0:
508,136,61421,6,0,P|511:188|487:234,1,105,4|8,0:0|0:0,0:0:0:0:
448,268,62021,1,0,0:0:0:0:
448,268,62221,2,0,B|396:280|400:256|344:268,1,105,2|8,0:0|0:0,0:0:0:0:
256,324,63021,6,0,B|204:336|208:312|152:324,2,105,2|8|2,0:0|0:0|0:0,0:0:0:0:
344,267,64221,1,8,0:0:0:0:
264,200,64621,6,0,P|246:150|256:100,1,105,4|8,0:0|0:0,0:0:0:0:
156,68,65421,2,0,P|139:117|99:151,1,105,2|8,0:0|0:0,0:0:0:0:
4,196,66221,5,4,0:0:0:0:
4,196,66421,1,4,0:0:0:0:
80,268,66821,1,4,0:0:0:0:
156,340,67221,2,0,L|259:325,1,105,4|0,0:0|0:0,0:0:0:0:
304,296,67821,6,0,P|315:245|320:193,1,105,4|8,0:0|0:0,0:0:0:0:
300,144,68421,2,0,P|250:126|200:136,1,105,2|2,0:0|0:0,0:0:0:0:
152,156,69021,1,8,0:0:0:0:
152,156,69221,6,0,P|101:165|52:148,1,105,2|2,0:0|0:0,0:0:0:0:
8,120,69821,1,8,0:0:0:0:
8,120,70021,1,2,0:0:0:0:
256,192,70221,12,2,72421,0:0:0:0:
56,192,73621,5,8,0:1:0:0:
56,192,73821,2,0,L|63:243,1,52.5,8|0,0:1|0:0,0:0:0:0:
104,276,74221,6,0,P|152:293|203:284,1,105,4|8,0:0|0:0,0:0:0:0:
252,264,74821,2,0,P|301:249|351:263,1,105,2|2,0:0|0:0,0:0:0:0:
400,284,75421,1,8,0:0:0:0:
400,284,75621,6,0,P|404:231|416:180,1,105,2|2,0:0|0:0,0:0:0:0:
432,132,76221,1,8,0:0:0:0:
432,132,76421,1,2,0:0:0:0:
256,192,76621,12,2,78821,0:0:0:0:
148,133,80021,5,8,0:1:0:0:
148,133,80221,1,8,0:1:0:0:
70,203,80621,6,0,P|71:254|97:299,1,105,4|2,0:0|0:0,0:0:0:0:
149,307,81221,2,0,P|186:271|200:221,1,105,4|2,0:0|0:0,0:0:0:0:
253,227,81821,6,0,P|254:278|280:323,1,105,4|2,0:0|0:0,0:0:0:0:
333,331,82421,2,0,P|371:295|386:246,1,105,4|2,0:0|0:0,0:0:0:0:
379,194,83021,5,4,0:0:0:0:
448,116,83421,1,4,0:0:0:0:
360,60,83821,6,0,P|311:45|261:59,1,105,4|2,0:0|0:0,0:0:0:0:
216,84,84421,2,0,P|166:98|116:83,1,105,4|2,0:0|0:0,0:0:0:0:
68,64,85021,6,0,P|79:115|84:167,1,105,4|2,0:0|0:0,0:0:0:0:
40,196,85621,2,0,P|29:247|24:299,1,105,4|2,0:0|0:0,0:0:0:0:
52,344,86221,5,4,0:0:0:0:
152,316,86621,1,4,0:0:0:0:
248,356,87021,6,0,P|297:371|347:356,1,105,4|2,0:0|0:0,0:0:0:0:
384,320,87621,2,0,P|395:269|400:217,1,105,4|2,0:0|0:0,0:0:0:0:
364,180,88221,2,0,P|353:129|348:77,1,105,4|2,0:0|0:0,0:0:0:0:
376,32,88821,1,4,0:0:0:0:
256,192,89021,12,0,91821,0:0:0:0:
