osu file format v14

[General]
AudioFilename: audio.mp3
AudioLeadIn: 0
PreviewTime: 145696
Countdown: 1
SampleSet: Soft
StackLeniency: 0.7
Mode: 0
LetterboxInBreaks: 0
WidescreenStoryboard: 1

[Editor]
DistanceSpacing: 1.6
BeatDivisor: 4
GridSize: 8
TimelineZoom: 1.6

[Metadata]
Title:Bokura no Tsubasa
TitleUnicode:僕らの翼
Artist:Rinjin-bu
ArtistUnicode:隣人部
Creator:rosario wknd
Version:Heartache
Source:僕は友達が少ないNEXT
Tags:haganai next boku wa tomodachi ga sukunai i dont don't have many friends few anime japanese ending ed 2 2nd season our wings jpop j-pop pop neighbors neighbor's club rinjinbu 三日月夜空 Mikazuki Yozora 柏崎星奈 Kashiwazaki Sena 楠幸村 Kusunoki Yukimura 志熊理科 Shiguma Rika 羽瀬川小鳩 Hasegawa Kobato 高山マリア Takayama Maria 井上麻里奈 Inoue Marina 伊藤かな恵 Itō Itou Ito Kanae 山本希望 Yamamoto Nozomi 福圓美里 Fukuen Misato 花澤香菜 Hanazawa Kana 井口裕香 Iguchi Yuka yamazo
BeatmapID:2995011
BeatmapSetID:1457284

[Difficulty]
HPDrainRate:5
CircleSize:4.2
OverallDifficulty:8
ApproachRate:8.8
SliderMultiplier:1.5
SliderTickRate:1

[Events]
//Background and Video events
0,0,"neighborsclub.jpg",0,0
//Break Periods
2,103754,106394
2,186815,189659
//Storyboard Layer 0 (Background)
//Storyboard Layer 1 (Fail)
//Storyboard Layer 2 (Pass)
//Storyboard Layer 3 (Foreground)
//Storyboard Layer 4 (Overlay)
//Storyboard Sound Samples

[TimingPoints]
697,408.163265306122,4,2,1,50,1,0
697,-100,4,2,1,50,0,0
5390,-76.9230769230769,4,2,1,65,0,0
5696,-76.9230769230769,4,2,1,5,0,0
5799,-76.9230769230769,4,2,1,65,0,0
5901,-76.9230769230769,4,2,1,5,0,0
6003,-76.9230769230769,4,2,1,65,0,0
7023,-76.9230769230769,4,2,1,70,0,0
7941,-76.9230769230769,4,2,1,5,0,0
8043,-76.9230769230769,4,2,1,70,0,0
8962,-76.9230769230769,4,2,1,5,0,0
9064,-76.9230769230769,4,2,1,70,0,0
9778,-76.9230769230769,4,2,1,5,0,0
9880,-76.9230769230769,4,2,1,70,0,0
9982,-76.9230769230769,4,2,1,5,0,0
10084,-76.9230769230769,4,2,1,70,0,0
11411,-76.9230769230769,4,2,1,5,0,0
11513,-76.9230769230769,4,2,1,70,0,0
12227,-76.9230769230769,4,2,1,5,0,0
12329,-76.9230769230769,4,2,1,70,0,0
12431,-76.9230769230769,4,2,1,5,0,0
12533,-76.9230769230769,4,2,1,70,0,0
14472,-76.9230769230769,4,2,1,5,0,0
14574,-76.9230769230769,4,2,1,70,0,0
15492,-76.9230769230769,4,2,1,5,0,0
15594,-76.9230769230769,4,2,1,70,0,0
15696,-76.9230769230769,4,2,1,5,0,0
15799,-76.9230769230769,4,2,1,70,0,0
17125,-76.9230769230769,4,2,1,5,0,0
17227,-76.9230769230769,4,2,1,70,0,0
17329,-76.9230769230769,4,2,1,5,0,0
17431,-76.9230769230769,4,2,1,70,0,0
17533,-76.9230769230769,4,2,1,5,0,0
17635,-76.9230769230769,4,2,1,70,0,0
17941,-76.9230769230769,4,2,1,5,0,0
18043,-76.9230769230769,4,2,1,70,0,0
18452,-76.9230769230769,4,2,1,50,0,0
19064,-100,4,2,1,50,0,0
31105,-83.3333333333333,4,2,1,50,0,0
31207,-83.3333333333333,4,2,1,5,0,0
31309,-83.3333333333333,4,2,1,50,0,0
31411,-83.3333333333333,4,2,1,5,0,0
31513,-90.9090909090909,4,2,1,55,0,0
31819,-90.9090909090909,4,2,1,5,0,0
31921,-90.9090909090909,4,2,1,55,0,0
33451,-90.9090909090909,4,2,1,5,0,0
33554,-90.9090909090909,4,2,1,55,0,0
34268,-90.9090909090909,4,2,1,5,0,0
34370,-90.9090909090909,4,2,1,55,0,0
34472,-90.9090909090909,4,2,1,5,0,0
34574,-90.9090909090909,4,2,1,55,0,0
35084,-90.9090909090909,4,2,1,5,0,0
35186,-90.9090909090909,4,2,1,55,0,0
36717,-90.9090909090909,4,2,1,5,0,0
36819,-90.9090909090909,4,2,1,55,0,0
38349,-90.9090909090909,4,2,1,5,0,0
38452,-90.9090909090909,4,2,1,55,0,0
38554,-90.9090909090909,4,2,1,5,0,0
38656,-90.9090909090909,4,2,1,55,0,0
41003,-90.9090909090909,4,2,1,5,0,0
41105,-90.9090909090909,4,2,1,55,0,0
41615,-90.9090909090909,4,2,1,5,0,0
41717,-90.9090909090909,4,2,1,55,0,0
45186,-83.3333333333333,4,2,1,55,0,0
46513,-83.3333333333333,4,2,1,5,0,0
46615,-83.3333333333333,4,2,1,55,0,0
47125,-83.3333333333333,4,2,1,5,0,0
47227,-83.3333333333333,4,2,1,55,0,0
48145,-83.3333333333333,4,2,1,5,0,0
48248,-83.3333333333333,4,2,1,55,0,0
48350,-83.3333333333333,4,2,1,5,0,0
48452,-83.3333333333333,4,2,1,55,0,0
48962,-83.3333333333333,4,2,1,5,0,0
49064,-83.3333333333333,4,2,1,55,0,0
49982,-83.3333333333333,4,2,1,5,0,0
50084,-83.3333333333333,4,2,1,55,0,0
50186,-83.3333333333333,4,2,1,5,0,0
50288,-83.3333333333333,4,2,1,55,0,0
50594,-83.3333333333333,4,2,1,5,0,0
50696,-83.3333333333333,4,2,1,55,0,0
51411,-83.3333333333333,4,2,1,5,0,0
51513,-83.3333333333333,4,2,1,55,0,0
53043,-83.3333333333333,4,2,1,5,0,0
53145,-83.3333333333333,4,2,1,55,0,0
53656,-83.3333333333333,4,2,1,5,0,0
53758,-83.3333333333333,4,2,1,55,0,0
56003,-83.3333333333333,4,2,1,65,0,0
56309,-83.3333333333333,4,2,1,5,0,0
56411,-83.3333333333333,4,2,1,65,0,0
57125,-83.3333333333333,4,2,1,5,0,0
57227,-83.3333333333333,4,2,1,65,0,0
57329,-83.3333333333333,4,2,1,5,0,0
57431,-83.3333333333333,4,2,1,65,0,0
57533,-83.3333333333333,4,2,1,5,0,0
57635,-90.9090909090909,4,2,1,55,0,0
59574,-90.9090909090909,4,2,1,5,0,0
59676,-90.9090909090909,4,2,1,55,0,0
60390,-90.9090909090909,4,2,1,5,0,0
60492,-90.9090909090909,4,2,1,55,0,0
60594,-90.9090909090909,4,2,1,5,0,0
60696,-90.9090909090909,4,2,1,55,0,0
61207,-90.9090909090909,4,2,1,5,0,0
61309,-90.9090909090909,4,2,1,55,0,0
62839,-90.9090909090909,4,2,1,5,0,0
62941,-90.9090909090909,4,2,1,55,0,0
64472,-90.9090909090909,4,2,1,5,0,0
64574,-90.9090909090909,4,2,1,55,0,0
64676,-90.9090909090909,4,2,1,5,0,0
64778,-90.9090909090909,4,2,1,55,0,0
66921,-90.9090909090909,4,2,1,5,0,0
67023,-90.9090909090909,4,2,1,55,0,0
67125,-90.9090909090909,4,2,1,5,0,0
67227,-90.9090909090909,4,2,1,55,0,0
67737,-90.9090909090909,4,2,1,5,0,0
67839,-90.9090909090909,4,2,1,55,0,0
70186,-90.9090909090909,4,2,1,5,0,0
70288,-90.9090909090909,4,2,1,55,0,0
70390,-90.9090909090909,4,2,1,5,0,0
70492,-90.9090909090909,4,2,1,55,0,0
70696,-83.3333333333333,4,2,1,65,0,0
71002,-83.3333333333333,4,2,1,5,0,0
71105,-83.3333333333333,4,2,1,65,0,0
72329,-76.9230769230769,4,2,1,70,0,0
72635,-76.9230769230769,4,2,1,5,0,0
72737,-76.9230769230769,4,2,1,70,0,0
73962,-71.4285714285714,4,2,1,80,0,1
74268,-71.4285714285714,4,2,1,5,0,1
74370,-71.4285714285714,4,2,1,80,0,1
75288,-71.4285714285714,4,2,1,5,0,1
75390,-71.4285714285714,4,2,1,80,0,1
75492,-71.4285714285714,4,2,1,5,0,1
75594,-71.4285714285714,4,2,1,80,0,1
76717,-71.4285714285714,4,2,1,5,0,1
76819,-71.4285714285714,4,2,1,80,0,1
76921,-71.4285714285714,4,2,1,5,0,1
77023,-71.4285714285714,4,2,1,80,0,1
77533,-71.4285714285714,4,2,1,5,0,1
77635,-71.4285714285714,4,2,1,80,0,1
78554,-71.4285714285714,4,2,1,5,0,1
78656,-71.4285714285714,4,2,1,80,0,1
78758,-71.4285714285714,4,2,1,5,0,1
78860,-71.4285714285714,4,2,1,80,0,1
79166,-71.4285714285714,4,2,1,5,0,1
79268,-71.4285714285714,4,2,1,80,0,1
79370,-71.4285714285714,4,2,1,5,0,1
79472,-71.4285714285714,4,2,1,80,0,1
80798,-71.4285714285714,4,2,1,5,0,1
80901,-71.4285714285714,4,2,1,80,0,1
81819,-71.4285714285714,4,2,1,5,0,1
81921,-71.4285714285714,4,2,1,80,0,1
82431,-71.4285714285714,4,2,1,5,0,1
82533,-71.4285714285714,4,2,1,80,0,1
84064,-71.4285714285714,4,2,1,5,0,1
84166,-71.4285714285714,4,2,1,80,0,1
84268,-71.4285714285714,4,2,1,5,0,1
84370,-71.4285714285714,4,2,1,80,0,1
84880,-71.4285714285714,4,2,1,5,0,1
84982,-71.4285714285714,4,2,1,80,0,1
85084,-71.4285714285714,4,2,1,5,0,1
85186,-71.4285714285714,4,2,1,80,0,1
85390,-66.6666666666667,4,2,1,90,0,1
85696,-66.6666666666667,4,2,1,5,0,1
85799,-66.6666666666667,4,2,1,90,0,1
87023,-71.4285714285714,4,2,1,80,0,1
87329,-71.4285714285714,4,2,1,5,0,1
87431,-71.4285714285714,4,2,1,80,0,1
88349,-71.4285714285714,4,2,1,5,0,1
88452,-71.4285714285714,4,2,1,80,0,1
88554,-71.4285714285714,4,2,1,5,0,1
88656,-71.4285714285714,4,2,1,80,0,1
89778,-71.4285714285714,4,2,1,5,0,1
89880,-71.4285714285714,4,2,1,80,0,1
89982,-71.4285714285714,4,2,1,5,0,1
90084,-71.4285714285714,4,2,1,80,0,1
90594,-71.4285714285714,4,2,1,5,0,1
90696,-71.4285714285714,4,2,1,80,0,1
91615,-71.4285714285714,4,2,1,5,0,1
91717,-71.4285714285714,4,2,1,80,0,1
92227,-71.4285714285714,4,2,1,5,0,1
92329,-71.4285714285714,4,2,1,80,0,1
92431,-71.4285714285714,4,2,1,5,0,1
92533,-71.4285714285714,4,2,1,80,0,1
93860,-71.4285714285714,4,2,1,5,0,1
93962,-71.4285714285714,4,2,1,80,0,1
94064,-71.4285714285714,4,2,1,5,0,1
94166,-71.4285714285714,4,2,1,80,0,1
94472,-71.4285714285714,4,2,1,5,0,1
94574,-71.4285714285714,4,2,1,80,0,1
95084,-71.4285714285714,4,2,1,5,0,1
95186,-66.6666666666667,4,2,1,80,0,1
96309,-66.6666666666667,4,2,1,5,0,1
96411,-66.6666666666667,4,2,1,80,0,1
96513,-66.6666666666667,4,2,1,5,0,1
96615,-66.6666666666667,4,2,1,80,0,1
96717,-66.6666666666667,4,2,1,5,0,1
96819,-62.5,4,2,1,80,0,1
97125,-62.5,4,2,1,5,0,1
97227,-62.5,4,2,1,80,0,1
97941,-62.5,4,2,1,5,0,1
98043,-62.5,4,2,1,80,0,1
98145,-62.5,4,2,1,5,0,1
98248,-62.5,4,2,1,80,0,1
98452,-62.5,4,2,1,90,0,1
98758,-62.5,4,2,1,5,0,1
98860,-62.5,4,2,1,90,0,1
100186,-62.5,4,2,1,90,0,0
107023,-90.9090909090909,4,2,1,60,0,0
108554,-90.9090909090909,4,2,1,5,0,0
108656,-90.9090909090909,4,2,1,60,0,0
109370,-90.9090909090909,4,2,1,5,0,0
109472,-90.9090909090909,4,2,1,60,0,0
110186,-90.9090909090909,4,2,1,5,0,0
110288,-90.9090909090909,4,2,1,60,0,0
111819,-90.9090909090909,4,2,1,5,0,0
111921,-90.9090909090909,4,2,1,60,0,0
113451,-90.9090909090909,4,2,1,5,0,0
113554,-90.9090909090909,4,2,1,60,0,0
113656,-90.9090909090909,4,2,1,5,0,0
113758,-90.9090909090909,4,2,1,60,0,0
115900,-90.9090909090909,4,2,1,5,0,0
116003,-90.9090909090909,4,2,1,60,0,0
116105,-90.9090909090909,4,2,1,5,0,0
116207,-90.9090909090909,4,2,1,60,0,0
116717,-90.9090909090909,4,2,1,5,0,0
116819,-90.9090909090909,4,2,1,60,0,0
121615,-90.9090909090909,4,2,1,5,0,0
121718,-90.9090909090909,4,2,1,60,0,0
122431,-90.9090909090909,4,2,1,5,0,0
122534,-90.9090909090909,4,2,1,60,0,0
122636,-90.9090909090909,4,2,1,5,0,0
122738,-90.9090909090909,4,2,1,60,0,0
123247,-90.9090909090909,4,2,1,5,0,0
123350,-90.9090909090909,4,2,1,60,0,0
126513,-90.9090909090909,4,2,1,5,0,0
126616,-90.9090909090909,4,2,1,60,0,0
126718,-90.9090909090909,4,2,1,5,0,0
126820,-90.9090909090909,4,2,1,60,0,0
128962,-90.9090909090909,4,2,1,5,0,0
129064,-90.9090909090909,4,2,1,60,0,0
129166,-90.9090909090909,4,2,1,5,0,0
129269,-90.9090909090909,4,2,1,60,0,0
129778,-90.9090909090909,4,2,1,5,0,0
129881,-90.9090909090909,4,2,1,60,0,0
132227,-90.9090909090909,4,2,1,5,0,0
132329,-90.9090909090909,4,2,1,60,0,0
132737,-90.9090909090909,4,2,1,65,0,0
133350,-83.3333333333333,4,2,1,65,0,0
134676,-83.3333333333333,4,2,1,5,0,0
134778,-83.3333333333333,4,2,1,65,0,0
136309,-83.3333333333333,4,2,1,5,0,0
136411,-83.3333333333333,4,2,1,65,0,0
136513,-83.3333333333333,4,2,1,5,0,0
136615,-83.3333333333333,4,2,1,65,0,0
137941,-83.3333333333333,4,2,1,5,0,0
138043,-83.3333333333333,4,2,1,65,0,0
138145,-83.3333333333333,4,2,1,5,0,0
138248,-83.3333333333333,4,2,1,65,0,0
138758,-83.3333333333333,4,2,1,5,0,0
138860,-83.3333333333333,4,2,1,65,0,0
139574,-83.3333333333333,4,2,1,5,0,0
139676,-83.3333333333333,4,2,1,65,0,0
141206,-83.3333333333333,4,2,1,5,0,0
141308,-83.3333333333333,4,2,1,65,0,0
142839,-83.3333333333333,4,2,1,5,0,0
142941,-83.3333333333333,4,2,1,65,0,0
143043,-83.3333333333333,4,2,1,5,0,0
143145,-83.3333333333333,4,2,1,65,0,0
144166,-76.9230769230769,4,2,1,70,0,0
144472,-76.9230769230769,4,2,1,5,0,0
144574,-76.9230769230769,4,2,1,70,0,0
145799,-71.4285714285714,4,2,1,80,0,1
146105,-71.4285714285714,4,2,1,5,0,1
146207,-71.4285714285714,4,2,1,80,0,1
147125,-71.4285714285714,4,2,1,5,0,1
147227,-71.4285714285714,4,2,1,80,0,1
148554,-71.4285714285714,4,2,1,5,0,1
148656,-71.4285714285714,4,2,1,80,0,1
148758,-71.4285714285714,4,2,1,5,0,1
148860,-71.4285714285714,4,2,1,80,0,1
149370,-71.4285714285714,4,2,1,5,0,1
149472,-71.4285714285714,4,2,1,80,0,1
150390,-71.4285714285714,4,2,1,5,0,1
150492,-71.4285714285714,4,2,1,80,0,1
150594,-71.4285714285714,4,2,1,5,0,1
150696,-71.4285714285714,4,2,1,80,0,1
151002,-71.4285714285714,4,2,1,5,0,1
151105,-71.4285714285714,4,2,1,80,0,1
151207,-71.4285714285714,4,2,1,5,0,1
151309,-71.4285714285714,4,2,1,80,0,1
152635,-71.4285714285714,4,2,1,5,0,1
152738,-71.4285714285714,4,2,1,80,0,1
153656,-71.4285714285714,4,2,1,5,0,1
153758,-71.4285714285714,4,2,1,80,0,1
154268,-71.4285714285714,4,2,1,5,0,1
154370,-71.4285714285714,4,2,1,80,0,1
155900,-71.4285714285714,4,2,1,5,0,1
156003,-71.4285714285714,4,2,1,80,0,1
156105,-71.4285714285714,4,2,1,5,0,1
156207,-71.4285714285714,4,2,1,80,0,1
156717,-71.4285714285714,4,2,1,5,0,1
156819,-71.4285714285714,4,2,1,80,0,1
156921,-71.4285714285714,4,2,1,5,0,1
157023,-71.4285714285714,4,2,1,80,0,1
157227,-66.6666666666667,4,2,1,90,0,1
157533,-66.6666666666667,4,2,1,5,0,1
157635,-66.6666666666667,4,2,1,90,0,1
157737,-66.6666666666667,4,2,1,5,0,1
157839,-66.6666666666667,4,2,1,90,0,1
158860,-71.4285714285714,4,2,1,80,0,1
159166,-71.4285714285714,4,2,1,5,0,1
159268,-71.4285714285714,4,2,1,80,0,1
160186,-71.4285714285714,4,2,1,5,0,1
160288,-71.4285714285714,4,2,1,80,0,1
160390,-71.4285714285714,4,2,1,5,0,1
160492,-71.4285714285714,4,2,1,80,0,1
161615,-71.4285714285714,4,2,1,5,0,1
161717,-71.4285714285714,4,2,1,80,0,1
161819,-71.4285714285714,4,2,1,5,0,1
161921,-71.4285714285714,4,2,1,80,0,1
162431,-71.4285714285714,4,2,1,5,0,1
162533,-71.4285714285714,4,2,1,80,0,1
163451,-71.4285714285714,4,2,1,5,0,1
163554,-71.4285714285714,4,2,1,80,0,1
164064,-71.4285714285714,4,2,1,5,0,1
164166,-71.4285714285714,4,2,1,80,0,1
164268,-71.4285714285714,4,2,1,5,0,1
164370,-71.4285714285714,4,2,1,80,0,1
165696,-71.4285714285714,4,2,1,5,0,1
165799,-71.4285714285714,4,2,1,80,0,1
165901,-71.4285714285714,4,2,1,5,0,1
166003,-71.4285714285714,4,2,1,80,0,1
166309,-71.4285714285714,4,2,1,5,0,1
166411,-71.4285714285714,4,2,1,80,0,1
166921,-71.4285714285714,4,2,1,5,0,1
167023,-66.6666666666667,4,2,1,80,0,1
168145,-66.6666666666667,4,2,1,5,0,1
168248,-66.6666666666667,4,2,1,80,0,1
168350,-66.6666666666667,4,2,1,5,0,1
168452,-66.6666666666667,4,2,1,80,0,1
168554,-66.6666666666667,4,2,1,5,0,1
168656,-62.5,4,2,1,80,0,1
168962,-62.5,4,2,1,5,0,1
169064,-62.5,4,2,1,80,0,1
169778,-62.5,4,2,1,5,0,1
169880,-62.5,4,2,1,80,0,1
169982,-62.5,4,2,1,5,0,1
170085,-62.5,4,2,1,80,0,1
170288,-62.5,4,2,1,90,0,1
170594,-62.5,4,2,1,5,0,1
170696,-62.5,4,2,1,90,0,1
171921,-76.9230769230769,4,2,1,75,0,0
172839,-76.9230769230769,4,2,1,5,0,0
172941,-76.9230769230769,4,2,1,75,0,0
173860,-76.9230769230769,4,2,1,5,0,0
173962,-76.9230769230769,4,2,1,75,0,0
174064,-76.9230769230769,4,2,1,5,0,0
174166,-76.9230769230769,4,2,1,75,0,0
175492,-76.9230769230769,4,2,1,5,0,0
175594,-76.9230769230769,4,2,1,75,0,0
176309,-76.9230769230769,4,2,1,5,0,0
176411,-76.9230769230769,4,2,1,75,0,0
177125,-76.9230769230769,4,2,1,5,0,0
177227,-76.9230769230769,4,2,1,75,0,0
177533,-76.9230769230769,4,2,1,5,0,0
177635,-76.9230769230769,4,2,1,75,0,0
177737,-76.9230769230769,4,2,1,5,0,0
177839,-76.9230769230769,4,2,1,75,0,0
179370,-76.9230769230769,4,2,1,5,0,0
179472,-76.9230769230769,4,2,1,75,0,0
180390,-76.9230769230769,4,2,1,5,0,0
180492,-76.9230769230769,4,2,1,75,0,0
180594,-76.9230769230769,4,2,1,5,0,0
180696,-76.9230769230769,4,2,1,75,0,0
181207,-76.9230769230769,4,2,1,5,0,0
181309,-76.9230769230769,4,2,1,75,0,0
183350,-76.9230769230769,4,2,1,80,0,0
189879,-76.9230769230769,4,2,1,65,0,0
190288,-83.3333333333333,4,2,1,65,0,0
191819,-83.3333333333333,4,2,1,5,0,0
191921,-83.3333333333333,4,2,1,65,0,0
193451,-83.3333333333333,4,2,1,5,0,0
193554,-83.3333333333333,4,2,1,65,0,0
193656,-83.3333333333333,4,2,1,5,0,0
193758,-83.3333333333333,4,2,1,65,0,0
195084,-83.3333333333333,4,2,1,5,0,0
195186,-83.3333333333333,4,2,1,65,0,0
195288,-83.3333333333333,4,2,1,5,0,0
195391,-83.3333333333333,4,2,1,65,0,0
195900,-83.3333333333333,4,2,1,5,0,0
196003,-83.3333333333333,4,2,1,65,0,0
196717,-83.3333333333333,4,2,1,5,0,0
196819,-83.3333333333333,4,2,1,65,0,0
198349,-83.3333333333333,4,2,1,5,0,0
198451,-83.3333333333333,4,2,1,65,0,0
199982,-83.3333333333333,4,2,1,5,0,0
200084,-83.3333333333333,4,2,1,65,0,0
202431,-83.3333333333333,4,2,1,5,0,0
202533,-83.3333333333333,4,2,1,65,0,0
202635,-83.3333333333333,4,2,1,5,0,0
202737,-83.3333333333333,4,2,1,65,0,0
202941,-76.9230769230769,4,2,1,75,0,0
203247,-76.9230769230769,4,2,1,5,0,0
203350,-76.9230769230769,4,2,1,75,0,0
204574,-74.0740740740741,4,2,1,75,0,0
204880,-74.0740740740741,4,2,1,5,0,0
204982,-74.0740740740741,4,2,1,75,0,0
205084,-74.0740740740741,4,2,1,5,0,0
205186,-74.0740740740741,4,2,1,75,0,0
205288,-74.0740740740741,4,2,1,5,0,0
205390,-74.0740740740741,4,2,1,75,0,0
206207,-71.4285714285714,4,2,1,80,0,1
206513,-71.4285714285714,4,2,1,5,0,1
206615,-71.4285714285714,4,2,1,80,0,1
207533,-71.4285714285714,4,2,1,5,0,1
207635,-71.4285714285714,4,2,1,80,0,1
208962,-71.4285714285714,4,2,1,5,0,1
209064,-71.4285714285714,4,2,1,80,0,1
209166,-71.4285714285714,4,2,1,5,0,1
209268,-71.4285714285714,4,2,1,80,0,1
209778,-71.4285714285714,4,2,1,5,0,1
209880,-71.4285714285714,4,2,1,80,0,1
210798,-71.4285714285714,4,2,1,5,0,1
210901,-71.4285714285714,4,2,1,80,0,1
211003,-71.4285714285714,4,2,1,5,0,1
211105,-71.4285714285714,4,2,1,80,0,1
211411,-71.4285714285714,4,2,1,5,0,1
211513,-71.4285714285714,4,2,1,80,0,1
211615,-71.4285714285714,4,2,1,5,0,1
211717,-71.4285714285714,4,2,1,80,0,1
213043,-71.4285714285714,4,2,1,5,0,1
213146,-71.4285714285714,4,2,1,80,0,1
214064,-71.4285714285714,4,2,1,5,0,1
214166,-71.4285714285714,4,2,1,80,0,1
214676,-71.4285714285714,4,2,1,5,0,1
214778,-71.4285714285714,4,2,1,80,0,1
216309,-71.4285714285714,4,2,1,5,0,1
216411,-71.4285714285714,4,2,1,80,0,1
216513,-71.4285714285714,4,2,1,5,0,1
216615,-71.4285714285714,4,2,1,80,0,1
217125,-71.4285714285714,4,2,1,5,0,1
217227,-71.4285714285714,4,2,1,80,0,1
217329,-71.4285714285714,4,2,1,5,0,1
217431,-71.4285714285714,4,2,1,80,0,1
217635,-66.6666666666667,4,2,1,90,0,1
217941,-66.6666666666667,4,2,1,5,0,1
218043,-66.6666666666667,4,2,1,90,0,1
219268,-71.4285714285714,4,2,1,80,0,1
219574,-71.4285714285714,4,2,1,5,0,1
219676,-71.4285714285714,4,2,1,80,0,1
220594,-71.4285714285714,4,2,1,5,0,1
220696,-71.4285714285714,4,2,1,80,0,1
220798,-71.4285714285714,4,2,1,5,0,1
220901,-71.4285714285714,4,2,1,80,0,1
222023,-71.4285714285714,4,2,1,5,0,1
222125,-71.4285714285714,4,2,1,80,0,1
222227,-71.4285714285714,4,2,1,5,0,1
222329,-71.4285714285714,4,2,1,80,0,1
222839,-71.4285714285714,4,2,1,5,0,1
222941,-71.4285714285714,4,2,1,80,0,1
223860,-71.4285714285714,4,2,1,5,0,1
223962,-71.4285714285714,4,2,1,80,0,1
224472,-71.4285714285714,4,2,1,5,0,1
224574,-71.4285714285714,4,2,1,80,0,1
224676,-71.4285714285714,4,2,1,5,0,1
224778,-71.4285714285714,4,2,1,80,0,1
226105,-71.4285714285714,4,2,1,5,0,1
226207,-71.4285714285714,4,2,1,80,0,1
226309,-71.4285714285714,4,2,1,5,0,1
226411,-71.4285714285714,4,2,1,80,0,1
227329,-71.4285714285714,4,2,1,5,0,1
227431,-71.4285714285714,4,2,1,80,0,1
228554,-71.4285714285714,4,2,1,5,0,1
228656,-71.4285714285714,4,2,1,80,0,1
228758,-71.4285714285714,4,2,1,5,0,1
228860,-71.4285714285714,4,2,1,80,0,1
228962,-71.4285714285714,4,2,1,5,0,1
229064,-66.6666666666667,4,2,1,80,0,1
229370,-66.6666666666667,4,2,1,5,0,1
229472,-66.6666666666667,4,2,1,80,0,1
230186,-66.6666666666667,4,2,1,5,0,1
230288,-66.6666666666667,4,2,1,80,0,1
230390,-66.6666666666667,4,2,1,5,0,1
230493,-66.6666666666667,4,2,1,80,0,1
230696,-62.5,4,2,1,90,0,1
231002,-62.5,4,2,1,5,0,1
231104,-62.5,4,2,1,90,0,1
232329,-76.9230769230769,4,2,1,70,0,0
234268,-76.9230769230769,4,2,1,5,0,0
234370,-76.9230769230769,4,2,1,70,0,0
235084,-76.9230769230769,4,2,1,5,0,0
235186,-76.9230769230769,4,2,1,70,0,0
235288,-76.9230769230769,4,2,1,5,0,0
235390,-76.9230769230769,4,2,1,70,0,0
237125,-76.9230769230769,4,2,1,5,0,0
237227,-76.9230769230769,4,2,1,70,0,1
237533,-76.9230769230769,4,2,1,5,0,1
237635,-76.9230769230769,4,2,1,70,0,1
238349,-76.9230769230769,4,2,1,5,0,1
238452,-76.9230769230769,4,2,1,70,0,1
238860,-76.9230769230769,4,2,1,70,0,0
243656,-76.9230769230769,4,2,1,5,0,0
243758,-76.9230769230769,4,2,1,70,0,1
244064,-76.9230769230769,4,2,1,5,0,1
244166,-76.9230769230769,4,2,1,70,0,1
244880,-76.9230769230769,4,2,1,5,0,1
244982,-76.9230769230769,4,2,1,70,0,1
245084,-76.9230769230769,4,2,1,5,0,1
245186,-76.9230769230769,4,2,1,70,0,1
245288,-76.9230769230769,4,2,1,5,0,1
245390,-76.9230769230769,4,2,1,70,0,0
247329,-76.9230769230769,4,2,1,5,0,0
247431,-76.9230769230769,4,2,1,70,0,0
247533,-76.9230769230769,4,2,1,5,0,0
247635,-76.9230769230769,4,2,1,70,0,0
248145,-76.9230769230769,4,2,1,5,0,0
248248,-76.9230769230769,4,2,1,70,0,0
250186,-76.9230769230769,4,2,1,5,0,0
250288,-76.9230769230769,4,2,1,70,0,1
250594,-76.9230769230769,4,2,1,5,0,1
250696,-76.9230769230769,4,2,1,70,0,1
251411,-76.9230769230769,4,2,1,5,0,1
251513,-76.9230769230769,4,2,1,70,0,1
251615,-76.9230769230769,4,2,1,5,0,1
251717,-76.9230769230769,4,2,1,70,0,1
251921,-80,4,2,1,60,0,0
255084,-80,4,2,1,5,0,0
255186,-86.9565217391304,4,2,1,50,0,0
256819,-86.9565217391304,4,2,1,30,0,0
257125,-86.9565217391304,4,2,1,5,0,0
257227,-86.9565217391304,4,2,1,30,0,0
258145,-86.9565217391304,4,2,1,5,0,0
258248,-86.9565217391304,4,2,1,30,0,0
258452,-86.9565217391304,4,2,1,20,0,0
264982,-71.4285714285714,4,2,1,5,0,0

[Colours]
Combo1 : 151,0,0
Combo2 : 32,143,255
Combo3 : 91,0,183

[HitObjects]
153,7,697,5,6,3:2:0:0:
206,60,901,1,0,0:0:0:0:
43,86,1105,1,2,3:0:0:0:
75,18,1309,1,0,0:0:0:0:
144,154,1513,1,2,3:0:0:0:
95,210,1717,2,0,P|58:197|20:187,1,75,2|2,0:0|3:0,0:0:0:0:
111,290,2125,6,0,B|211:265|211:265|252:315,1,150,2|2,0:0|0:0,0:0:0:0:
354,371,2737,2,0,P|326:348|333:295,1,75,2|0,3:0|0:0,0:0:0:0:
384,196,3145,1,2,3:0:0:0:
384,196,3350,2,0,P|396:162|413:108,2,75,2|2|2,0:0|3:0|0:0,0:0:0:0:
368,2,3962,5,2,3:0:0:0:
303,40,4166,1,0,0:0:0:0:
149,60,4370,1,2,3:0:0:0:
208,105,4574,1,0,0:0:0:0:
349,168,4778,1,2,3:0:0:0:
283,204,4982,2,0,L|265:257,2,37.5,2|0|0,0:0|0:0|3:0,0:0:0:0:
499,294,5390,6,0,B|449:310|449:310|425:356|425:356|363:373,1,146.249993305207,14|0,3:2|0:0,0:0:0:0:
325,331,5799,2,0,L|270:318,1,48.7499977684022,2|0,0:0|0:0,0:0:0:0:
217,352,6003,1,10,0:2:0:0:
392,240,6207,1,10,0:2:0:0:
156,109,6411,1,10,0:2:0:0:
229,256,6615,1,2,3:0:0:0:
272,261,6717,1,2,3:0:0:0:
310,239,6819,1,2,3:0:0:0:
375,46,7023,6,0,B|422:65|474:62|474:62|499:128|435:152,1,194.999991073609,14|0,0:2|3:0,0:0:0:0:
342,336,7635,2,0,P|282:284|315:236,1,146.249993305207,10|0,0:2|0:0,0:0:0:0:
378,213,8043,2,0,B|405:225|417:244|417:244|437:235|466:233,2,97.4999955368044,0|2|10,3:0|0:0|0:2,0:0:0:0:
208,320,8656,6,0,B|146:332|146:332|141:342|141:342|71:358,1,146.249993305207,2|0,0:0|0:0,0:0:0:0:
12,314,9064,2,0,P|9:269|59:243,1,97.4999955368044,2|8,0:0|0:2,0:0:0:0:
158,160,9472,2,0,B|200:132|200:132|81:156,1,146.249993305207,2|0,0:0|0:0,0:0:0:0:
41,115,9880,2,0,B|38:86|38:86|79:57,1,48.7499977684022,2|0,0:0|0:0,0:0:0:0:
111,29,10084,1,8,0:2:0:0:
265,177,10288,6,0,P|309:214|283:134,1,194.999991073609,2|2,0:0|0:0,0:0:0:0:
217,55,10901,1,10,0:2:0:0:
443,222,11105,2,0,B|423:207|421:189|425:165|447:153|447:153|534:110,1,146.249993305207,2|0,0:0|0:0,0:0:0:0:
478,56,11513,2,0,P|460:9|390:15,1,97.4999955368044,2|10,0:0|0:2,0:0:0:0:
287,140,11921,6,0,B|256:132|231:125|231:125|184:143|184:143|161:131|121:128,1,146.249993305207,14|0,0:2|0:0,0:0:0:0:
98,77,12329,2,0,L|34:92,1,48.7499977684022,2|0,0:0|0:0,0:0:0:0:
17,153,12533,1,8,0:2:0:0:
167,248,12737,1,2,0:0:0:0:
18,371,12941,2,0,L|59:261,1,97.4999955368044,2|2,3:0|3:0,0:0:0:0:
0,225,13248,1,0,3:0:0:0:
0,225,13350,1,2,3:0:0:0:
168,367,13554,6,0,B|224:379|248:326|248:326|296:292|347:328,1,194.999991073609,14|0,3:2|0:0,0:0:0:0:
353,101,14166,2,0,B|306:133|306:133|357:229,1,146.249993305207,10|0,0:2|0:0,0:0:0:0:
299,267,14574,1,2,3:0:0:0:
429,126,14778,2,0,P|483:135|496:187,1,97.4999955368044,2|10,0:0|0:2,0:0:0:0:
462,311,15186,6,0,B|364:334|364:334|388:308|400:283,1,146.249993305207,2|0,0:0|0:0,0:0:0:0:
392,224,15594,2,0,P|382:198|373:164,1,48.7499977684022,2|0,0:0|0:0,0:0:0:0:
429,126,15799,1,8,0:2:0:0:
208,40,16003,2,0,B|194:53|175:65|175:65|284:103|284:103|277:83|278:57,1,194.999991073609,2|2,0:0|0:0,0:0:0:0:
361,3,16615,1,8,0:2:0:0:
142,170,16819,6,0,B|105:146|107:110|107:110|91:142|21:148,1,146.249993305207,2|0,0:0|0:0,0:0:0:0:
35,217,17227,2,0,P|43:239|59:280,1,48.7499977684022,2|0,0:0|0:0,0:0:0:0:
20,328,17431,2,0,L|1:382,1,48.7499977684022,10|0,0:2|0:0,0:0:0:0:
160,258,17635,2,0,B|224:277|224:277|237:296|237:296|310:316,1,146.249993305207,2|0,0:0|0:0,0:0:0:0:
445,339,18043,1,2,3:0:0:0:
414,364,18145,1,0,3:0:0:0:
373,362,18247,1,2,3:0:0:0:
471,220,18452,5,14,0:2:0:0:
471,220,18860,1,2,0:0:0:0:
471,220,19064,2,0,P|461:180|451:137,1,75,2|0,3:0|0:0,0:0:0:0:
360,80,19472,2,0,B|389:34|389:34|479:75,1,150,2|0,3:0|3:0,0:0:0:0:
365,175,20084,6,0,L|219:137,1,150,2|2,0:0|0:0,0:0:0:0:
202,66,20696,1,2,3:0:0:0:
202,66,20901,2,0,L|51:98,1,150,2|2,0:0|0:0,0:0:0:0:
0,50,21513,1,2,3:0:0:0:
166,156,21717,5,2,0:0:0:0:
166,156,22125,1,2,0:0:0:0:
166,156,22329,2,0,L|147:242,1,75,2|0,3:0|0:0,0:0:0:0:
183,365,22737,2,0,P|245:333|207:272,1,150,2|0,3:0|3:0,0:0:0:0:
3,246,23350,6,0,B|67:233|67:233|87:241|87:241|159:227,1,150,2|2,0:0|0:0,0:0:0:0:
205,179,23962,1,2,3:0:0:0:
333,275,24166,2,0,B|298:281|298:281|256:245,1,75,2|0,0:0|3:0,0:0:0:0:
296,139,24574,2,0,B|337:135|337:135|375:167,1,75,2|0,0:0|3:0,0:0:0:0:
400,322,24982,6,0,B|441:226|441:226|416:249|387:263,1,150,2|2,0:0|0:0,0:0:0:0:
265,350,25594,1,2,3:0:0:0:
198,308,25799,1,2,0:0:0:0:
96,365,26003,2,0,L|3:337,2,75,2|2|0,3:0|0:0|3:0,0:0:0:0:
80,252,26615,1,2,0:0:0:0:
80,252,26819,6,0,P|69:211|58:174,1,75,0|0,3:0|0:0,0:0:0:0:
166,116,27227,1,0,3:0:0:0:
166,116,27431,2,0,P|155:157|144:193,1,75,0|0,0:0|3:0,0:0:0:0:
200,236,27839,1,2,0:0:0:0:
76,137,28043,1,2,3:0:0:0:
240,20,28248,6,0,B|335:36|335:36|329:64|349:92,1,150,2|2,0:0|0:0,0:0:0:0:
437,137,28860,2,0,P|461:102|448:66,1,75,2|2,3:0|0:0,0:0:0:0:
266,189,29268,1,2,3:0:0:0:
266,189,29472,2,0,L|361:170,1,75,2|2,0:0|3:0,0:0:0:0:
452,299,29880,6,0,B|417:292|394:278|394:278|364:286|364:286|335:277|305:268,1,150,2|0,0:0|0:0,0:0:0:0:
191,318,30492,2,0,P|227:343|266:329,1,75,0|0,3:0|0:0,0:0:0:0:
339,198,30901,1,0,3:0:0:0:
339,198,31105,2,0,L|283:210,1,44.999998626709,2|0,0:0|0:0,0:0:0:0:
227,225,31309,2,0,L|178:210,1,44.999998626709,2|0,3:0|0:0,0:0:0:0:
63,101,31513,6,0,P|134:111|134:165,1,123.75000377655,14|0,0:0|0:0,0:0:0:0:
139,152,31921,1,2,0:0:0:0:
21,265,32125,2,0,P|-2:230|40:183,1,82.5000025177003,2|0,3:0|0:0,0:0:0:0:
157,363,32533,2,0,B|122:312|122:312|3:352,1,165.000005035401,2|0,3:0|3:0,0:0:0:0:
211,311,33145,6,0,L|344:340,1,123.75000377655,2|0,0:0|0:0,0:0:0:0:
331,337,33554,1,2,0:0:0:0:
156,231,33758,1,2,3:0:0:0:
244,152,33962,2,0,B|233:98|233:98|240:76|240:76|225:4,1,123.75000377655,2|0,0:0|0:0,0:0:0:0:
299,16,34370,2,0,L|359:32,1,41.2500012588501,2|0,0:0|0:0,0:0:0:0:
407,13,34574,1,2,3:0:0:0:
452,220,34778,6,0,B|418:196|418:196|459:108,1,123.75000377655,2|0,0:0|0:0,0:0:0:0:
452,121,35186,1,2,0:0:0:0:
259,240,35390,2,0,L|353:268,1,82.5000025177003,2|0,3:0|0:0,0:0:0:0:
479,360,35799,2,0,B|480:335|467:321|446:309|423:318|423:318|330:359,1,165.000005035401,2|0,3:0|3:0,0:0:0:0:
203,373,36411,6,0,P|156:349|189:282,1,123.75000377655,2|0,0:0|0:0,0:0:0:0:
171,289,36819,1,2,0:0:0:0:
260,191,37023,1,2,3:0:0:0:
103,126,37227,2,0,P|92:168|122:198,1,82.5000025177003,2|0,0:0|3:0,0:0:0:0:
110,33,37635,2,0,P|66:37|48:75,1,82.5000025177003,2|0,0:0|3:0,0:0:0:0:
210,74,38043,6,0,B|242:60|261:41|261:41|291:57|337:63,1,123.75000377655,2|0,0:0|0:0,0:0:0:0:
353,122,38452,2,0,L|331:179,1,41.2500012588501,2|0,0:0|0:0,0:0:0:0:
283,204,38656,1,2,3:0:0:0:
368,326,38860,1,2,0:0:0:0:
495,256,39064,2,0,L|385:228,2,82.5000025177003,2|2|0,3:0|0:0|3:0,0:0:0:0:
307,369,39676,1,2,0:0:0:0:
307,369,39880,6,0,P|251:357|236:330,1,82.5000025177003,0|0,3:0|0:0,0:0:0:0:
127,282,40288,1,0,3:0:0:0:
127,282,40492,2,0,P|183:270|198:243,1,82.5000025177003,0|0,0:0|3:0,0:0:0:0:
26,366,40901,2,0,L|8:310,1,41.2500012588501,2|0,0:0|0:0,0:0:0:0:
48,266,41105,1,2,3:0:0:0:
0,150,41309,6,0,B|26:148|42:143|42:143|88:167|88:167|148:156,1,123.75000377655,2|0,0:0|0:0,0:0:0:0:
116,161,41717,1,2,0:0:0:0:
222,35,41921,2,0,P|184:46|169:90,1,82.5000025177003,2|2,3:0|0:0,0:0:0:0:
224,132,42227,1,2,0:0:0:0:
224,132,42329,2,0,P|269:119|321:109,2,82.5000025177003,2|2|0,3:0|0:0|3:0,0:0:0:0:
353,46,42941,6,0,B|398:41|422:85|422:85|420:148|492:163,1,165.000005035401,2|0,0:0|0:0,0:0:0:0:
500,262,43554,1,0,3:0:0:0:
399,346,43758,2,0,B|367:276|367:276|421:230|421:230|414:273,1,165.000005035401,0|2,0:0|0:0,0:0:0:0:
492,365,44370,1,2,3:0:0:0:
266,236,44574,5,14,0:2:0:0:
266,236,44982,1,2,0:0:0:0:
266,236,45186,2,0,L|171:256,1,89.9999972534181,2|0,3:0|0:0,0:0:0:0:
96,316,45594,2,0,P|146:340|156:381,2,89.9999972534181,2|2|0,3:0|0:0|3:0,0:0:0:0:
24,228,46207,6,0,L|63:86,1,134.999995880127,2|0,0:0|0:0,0:0:0:0:
11,44,46615,1,2,0:0:0:0:
119,164,46819,2,0,B|173:156|173:156|197:169|197:169|287:155,1,134.999995880127,2|0,3:0|0:0,0:0:0:0:
298,108,47227,1,2,3:0:0:0:
171,242,47431,1,2,3:0:0:0:
228,315,47635,1,2,3:0:0:0:
356,186,47839,6,0,P|414:195|418:271,1,134.999995880127,10|0,0:0|0:0,0:0:0:0:
371,310,48248,2,0,L|310:290,1,44.999998626709,2|0,0:0|0:0,0:0:0:0:
280,241,48452,1,2,3:0:0:0:
487,154,48656,2,0,B|508:109|508:109|452:21,1,134.999995880127,2|0,0:0|0:0,0:0:0:0:
386,27,49064,1,2,0:0:0:0:
294,121,49268,1,2,3:0:0:0:
158,24,49472,6,0,P|205:18|234:55,1,89.9999972534181,2|0,0:0|3:0,0:0:0:0:
305,209,49880,2,0,P|279:199|251:191,1,44.999998626709,2|0,0:0|0:0,0:0:0:0:
201,155,50084,2,0,P|178:162|145:173,1,44.999998626709,2|0,3:0|0:0,0:0:0:0:
91,132,50288,2,0,P|42:136|39:208,1,134.999995880127,6|0,0:0|0:0,0:0:0:0:
55,328,50696,2,0,P|99:297|80:245,1,89.9999972534181,6|0,0:0|3:0,0:0:0:0:
197,349,51003,1,2,0:0:0:0:
197,349,51105,6,0,B|227:348|264:373|264:373|278:344|324:328,1,134.999995880127,6|0,0:0|0:0,0:0:0:0:
278,268,51513,1,2,0:0:0:0:
416,223,51717,2,0,L|313:189,1,89.9999972534181,2|0,3:0|0:0,0:0:0:0:
440,352,52125,2,0,P|477:305|470:264,2,89.9999972534181,2|2|0,3:0|0:0|3:0,0:0:0:0:
390,141,52737,6,0,B|367:108|367:108|471:143,1,134.999995880127,2|0,0:0|0:0,0:0:0:0:
509,88,53145,1,2,0:0:0:0:
368,242,53350,2,0,B|335:239|310:228|310:228|280:239|280:239|209:224,1,134.999995880127,2|0,3:0|0:0,0:0:0:0:
188,177,53758,1,2,3:0:0:0:
107,248,53962,1,2,0:0:0:0:
36,167,54166,1,0,3:0:0:0:
179,93,54370,6,0,L|276:121,1,89.9999972534181,2|0,0:0|3:0,0:0:0:0:
428,80,54778,2,0,B|376:79|352:123|352:123|350:187|285:200,1,179.999994506836,2|0,0:0|0:0,0:0:0:0:
250,292,55390,2,0,P|210:242|235:207,1,89.9999972534181,0|0,3:0|0:0,0:0:0:0:
366,248,55799,1,8,3:2:0:0:
245,376,56003,6,0,B|166:340|166:340|155:358|117:377,1,134.999995880127,2|0,0:0|0:0,0:0:0:0:
79,318,56411,1,2,0:0:0:0:
216,224,56615,1,10,0:2:0:0:
83,38,56819,2,0,B|37:65|37:65|80:148,1,134.999995880127,2|0,0:0|0:0,0:0:0:0:
136,174,57227,2,0,P|159:165|201:155,1,44.999998626709,2|0,3:0|0:0,0:0:0:0:
234,114,57431,2,0,P|255:120|276:127,1,44.999998626709,2|0,3:0|0:0,0:0:0:0:
444,64,57635,6,0,P|380:43|362:125,1,165.000005035401,14|2,3:2|0:0,0:0:0:0:
448,242,58248,2,0,B|473:209|473:209|453:157,1,82.5000025177003,2|0,3:0|0:0,0:0:0:0:
385,297,58656,2,0,B|353:308|321:309|321:309|298:338|298:338|261:332|213:354,1,165.000005035401,2|0,3:0|3:0,0:0:0:0:
133,216,59268,6,0,P|204:239|204:277,1,123.75000377655,2|0,0:0|0:0,0:0:0:0:
203,277,59676,1,2,0:0:0:0:
279,185,59880,1,2,3:0:0:0:
147,15,60084,2,0,L|191:146,1,123.75000377655,2|0,0:0|0:0,0:0:0:0:
131,175,60492,2,0,B|115:158|115:158|75:162,1,41.2500012588501,2|0,0:0|0:0,0:0:0:0:
33,189,60696,1,2,3:0:0:0:
192,239,60901,6,0,B|277:216|277:216|264:235|258:253,1,123.75000377655,2|0,0:0|0:0,0:0:0:0:
260,247,61309,1,2,0:0:0:0:
152,349,61513,2,0,P|114:309|131:275,1,82.5000025177003,2|0,3:0|0:0,0:0:0:0:
298,319,61921,2,0,B|364:328|364:328|383:349|383:349|453:358,1,165.000005035401,2|0,3:0|3:0,0:0:0:0:
487,215,62533,6,0,P|415:230|422:282,1,123.75000377655,2|0,0:0|0:0,0:0:0:0:
413,268,62941,1,2,0:0:0:0:
328,179,63145,1,2,3:0:0:0:
477,100,63350,2,0,P|433:88|386:77,1,82.5000025177003,2|0,0:0|3:0,0:0:0:0:
359,0,63758,2,0,P|320:22|278:48,1,82.5000025177003,2|0,0:0|3:0,0:0:0:0:
200,153,64166,6,0,B|162:119|162:119|214:51,1,123.75000377655,2|0,0:0|0:0,0:0:0:0:
152,16,64574,2,0,L|81:35,1,41.2500012588501,2|0,0:0|0:0,0:0:0:0:
61,75,64778,1,2,3:0:0:0:
152,209,64982,1,2,0:0:0:0:
43,306,65186,2,0,L|74:210,2,82.5000025177003,2|2|8,3:0|0:0|3:2,0:0:0:0:
268,241,65799,6,0,P|268:192|242:171,1,82.5000025177003,2|0,0:0|3:0,0:0:0:0:
152,209,66207,2,0,P|152:258|178:279,1,82.5000025177003,2|0,0:0|3:0,0:0:0:0:
282,103,66615,2,0,B|316:122|333:147|333:147|360:131|408:132,1,123.75000377655,2|0,0:0|0:0,0:0:0:0:
430,187,67023,2,0,P|418:214|407:248,1,41.2500012588501,2|0,0:0|0:0,0:0:0:0:
444,287,67227,1,0,3:0:0:0:
271,251,67431,6,0,P|341:264|338:329,1,123.75000377655,2|0,0:0|0:0,0:0:0:0:
349,307,67839,1,2,0:0:0:0:
168,369,68043,2,0,L|200:282,1,82.5000025177003,2|2,3:0|0:0,0:0:0:0:
153,236,68349,1,2,0:0:0:0:
153,236,68452,2,0,P|100:227|90:181,2,82.5000025177003,2|2|0,3:0|0:0|3:0,0:0:0:0:
251,52,69063,6,0,B|206:47|182:91|182:91|184:154|112:169,1,165.000005035401,2|0,0:0|0:0,0:0:0:0:
72,96,69676,1,2,3:0:0:0:
210,212,69880,2,0,L|173:360,1,123.75000377655,2|0,0:0|0:0,0:0:0:0:
114,357,70288,2,0,P|93:345|58:334,1,41.2500012588501,2|0,3:0|0:0,0:0:0:0:
46,275,70492,1,2,3:0:0:0:
267,311,70696,6,0,P|315:259|376:286,1,134.999995880127,14|0,0:2|0:0,0:0:0:0:
425,226,71105,1,0,3:0:0:0:
462,305,71309,1,0,3:0:0:0:
374,114,71513,1,8,3:2:0:0:
331,205,71717,1,8,3:2:0:0:
512,130,71921,1,8,3:2:0:0:
421,15,72125,1,8,3:2:0:0:
235,173,72329,6,0,B|171:162|171:162|137:174|137:174|47:159,1,146.249993305207,14|0,3:2|0:0,0:0:0:0:
20,85,72737,1,2,3:0:0:0:
56,60,72839,1,0,3:0:0:0:
98,67,72941,2,0,P|125:57|163:49,1,48.7499977684022,10|0,0:2|0:0,0:0:0:0:
313,156,73145,1,2,3:0:0:0:
277,181,73247,1,0,3:0:0:0:
235,173,73350,2,0,P|206:160|168:151,1,48.7499977684022,2|0,3:0|3:0,0:0:0:0:
33,233,73554,2,0,P|86:218|102:215,1,48.7499977684022,2|0,3:0|3:0,0:0:0:0:
279,302,73758,2,0,P|226:277|211:273,1,48.7499977684022,2|0,3:0|3:0,0:0:0:0:
51,362,73962,6,0,B|32:340|-3:340|-3:340|104:316,1,157.499995193482,14|0,3:2|0:0,0:0:0:0:
136,262,74370,1,2,0:0:0:0:
279,302,74574,2,0,P|319:254|290:215,1,104.999996795654,10|0,0:2|0:0,0:0:0:0:
265,55,74982,2,0,B|245:123|245:123|228:135|228:135|201:235,1,157.499995193482,2|0,3:0|0:0,0:0:0:0:
150,237,75390,2,0,P|124:225|118:192,1,52.4999983978272,10|0,0:2|0:0,0:0:0:0:
308,158,75594,6,0,B|360:136|412:139|412:139|437:73|373:49,2,209.999993591309,2|2|2,0:0|0:0|0:0,0:0:0:0:
249,112,76513,1,2,0:0:0:0:
249,112,76615,2,0,L|180:128,1,52.4999983978272,2|0,3:0|0:0,0:0:0:0:
137,166,76819,2,0,L|68:143,1,52.4999983978272,2|0,0:0|0:0,0:0:0:0:
42,90,77023,1,8,0:2:0:0:
202,323,77227,6,0,B|232:294|252:279|252:279|197:179,1,157.499995193482,2|0,0:0|0:0,0:0:0:0:
268,153,77635,1,2,0:0:0:0:
97,297,77839,2,0,P|41:281|45:229,1,104.999996795654,10|0,0:2|0:0,0:0:0:0:
197,115,78248,2,0,B|161:89|169:43|169:43|150:89|88:96,1,157.499995193482,2|0,3:0|0:0,0:0:0:0:
50,55,78656,2,0,B|22:48|22:48|-9:73,1,52.4999983978272,10|0,0:2|0:0,0:0:0:0:
193,198,78860,6,0,B|235:193|261:181|261:181|292:201|292:201|327:192|370:188,1,157.499995193482,2|0,0:0|0:0,0:0:0:0:
403,152,79268,2,0,P|431:163|466:178,1,52.4999983978272,2|0,0:0|0:0,0:0:0:0:
509,237,79472,1,10,0:2:0:0:
331,360,79676,2,0,P|294:328|329:268,1,104.999996795654,2|0,0:0|3:0,0:0:0:0:
403,152,80084,2,0,P|440:184|405:244,1,104.999996795654,10|8,3:2|3:2,0:0:0:0:
331,360,80390,1,2,0:0:0:0:
331,360,80492,6,0,B|270:373|256:337|250:298|160:329,1,157.499995193482,14|0,0:2|0:0,0:0:0:0:
124,285,80901,1,2,0:0:0:0:
239,203,81105,2,0,P|250:139|199:119,1,104.999996795654,10|0,0:2|0:0,0:0:0:0:
53,23,81513,2,0,B|18:62|18:62|151:27,1,157.499995193482,2|0,3:0|0:0,0:0:0:0:
174,80,81921,1,8,0:2:0:0:
349,48,82125,6,0,P|294:16|305:79,1,157.499995193482,2|0,0:0|0:0,0:0:0:0:
362,124,82533,1,2,0:0:0:0:
198,237,82737,2,0,B|178:213|178:213|231:117,1,104.999996795654,10|0,0:2|0:0,0:0:0:0:
248,319,83145,2,0,B|251:367|251:367|139:324|139:324|185:305,1,209.999993591309,2|8,3:0|0:2,0:0:0:0:
391,249,83758,6,0,B|490:273|490:273|458:275|434:306,1,157.499995193482,2|0,0:0|0:0,0:0:0:0:
387,346,84166,2,0,P|358:335|322:331,1,52.4999983978272,2|0,0:0|0:0,0:0:0:0:
296,272,84370,1,10,0:2:0:0:
496,203,84574,2,0,B|474:145|474:145|490:112|490:112|460:25,1,157.499995193482,2|0,0:0|0:0,0:0:0:0:
408,17,84982,2,0,B|379:7|379:7|341:49,1,52.4999983978272,2|0,0:0|0:0,0:0:0:0:
306,78,85186,1,10,0:2:0:0:
81,25,85390,6,0,P|159:19|130:120,1,168.750006437302,14|0,0:2|0:0,0:0:0:0:
199,162,85799,2,0,P|188:189|177:213,1,56.2500021457673,2|0,3:0|3:0,0:0:0:0:
121,269,86003,2,0,P|133:297|145:334,1,56.2500021457673,10|0,0:2|0:0,0:0:0:0:
243,368,86207,1,2,3:0:0:0:
287,376,86309,1,0,3:0:0:0:
328,358,86411,2,0,L|396:341,1,56.2500021457673,0|0,3:0|3:0,0:0:0:0:
512,358,86615,2,0,L|473:318,1,56.2500021457673,2|0,3:0|3:0,0:0:0:0:
411,185,86819,2,0,L|395:239,1,56.2500021457673,8|0,0:2|0:0,0:0:0:0:
172,348,87023,6,0,B|121:320|65:319|65:319|100:304|124:267,1,157.499995193482,14|0,0:2|0:0,0:0:0:0:
153,241,87431,1,2,0:0:0:0:
59,74,87635,2,0,B|20:114|20:114|54:167,1,104.999996795654,10|0,0:2|0:0,0:0:0:0:
153,241,88043,2,0,B|199:236|227:227|227:227|252:240|252:240|352:221,1,157.499995193482,2|0,3:0|0:0,0:0:0:0:
366,269,88452,2,0,B|392:272|392:272|423:237,1,52.4999983978272,10|0,0:2|0:0,0:0:0:0:
280,161,88656,6,0,B|199:103|257:-23|362:64|309:123,2,209.999993591309,2|2|2,0:0|0:0|0:0,0:0:0:0:
331,217,89574,1,2,0:0:0:0:
331,217,89676,2,0,P|315:250|306:287,1,52.4999983978272,0|0,3:0|0:0,0:0:0:0:
269,325,89880,2,0,P|226:334|196:341,1,52.4999983978272,2|0,0:0|0:0,0:0:0:0:
149,309,90084,1,8,0:2:0:0:
280,161,90288,6,0,B|332:110|332:110|272:17,1,157.499995193482,2|0,0:0|0:0,0:0:0:0:
356,12,90696,1,2,0:0:0:0:
202,146,90901,2,0,P|157:154|118:87,1,104.999996795654,10|0,0:2|0:0,0:0:0:0:
56,7,91309,2,0,B|46:32|31:54|31:54|48:93|48:93|33:119|31:165,1,157.499995193482,2|0,3:0|0:0,0:0:0:0:
85,204,91717,1,10,0:2:0:0:
20,356,91921,6,0,B|61:335|64:289|64:289|77:331|150:339,1,157.499995193482,2|0,0:0|0:0,0:0:0:0:
182,369,92329,2,0,P|205:360|257:350,1,52.4999983978272,2|0,0:0|0:0,0:0:0:0:
288,306,92533,1,10,0:2:0:0:
277,148,92737,2,0,P|238:191|246:233,1,104.999996795654,2|0,0:0|3:0,0:0:0:0:
365,135,93145,2,0,P|347:79|306:65,1,104.999996795654,2|8,0:0|0:2,0:0:0:0:
155,73,93452,1,2,0:0:0:0:
155,73,93554,6,0,B|220:59|220:59|257:75|257:75|331:60,1,157.499995193482,14|0,0:0|0:0,0:0:0:0:
355,5,93962,2,0,L|428:32,1,52.4999983978272,2|0,0:0|0:0,0:0:0:0:
406,151,94166,2,0,B|371:108|371:108|476:146,1,157.499995193482,10|0,0:2|0:0,0:0:0:0:
512,200,94574,1,2,3:0:0:0:
451,59,94778,1,2,0:0:0:0:
316,144,94982,2,0,L|337:218,1,52.4999983978272,10|0,0:2|0:0,0:0:0:0:
491,326,95186,6,0,P|421:291|391:319,1,112.500004291535,2|0,0:0|3:0,0:0:0:0:
316,265,95492,1,2,0:0:0:0:
316,265,95594,2,0,P|296:339|329:364,1,112.500004291535,2|8,0:0|0:2,0:0:0:0:
150,147,95901,1,2,0:0:0:0:
150,147,96003,6,0,P|148:212|244:220,1,168.750006437302,14|0,0:0|0:0,0:0:0:0:
211,18,96411,2,0,P|178:22|156:66,1,56.2500021457673,2|0,3:0|0:0,0:0:0:0:
276,124,96615,2,0,P|289:93|261:52,1,56.2500021457673,8|0,0:2|0:0,0:0:0:0:
50,222,96819,6,0,B|16:285|16:285|77:337|77:337|59:316|61:293,1,180,14|0,0:2|0:0,0:0:0:0:
129,285,97227,1,2,0:0:0:0:
0,147,97431,1,10,0:2:0:0:
191,38,97635,6,0,B|222:50|250:61|250:61|259:95|276:129|276:129|303:140|360:166,1,180,2|0,0:0|0:0,0:0:0:0:
374,105,98043,2,0,P|406:97|447:93,1,60,2|0,0:0|0:0,0:0:0:0:
486,142,98248,1,10,0:2:0:0:
255,211,98452,6,0,B|214:191|198:158|198:158|127:180|127:180|153:189|187:230,1,180,14|0,0:0|0:0,0:0:0:0:
287,356,98860,1,2,3:0:0:0:
315,324,98962,1,0,3:0:0:0:
313,283,99064,1,10,3:2:0:0:
109,256,99268,1,2,3:0:0:0:
81,287,99370,1,0,3:0:0:0:
83,329,99472,6,0,P|115:336|153:347,1,60,0|0,3:0|3:0,0:0:0:0:
255,211,99676,2,0,P|222:218|184:229,1,60,2|0,3:0|3:0,0:0:0:0:
287,356,99880,2,0,P|319:363|357:374,1,60,8|0,3:2|3:0,0:0:0:0:
500,228,100084,1,14,3:2:0:0:
256,192,100186,12,0,103554,0:0:0:0:
139,152,107023,5,2,0:0:0:0:
55,59,107227,2,0,P|32:94|74:141,1,82.5000025177003,2|0,3:0|0:0,0:0:0:0:
104,298,107635,2,0,P|84:217|-3:247,1,165.000005035401,2|0,3:0|3:0,0:0:0:0:
155,376,108248,6,0,B|178:335|178:335|265:368,1,123.75000377655,2|0,0:0|0:0,0:0:0:0:
249,362,108656,1,2,0:0:0:0:
332,301,108860,1,2,3:0:0:0:
454,355,109064,2,0,B|443:301|443:301|450:279|450:279|435:207,1,123.75000377655,2|0,0:0|0:0,0:0:0:0:
384,191,109472,1,2,0:0:0:0:
476,112,109676,1,2,3:0:0:0:
377,33,109880,6,0,L|244:72,1,123.75000377655,2|0,0:0|0:0,0:0:0:0:
258,67,110288,1,2,0:0:0:0:
404,123,110492,2,0,B|414:165|414:165|373:199,1,82.5000025177003,2|0,3:0|0:0,0:0:0:0:
258,261,110901,2,0,B|222:213|222:213|357:264,1,165.000005035401,2|0,3:0|3:0,0:0:0:0:
452,308,111513,6,0,P|374:316|378:383,1,123.75000377655,2|0,0:0|0:0,0:0:0:0:
364,349,111921,1,2,0:0:0:0:
258,261,112125,1,2,3:0:0:0:
148,353,112329,2,0,P|107:311|128:267,1,82.5000025177003,2|0,0:0|3:0,0:0:0:0:
25,273,112737,2,0,P|52:221|100:227,1,82.5000025177003,2|0,0:0|3:0,0:0:0:0:
205,170,113043,1,2,0:0:0:0:
205,170,113145,6,0,B|164:151|164:151|124:162|124:162|105:150|55:133,1,123.75000377655,2|0,0:0|0:0,0:0:0:0:
30,109,113554,2,0,P|24:86|18:62,1,41.2500012588501,2|0,0:0|0:0,0:0:0:0:
66,17,113758,1,2,3:0:0:0:
191,85,113962,1,2,0:0:0:0:
70,217,114166,2,0,L|157:246,2,82.5000025177003,2|2|0,3:0|0:0|3:0,0:0:0:0:
236,158,114778,6,0,P|258:200|228:239,1,82.5000025177003,2|0,0:0|3:0,0:0:0:0:
164,356,115186,2,0,P|180:311|229:307,1,82.5000025177003,0|0,0:0|3:0,0:0:0:0:
428,362,115594,2,0,B|399:317|399:317|329:345,1,123.75000377655
291,286,116003,2,0,B|278:264|278:264|295:229,1,41.2500012588501,2|0,0:0|0:0,0:0:0:0:
326,193,116207,1,0,3:0:0:0:
236,54,116411,6,0,P|244:89|337:74,1,123.75000377655,2|0,0:0|0:0,0:0:0:0:
320,100,116819,1,2,0:0:0:0:
440,0,117023,2,0,L|409:90,1,82.5000025177003,2|2,3:0|0:0,0:0:0:0:
423,149,117329,1,2,0:0:0:0:
423,149,117431,2,0,P|469:166|472:219,2,82.5000025177003,2|2|0,3:0|0:0|3:0,0:0:0:0:
401,288,118043,6,0,B|396:306|383:323|383:323|480:288|480:288|446:275,1,165.000005035401,2|0,0:0|0:0,0:0:0:0:
329,203,118656,1,0,3:0:0:0:
220,264,118860,2,0,B|129:226|129:226|115:259|71:272,1,165.000005035401,0|2,0:0|0:0,0:0:0:0:
3,196,119472,1,2,3:0:0:0:
161,343,119676,5,14,3:2:0:0:
161,343,120084,1,2,0:0:0:0:
161,343,120288,2,0,P|192:301|177:271,1,82.5000025177003,2|0,3:0|0:0,0:0:0:0:
85,197,120696,2,0,B|148:181|148:181|173:190|196:199|196:199|256:184,1,165.000005035401,2|0,3:0|3:0,0:0:0:0:
309,94,121309,6,0,P|368:112|342:183,1,123.75000377655,2|0,0:0|0:0,0:0:0:0:
366,165,121718,1,2,0:0:0:0:
446,81,121922,1,2,3:0:0:0:
290,14,122125,2,0,L|133:48,1,123.75000377655,2|0,0:0|0:0,0:0:0:0:
113,84,122534,2,0,P|124:109|131:138,1,41.2500012588501,2|0,0:0|0:0,0:0:0:0:
174,174,122738,1,2,3:0:0:0:
57,321,122941,6,0,B|20:282|20:282|74:205,1,123.75000377655,2|0,0:0|0:0,0:0:0:0:
60,224,123350,1,2,0:0:0:0:
146,334,123554,2,0,B|189:346|189:346|235:305,1,82.5000025177003,2|0,3:0|0:0,0:0:0:0:
339,254,123962,2,0,B|300:230|299:183|299:183|289:227|214:239,1,165.000005035401,2|0,3:0|3:0,0:0:0:0:
150,138,124574,1,2,0:0:0:0:
276,46,124778,6,0,L|246:132,2,82.5000025177003,2|2|2,3:0|0:0|3:0,0:0:0:0:
503,203,125390,2,0,P|511:163|487:130,1,82.5000025177003,2|0,0:0|3:0,0:0:0:0:
402,134,125799,2,0,P|372:106|332:110,1,82.5000025177003,2|0,0:0|3:0,0:0:0:0:
304,230,126105,1,2,0:0:0:0:
304,230,126207,6,0,B|327:192|366:206|366:206|444:241,1,123.75000377655,2|0,0:0|0:0,0:0:0:0:
453,289,126616,2,0,L|431:346,1,41.2500012588501,2|0,0:0|0:0,0:0:0:0:
377,361,126820,1,2,3:0:0:0:
259,303,127024,1,2,0:0:0:0:
154,352,127228,2,0,L|44:324,2,82.5000025177003,2|2|0,3:0|0:0|3:0,0:0:0:0:
171,189,127839,1,2,0:0:0:0:
171,189,128043,6,0,P|203:226|178:267,1,82.5000025177003,0|0,3:0|0:0,0:0:0:0:
78,186,128452,1,0,3:0:0:0:
228,113,128656,2,0,B|283:128|283:128|303:155|303:155|366:174,1,123.75000377655
394,128,129064,2,0,L|463:111,1,41.2500012588501,2|0,0:0|0:0,0:0:0:0:
484,167,129269,1,0,3:0:0:0:
373,19,129472,6,0,P|292:17|283:62,1,123.75000377655,2|0,0:0|0:0,0:0:0:0:
281,44,129881,1,2,0:0:0:0:
194,159,130084,2,0,L|170:63,1,82.5000025177003,2|2,3:0|0:0,0:0:0:0:
120,33,130390,1,2,0:0:0:0:
120,33,130492,2,0,B|79:20|79:20|44:56,2,82.5000025177003,2|2|0,3:0|0:0|3:0,0:0:0:0:
77,226,131105,6,0,B|29:198|6:100|133:106|114:176,1,165.000005035401,2|0,0:0|0:0,0:0:0:0:
208,233,131718,1,0,3:0:0:0:
107,373,131921,2,0,B|77:346|77:346|128:279,1,123.75000377655
77,226,132329,1,2,3:0:0:0:
202,349,132534,1,2,3:0:0:0:
348,256,132738,5,14,0:2:0:0:
348,256,133145,1,2,0:0:0:0:
429,333,133350,1,10,0:2:0:0:
429,333,133554,1,8,0:2:0:0:
312,382,133758,2,0,P|278:339|302:293,2,89.9999972534181,2|2|0,3:0|0:0|3:0,0:0:0:0:
409,237,134370,6,0,B|382:188|382:188|274:220,1,134.999995880127,2|0,0:0|0:0,0:0:0:0:
254,160,134778,1,2,0:0:0:0:
322,78,134982,1,10,0:2:0:0:
322,78,135186,1,8,0:2:0:0:
254,3,135390,1,2,3:0:0:0:
107,94,135594,2,0,L|215:68,1,89.9999972534181,2|0,3:0|3:0,0:0:0:0:
162,201,136003,6,0,B|113:189|113:189|84:200|84:200|3:183,1,134.999995880127,2|0,3:0|0:0,0:0:0:0:
6,256,136411,2,0,P|27:300|32:313,1,44.999998626709,2|0,0:0|0:0,0:0:0:0:
3,364,136615,1,10,0:2:0:0:
3,364,136819,1,10,0:2:0:0:
124,278,137023,1,0,3:0:0:0:
222,353,137227,2,0,B|271:366|271:366|328:319,1,89.9999972534181,2|2,0:0|3:0,0:0:0:0:
297,147,137635,6,0,P|372:213|353:243,1,134.999995880127,2|0,0:0|0:0,0:0:0:0:
308,265,138043,2,0,L|243:246,1,44.999998626709,2|0,0:0|0:0,0:0:0:0:
213,200,138248,1,10,0:2:0:0:
390,37,138452,6,0,B|351:26|329:1|329:1|301:31|266:30,1,134.999995880127,14|0,0:2|0:0,0:0:0:0:
159,79,138860,2,0,B|182:90|196:105|196:105|215:92|261:88,1,89.9999972534181,14|0,0:2|3:0,0:0:0:0:
406,127,139166,1,2,0:0:0:0:
406,127,139268,6,0,P|329:131|323:196,1,134.999995880127,12|0,0:2|0:0,0:0:0:0:
372,221,139676,1,2,0:0:0:0:
283,299,139880,1,10,0:2:0:0:
283,299,140084,1,10,0:2:0:0:
423,380,140288,2,0,P|429:326|385:298,2,89.9999972534181,2|2|0,3:0|0:0|3:0,0:0:0:0:
250,203,140900,6,0,B|227:170|227:170|331:205,1,134.999995880127,2|0,0:0|0:0,0:0:0:0:
375,158,141308,1,2,0:0:0:0:
203,261,141513,1,10,0:2:0:0:
203,261,141717,1,8,0:2:0:0:
99,173,141921,1,2,3:0:0:0:
11,277,142125,1,2,3:0:0:0:
115,365,142329,1,0,3:0:0:0:
181,185,142533,6,0,P|205:130|127:76,1,134.999995880127,6|0,3:2|0:0,0:0:0:0:
206,20,142941,2,0,P|232:30|284:48,1,44.999998626709,2|0,0:0|0:0,0:0:0:0:
306,77,143145,1,8,0:2:0:0:
413,25,143350,1,0,0:0:0:0:
305,264,143554,1,0,3:0:0:0:
269,154,143758,1,0,0:0:0:0:
460,91,143962,1,8,0:2:0:0:
512,221,144166,6,0,L|363:168,1,146.249993305207,14|0,0:2|0:0,0:0:0:0:
337,109,144574,1,2,3:0:0:0:
487,291,144778,1,2,3:0:0:0:
273,372,144982,1,2,3:0:0:0:
248,335,145084,1,0,3:0:0:0:
257,292,145186,2,0,P|284:281|314:268,1,48.7499977684022,0|0,3:0|3:0,0:0:0:0:
458,379,145390,2,0,P|431:368|401:355,1,48.7499977684022,0|0,3:0|3:0,0:0:0:0:
210,231,145594,2,0,P|237:220|267:207,1,48.7499977684022,8|0,3:2|3:0,0:0:0:0:
372,46,145799,6,0,P|432:60|407:150,1,157.499995193482,14|0,3:2|0:0,0:0:0:0:
373,194,146207,1,2,0:0:0:0:
262,108,146411,2,0,P|199:117|188:161,1,104.999996795654,10|0,0:2|0:0,0:0:0:0:
158,290,146819,2,0,B|130:270|70:277|70:277|106:245|111:184,1,157.499995193482,2|0,3:0|0:0,0:0:0:0:
54,166,147227,1,10,0:2:0:0:
196,359,147431,6,0,B|265:345|265:345|348:356|348:356|312:340|308:316,2,209.999993591309,2|2|2,0:0|0:0|0:0,0:0:0:0:
158,290,148350,1,2,0:0:0:0:
158,290,148452,2,0,P|170:254|191:217,1,52.4999983978272,2|0,3:0|0:0,0:0:0:0:
217,179,148656,2,0,P|204:154|189:115,1,52.4999983978272,2|0,0:0|0:0,0:0:0:0:
151,71,148860,1,8,0:2:0:0:
345,6,149064,6,0,B|330:67|330:67|298:98|298:98|286:162,1,157.499995193482,2|0,0:0|0:0,0:0:0:0:
217,179,149472,1,2,0:0:0:0:
349,292,149676,2,0,P|394:230|374:200,1,104.999996795654,10|0,0:2|0:0,0:0:0:0:
279,351,150084,2,0,B|192:385|192:385|180:351|160:329,1,157.499995193482,2|0,3:0|0:0,0:0:0:0:
98,289,150492,2,0,B|70:284|70:284|43:311,1,52.4999983978272,10|0,0:2|0:0,0:0:0:0:
354,378,150696,6,0,B|410:352|401:315|387:278|474:252,1,157.499995193482,2|0,0:0|0:0,0:0:0:0:
470,190,151105,2,0,L|446:129,1,52.4999983978272,2|0,0:0|0:0,0:0:0:0:
487,77,151309,1,10,0:2:0:0:
276,125,151513,2,0,P|319:171|363:158,1,104.999996795654,2|0,0:0|3:0,0:0:0:0:
395,61,151921,2,0,P|352:15|308:28,1,104.999996795654,10|8,3:2|3:2,0:0:0:0:
147,65,152227,1,2,0:0:0:0:
147,65,152329,6,0,B|137:84|116:106|116:106|249:71,1,157.499995193482,14|0,0:2|0:0,0:0:0:0:
276,125,152738,1,2,0:0:0:0:
121,273,152941,2,0,B|81:236|81:236|107:184,1,104.999996795654,10|0,0:2|0:0,0:0:0:0:
230,376,153350,2,0,B|189:369|166:359|166:359|138:373|138:373|116:362|38:351,1,157.499995193482,2|0,3:0|0:0,0:0:0:0:
19,316,153758,1,8,0:2:0:0:
144,202,153962,6,0,B|163:174|163:174|132:82|132:82|132:137,1,157.499995193482,2|0,0:0|0:0,0:0:0:0:
77,157,154370,1,2,0:0:0:0:
196,20,154574,2,0,P|251:21|275:80,1,104.999996795654,10|0,0:2|0:0,0:0:0:0:
425,212,154982,2,0,B|373:190|321:193|321:193|301:127|360:103,1,209.999993591309,2|8,3:0|0:2,0:0:0:0:
487,335,155594,6,0,B|461:281|461:281|341:324,1,157.499995193482,2|0,0:0|0:0,0:0:0:0:
316,365,156003,2,0,P|287:354|251:350,1,52.4999983978272,2|0,0:0|0:0,0:0:0:0:
220,292,156207,1,10,0:2:0:0:
329,193,156411,2,0,B|336:173|354:147|354:147|335:115|308:94|308:94|321:69|331:32,1,157.499995193482,2|0,0:0|0:0,0:0:0:0:
389,34,156819,2,0,L|468:62,1,52.4999983978272,2|0,0:0|0:0,0:0:0:0:
476,114,157023,1,10,0:2:0:0:
240,78,157227,6,0,P|177:43|215:105,1,168.750006437302,14|0,0:2|0:0,0:0:0:0:
156,168,157635,2,0,P|183:232|187:244,1,56.2500021457673,2|0,3:0|3:0,0:0:0:0:
218,280,157839,2,0,P|191:344|187:356,1,56.2500021457673,10|0,0:2|0:0,0:0:0:0:
20,270,158043,1,2,3:0:0:0:
0,229,158145,1,0,3:0:0:0:
17,187,158248,2,0,P|50:196|85:205,1,56.2500021457673,0|0,3:0|3:0,0:0:0:0:
278,129,158452,2,0,P|245:138|210:147,1,56.2500021457673,2|0,3:0|3:0,0:0:0:0:
10,106,158656,2,0,P|43:115|78:124,1,56.2500021457673,8|0,0:2|0:0,0:0:0:0:
276,20,158860,6,0,B|241:28|185:29|185:29|220:44|244:81,1,157.499995193482,14|0,0:2|0:0,0:0:0:0:
278,129,159268,1,2,0:0:0:0:
391,53,159472,2,0,P|443:55|471:117,1,104.999996795654,10|0,0:2|0:0,0:0:0:0:
480,325,159880,2,0,B|426:285|426:285|480:190,1,157.499995193482,2|0,3:0|0:0,0:0:0:0:
413,160,160288,2,0,B|384:151|384:151|342:182,1,52.4999983978272,10|0,0:2|0:0,0:0:0:0:
246,332,160492,6,0,B|302:326|337:301|337:301|353:332|379:360|379:360|337:387|310:378,2,209.999993591309,2|2|2,0:0|0:0|0:0,0:0:0:0:
192,281,161411,1,2,0:0:0:0:
192,281,161513,2,0,P|184:247|172:211,1,52.4999983978272,2|0,3:0|0:0,0:0:0:0:
219,168,161717,2,0,P|229:136|242:105,1,52.4999983978272,2|0,0:0|0:0,0:0:0:0:
199,54,161921,1,8,0:2:0:0:
92,223,162125,6,0,P|24:202|57:116,1,157.499995193482,2|0,0:0|0:0,0:0:0:0:
86,78,162533,1,2,0:0:0:0:
219,168,162737,2,0,L|344:146,1,104.999996795654,10|0,0:2|0:0,0:0:0:0:
468,51,163145,2,0,B|422:71|399:119|399:119|385:80|338:68,1,157.499995193482,2|0,3:0|0:0,0:0:0:0:
309,23,163554,1,10,0:2:0:0:
458,168,163758,6,0,B|451:184|431:218|431:218|449:267|449:267|429:294|417:332,1,157.499995193482,2|0,0:0|0:0,0:0:0:0:
366,352,164166,2,0,L|293:330,1,52.4999983978272,2|0,0:0|0:0,0:0:0:0:
273,277,164370,1,10,0:2:0:0:
370,138,164574,2,0,B|368:112|372:87|372:87|342:76|307:49,1,104.999996795654,2|0,0:0|3:0,0:0:0:0:
199,144,164982,2,0,B|222:155|242:171|242:171|266:150|307:133,1,104.999996795654,2|8,0:2|0:2,0:0:0:0:
57,84,165288,1,2,0:0:0:0:
57,84,165390,6,0,B|104:89|121:133|121:133|111:192|178:213,1,157.499995193482,14|0,0:0|0:0,0:0:0:0:
191,253,165799,2,0,B|198:279|198:279|166:324,1,52.4999983978272,2|0,0:0|0:0,0:0:0:0:
0,274,166003,2,0,P|50:246|33:312,1,157.499995193482,10|0,0:2|0:0,0:0:0:0:
28,384,166411,1,2,3:0:0:0:
183,299,166615,1,2,0:0:0:0:
269,361,166819,2,0,L|325:346,1,52.4999983978272,10|0,0:2|0:0,0:0:0:0:
429,221,167023,6,0,P|384:227|381:320,1,112.500004291535,2|0,0:0|3:0,0:0:0:0:
269,114,167329,1,2,0:0:0:0:
269,114,167431,2,0,P|305:181|276:216,1,112.500004291535,2|8,0:0|0:2,0:0:0:0:
459,15,167737,1,2,0:0:0:0:
459,15,167839,6,0,P|373:26|382:111,1,168.750006437302,14|0,0:0|0:0,0:0:0:0:
510,210,168248,2,0,P|505:174|506:130,1,56.2500021457673,2|0,3:0|0:0,0:0:0:0:
387,227,168452,2,0,P|420:240|457:264,1,56.2500021457673,8|0,0:2|0:0,0:0:0:0:
288,77,168656,6,0,B|289:52|276:38|255:26|232:35|232:35|130:75,1,180,14|0,0:2|0:0,0:0:0:0:
93,16,169064,1,2,0:0:0:0:
222,163,169268,1,10,0:2:0:0:
23,295,169472,6,0,B|63:291|91:274|91:274|122:320|122:320|157:329|188:349,1,180,2|0,0:0|0:0,0:0:0:0:
234,373,169880,2,0,L|314:352,1,60,2|0,0:0|0:0,0:0:0:0:
339,302,170085,1,10,0:2:0:0:
424,108,170288,6,0,P|489:99|487:212,1,180,14|0,0:0|0:0,0:0:0:0:
470,244,170696,1,2,3:0:0:0:
314,199,170901,1,10,3:2:0:0:
272,187,171003,1,0,3:0:0:0:
236,208,171105,2,0,P|206:214|146:233,1,60,2|0,3:0|3:0,0:0:0:0:
0,150,171309,2,0,P|26:153|64:161,1,60,0|0,3:0|3:0,0:0:0:0:
202,45,171513,2,0,P|172:51|112:70,1,60,2|0,3:0|3:2,0:0:0:0:
401,191,171717,1,0,3:2:0:0:
423,148,171819,1,0,3:0:0:0:
408,106,171921,6,0,P|337:97|349:221,1,194.999991073609,14|0,3:2|0:0,0:0:0:0:
438,331,172533,2,0,B|406:310|388:280|388:280|354:297|288:298,1,146.249993305207,8|0,0:2|0:0,0:0:0:0:
267,350,172941,2,0,P|240:378|175:361,2,97.4999955368044,0|2|8,3:0|0:0|0:2,0:0:0:0:
211,148,173554,6,0,B|165:188|165:188|218:292,1,146.249993305207,2|0,0:0|0:0,0:0:0:0:
154,318,173962,2,0,P|129:305|96:292,1,48.7499977684022,2|0,0:0|0:0,0:0:0:0:
70,238,174166,1,8,0:2:0:0:
277,107,174370,2,0,P|311:60|234:85,1,194.999991073609,2|2,0:0|0:0,0:0:0:0:
357,165,174982,1,8,0:2:0:0:
158,22,175186,6,0,B|57:48|57:48|103:50|132:81,1,146.249993305207,2|0,0:0|0:0,0:0:0:0:
150,107,175594,1,2,0:0:0:0:
45,193,175799,1,10,0:2:0:0:
212,300,176003,2,0,B|157:282|157:282|124:290|124:290|98:277|48:268,1,146.249993305207,2|0,0:0|0:0,0:0:0:0:
18,322,176411,1,2,0:0:0:0:
154,207,176615,1,10,0:2:0:0:
239,372,176819,6,0,P|316:371|324:286,1,146.249993305207,2|0,0:0|0:0,0:0:0:0:
287,260,177227,2,0,B|259:225|259:225|304:162|304:162|294:200,1,146.249993305207,2|0,0:0|0:0,0:0:0:0:
371,193,177635,2,0,L|427:176,1,48.7499977684022,2|0,0:0|0:0,0:0:0:0:
473,131,177839,1,2,3:0:0:0:
406,3,178043,1,2,0:0:0:0:
278,70,178248,1,10,0:2:0:0:
429,288,178452,6,0,B|382:248|327:281|327:281|295:343|212:307,1,194.999991073609,14|0,3:2|0:0,0:0:0:0:
78,197,179064,2,0,B|134:217|134:217|141:235|150:252|150:252|182:263|202:275,1,146.249993305207,8|0,0:2|0:0,0:0:0:0:
251,227,179472,1,0,3:0:0:0:
91,357,179676,2,0,P|55:307|86:278,1,97.4999955368044,2|8,0:0|0:2,0:0:0:0:
160,131,180084,6,0,P|152:191|63:177,1,146.249993305207,2|0,0:0|0:0,0:0:0:0:
28,142,180492,2,0,P|41:112|54:77,1,48.7499977684022,2|0,0:0|0:0,0:0:0:0:
99,46,180696,1,8,0:2:0:0:
244,198,180901,2,0,B|267:169|289:155|289:155|232:68,1,146.249993305207,2|0,0:0|0:0,0:0:0:0:
283,24,181309,2,0,P|352:27|361:63,1,97.4999955368044,2|8,0:0|0:2,0:0:0:0:
489,158,181717,6,0,B|448:181|448:242|448:242|431:186|366:168,1,194.999991073609,2|2,0:0|0:0,0:0:0:0:
459,80,182329,1,10,0:2:0:0:
324,251,182533,1,2,3:0:0:0:
285,257,182635,1,0,3:0:0:0:
251,237,182737,1,0,3:0:0:0:
143,164,182941,1,2,3:0:0:0:
62,224,183145,1,2,3:0:0:0:
255,357,183350,5,14,0:2:0:0:
256,192,183452,12,0,186615,0:0:0:0:
460,360,190288,5,2,0:0:0:0:
401,290,190493,1,10,0:2:0:0:
401,290,190697,1,8,0:2:0:0:
472,202,190901,1,2,3:0:0:0:
389,106,191105,2,0,L|269:135,1,89.9999972534181,2|0,0:0|3:0,0:0:0:0:
147,187,191513,6,0,B|203:201|203:201|223:224|223:224|296:242,1,134.999995880127,2|0,0:0|0:0,0:0:0:0:
329,197,191921,1,2,0:0:0:0:
208,297,192125,1,10,0:2:0:0:
208,297,192329,1,8,0:2:0:0:
100,255,192533,2,0,B|58:242|58:242|6:294,2,89.9999972534181,2|2|0,3:0|3:0|3:0,0:0:0:0:
127,157,193145,6,0,P|69:163|56:84,1,134.999995880127,2|0,3:0|0:0,0:0:0:0:
95,46,193554,2,0,P|119:57|164:69,1,44.999998626709,2|0,0:0|0:0,0:0:0:0:
201,32,193758,1,10,0:2:0:0:
201,32,193962,1,10,0:2:0:0:
306,126,194166,1,0,3:0:0:0:
236,245,194370,2,0,P|197:193|220:157,1,89.9999972534181,2|2,0:0|3:0,0:0:0:0:
343,355,194778,6,0,B|318:308|318:308|229:341,1,134.999995880127,2|0,0:0|0:0,0:0:0:0:
176,366,195186,2,0,L|111:347,1,44.999998626709,2|0,0:0|0:0,0:0:0:0:
92,292,195391,1,10,0:2:0:0:
291,195,195594,6,0,P|358:199|338:273,1,134.999995880127,14|0,0:2|0:0,0:0:0:0:
434,365,196003,2,0,P|416:315|459:287,1,89.9999972534181,14|0,0:2|3:0,0:0:0:0:
497,154,196309,1,2,0:0:0:0:
497,154,196411,6,0,B|410:119|410:119|447:173,1,134.999995880127,12|0,0:2|0:0,0:0:0:0:
405,219,196819,1,2,0:0:0:0:
323,137,197023,1,10,0:2:0:0:
323,137,197227,1,8,0:2:0:0:
463,24,197431,2,0,L|360:49,2,89.9999972534181,2|2|0,3:0|0:0|3:0,0:0:0:0:
249,93,198043,6,0,B|193:75|193:75|144:84|144:84|167:90|189:98,1,134.999995880127,2|0,0:0|0:0,0:0:0:0:
196,158,198451,1,2,0:0:0:0:
120,15,198656,1,10,0:2:0:0:
120,15,198860,1,8,0:2:0:0:
249,93,199064,1,2,3:0:0:0:
171,221,199268,1,2,3:0:0:0:
43,143,199472,1,8,3:2:0:0:
284,19,199676,6,0,L|429:57,1,134.999995880127,14|0,3:2|0:0,0:0:0:0:
474,12,200084,1,2,0:0:0:0:
335,111,200288,2,0,P|314:180|357:196,1,89.9999972534181,8|0,0:2|0:0,0:0:0:0:
421,317,200696,2,0,P|442:248|399:232,1,89.9999972534181,0|0,3:0|0:0,0:0:0:0:
223,238,201105,1,8,0:2:0:0:
317,184,201309,1,0,0:0:0:0:
222,371,201513,5,2,3:0:0:0:
134,184,201717,1,2,0:0:0:0:
316,309,201921,1,10,0:2:0:0:
21,299,202125,2,0,B|63:296|78:287|78:287|116:297|116:297|184:285,1,134.999995880127,2|0,0:0|0:0,0:0:0:0:
205,241,202533,2,0,P|191:208|180:182,1,44.999998626709,2|0,0:0|0:0,0:0:0:0:
225,138,202737,1,10,0:2:0:0:
105,20,202941,6,0,B|52:59|52:59|97:139,1,146.249993305207,14|0,0:2|0:0,0:0:0:0:
34,184,203350,1,8,0:2:0:0:
180,77,203554,1,8,0:2:0:0:
289,193,203758,1,10,0:2:0:0:
413,255,203962,1,8,0:2:0:0:
242,363,204166,1,0,3:0:0:0:
225,341,204268,1,0,3:0:0:0:
230,312,204370,1,0,3:0:0:0:
421,151,204574,6,0,B|383:134|383:87|383:87|353:51|309:58,1,151.875000579357,14|0,0:2|0:0,0:0:0:0:
249,49,204982,2,0,P|242:27|223:-28,1,50.6250001931191,10|0,0:2|0:0,0:0:0:0:
148,190,205186,2,0,P|154:168|173:112,1,50.6250001931191,10|0,0:2|0:0,0:0:0:0:
353,321,205390,1,2,3:0:0:0:
357,314,205492,1,0,3:0:0:0:
359,307,205594,5,2,3:0:0:0:
320,266,205696,1,0,3:0:0:0:
265,252,205799,1,2,3:0:0:0:
215,277,205901,1,0,3:0:0:0:
197,329,206003,2,0,P|209:353|222:394,1,50.6250001931191,10|0,3:2|3:0,0:0:0:0:
32,228,206207,6,0,B|47:191|49:168|49:168|88:134|88:134|111:60,1,157.499995193482,14|0,0:2|0:0,0:0:0:0:
45,45,206615,1,2,0:0:0:0:
172,188,206819,2,0,P|237:180|253:124,1,104.999996795654,10|0,0:2|0:0,0:0:0:0:
381,56,207227,2,0,P|313:32|349:91,1,157.499995193482,2|0,3:0|0:0,0:0:0:0:
382,132,207635,1,10,0:2:0:0:
211,16,207839,6,0,B|158:39|86:47|86:47|134:38|177:70,2,209.999993591309,2|2|2,0:0|0:0|0:0,0:0:0:0:
272,57,208758,1,2,0:0:0:0:
272,57,208860,2,0,B|281:84|281:84|252:127,1,52.4999983978272,2|0,3:0|0:0,0:0:0:0:
220,160,209064,2,0,B|206:179|206:179|215:206,1,52.4999983978272,2|0,0:0|0:0,0:0:0:0:
257,267,209268,1,8,0:2:0:0:
47,318,209472,6,0,B|132:295|132:295|170:285|192:303|196:338,1,157.499995193482,2|0,0:0|0:0,0:0:0:0:
242,370,209880,1,2,0:0:0:0:
47,244,210084,2,0,B|20:198|20:198|77:136,1,104.999996795654,10|0,0:2|0:0,0:0:0:0:
176,14,210492,2,0,B|208:62|208:62|147:114|147:114|163:70,1,157.499995193482,2|0,3:0|0:0,0:0:0:0:
92,53,210901,2,0,L|33:74,1,52.4999983978272,10|0,0:2|0:0,0:0:0:0:
247,150,211105,6,0,P|323:143|340:244,1,157.499995193482,2|0,0:0|0:0,0:0:0:0:
310,264,211513,2,0,L|333:323,1,52.4999983978272,2|0,0:0|0:0,0:0:0:0:
386,358,211717,1,10,0:2:0:0:
494,185,211921,2,0,B|510:210|510:210|468:296,1,104.999996795654,2|0,0:0|3:0,0:0:0:0:
402,167,212329,2,0,B|386:142|386:142|428:56,1,104.999996795654,2|0,3:0|3:0,0:0:0:0:
306,24,212635,1,2,0:0:0:0:
306,24,212737,6,0,P|252:6|217:97,1,157.499995193482,14|0,0:2|0:0,0:0:0:0:
260,133,213146,1,2,0:0:0:0:
206,283,213350,2,0,P|166:233|185:188,1,104.999996795654,10|0,0:2|0:0,0:0:0:0:
63,44,213758,2,0,B|86:69|116:84|116:84|69:176,1,157.499995193482,2|0,3:0|0:0,0:0:0:0:
8,196,214166,1,8,0:2:0:0:
197,63,214370,6,0,B|225:80|254:86|254:86|262:111|276:132|276:132|308:141|338:160,1,157.499995193482,2|0,0:0|0:0,0:0:0:0:
376,104,214778,1,2,0:0:0:0:
467,269,214982,2,0,P|509:236|488:172,1,104.999996795654,10|0,0:2|0:0,0:0:0:0:
399,360,215390,2,0,B|347:338|295:341|295:341|275:275|334:251,1,209.999993591309,2|8,3:0|0:2,0:0:0:0:
175,165,216003,6,0,B|221:159|239:124|239:124|244:171|285:194,1,157.499995193482,2|0,0:0|0:0,0:0:0:0:
344,159,216411,2,0,P|351:128|362:101,1,52.4999983978272,2|0,0:0|0:0,0:0:0:0:
329,40,216615,1,10,0:2:0:0:
116,212,216819,2,0,P|44:195|57:120,1,157.499995193482,2|0,0:0|0:0,0:0:0:0:
100,70,217227,2,0,P|131:67|175:48,1,52.4999983978272,2|0,0:0|0:0,0:0:0:0:
207,108,217431,1,10,0:2:0:0:
379,177,217635,6,0,B|350:193|319:206|319:206|313:250|313:250|230:293,1,168.750006437302,14|0,0:2|0:0,0:0:0:0:
211,329,218043,2,0,L|136:302,1,56.2500021457673,2|0,0:0|3:0,0:0:0:0:
95,270,218248,2,0,L|26:292,1,56.2500021457673,10|0,0:2|0:0,0:0:0:0:
316,383,218451,1,2,3:0:0:0:
342,346,218553,1,0,3:0:0:0:
327,302,218656,2,0,P|305:238|302:222,1,56.2500021457673,0|0,3:0|3:0,0:0:0:0:
356,111,218860,2,0,P|334:175|331:191,1,56.2500021457673,2|0,3:0|3:0,0:0:0:0:
438,371,219064,2,0,P|416:307|413:291,1,56.2500021457673,8|0,0:2|3:0,0:0:0:0:
445,65,219268,6,0,P|481:20|471:82,1,157.499995193482,14|0,0:2|0:0,0:0:0:0:
426,133,219676,1,2,0:0:0:0:
304,46,219880,2,0,B|286:30|286:30|186:67,1,104.999996795654,10|0,0:2|0:0,0:0:0:0:
156,226,220288,2,0,B|102:186|102:186|156:91,1,157.499995193482,2|0,3:0|0:0,0:0:0:0:
108,44,220696,2,0,P|79:54|43:65,1,52.4999983978272,10|0,0:2|0:0,0:0:0:0:
176,312,220901,6,0,B|264:344|273:288|288:232|371:256,2,209.999993591309,2|2|2,0:0|0:0|0:0,0:0:0:0:
111,273,221819,1,2,0:0:0:0:
111,273,221921,2,0,P|103:239|91:203,1,52.4999983978272,2|0,3:0|0:0,0:0:0:0:
160,183,222125,2,0,P|170:151|183:120,1,52.4999983978272,2|0,0:0|0:0,0:0:0:0:
132,74,222329,1,8,0:2:0:0:
267,16,222533,6,0,P|327:31|302:117,1,157.499995193482,2|0,0:0|0:0,0:0:0:0:
254,152,222941,1,2,0:0:0:0:
367,295,223145,2,0,B|405:255|405:255|379:188,1,104.999996795654,10|0,0:2|0:0,0:0:0:0:
225,356,223554,2,0,B|263:327|304:343|304:343|340:391|401:361,1,157.499995193482,2|0,3:0|0:0,0:0:0:0:
430,335,223962,1,10,0:2:0:0:
256,105,224166,6,0,B|283:155|283:155|265:204|265:204|285:231|297:269,1,157.499995193482,2|0,0:0|0:0,0:0:0:0:
222,277,224574,2,0,L|149:255,1,52.4999983978272,2|0,0:0|0:0,0:0:0:0:
151,191,224778,1,10,0:2:0:0:
31,312,224982,1,2,3:0:0:0:
62,339,225084,1,0,3:0:0:0:
103,336,225186,1,0,3:0:0:0:
229,198,225390,1,2,0:0:0:0:
91,72,225594,1,8,0:2:0:0:
0,228,225799,6,0,L|161:188,1,157.499995193482,14|0,0:2|0:0,0:0:0:0:
198,132,226207,2,0,P|225:138|277:155,1,52.4999983978272,2|0,0:0|0:0,0:0:0:0:
385,265,226411,2,0,P|428:226|413:180,1,104.999996795654,10|0,0:2|0:0,0:0:0:0:
364,134,226717,1,2,0:0:0:0:
364,134,226819,1,2,3:0:0:0:
180,207,227023,1,2,0:0:0:0:
75,73,227227,2,0,L|140:97,1,52.4999983978272,10|0,0:2|0:0,0:0:0:0:
404,33,227431,6,0,B|375:31|353:10|353:10|343:41|329:52,1,104.999996795654,2|0,0:0|3:0,0:0:0:0:
249,39,227737,1,2,0:0:0:0:
249,39,227839,2,0,B|225:55|195:52|195:52|206:82|202:100,1,104.999996795654,2|8,0:0|0:2,0:0:0:0:
268,263,228145,1,2,0:0:0:0:
268,263,228248,6,0,B|246:219|253:186|253:186|224:211|140:205,1,157.499995193482,14|0,0:0|0:0,0:0:0:0:
116,297,228656,2,0,P|147:306|189:326,1,52.4999983978272,2|0,3:0|0:0,0:0:0:0:
292,355,228860,2,0,P|261:364|219:384,1,52.4999983978272,8|0,0:2|0:0,0:0:0:0:
330,160,229064,6,0,P|401:166|388:275,1,168.750006437302,14|0,0:2|0:0,0:0:0:0:
366,303,229472,1,2,0:0:0:0:
491,153,229676,1,10,0:2:0:0:
263,77,229880,2,0,B|220:58|220:58|317:20|317:20|289:63,1,168.750006437302,2|0,0:0|0:0,0:0:0:0:
362,82,230288,2,0,L|432:64,1,56.2500021457673,2|0,0:0|0:0,0:0:0:0:
467,15,230493,1,10,0:2:0:0:
264,202,230696,6,0,B|175:247|175:247|165:201|118:173,1,180,14|0,0:0|0:0,0:0:0:0:
77,135,231104,1,2,3:0:0:0:
284,1,231309,1,10,3:2:0:0:
312,39,231411,1,2,3:0:0:0:
315,86,231513,1,2,3:3:0:0:
292,128,231615,1,0,3:0:0:0:
247,146,231717,6,0,P|224:135|155:121,1,60,0|0,3:0|3:0,0:0:0:0:
116,297,231921,2,0,P|139:286|208:272,1,60,2|0,3:0|3:0,0:0:0:0:
315,86,232125,2,0,P|291:75|222:61,1,60,8|0,3:2|3:0,0:0:0:0:
15,105,232329,6,0,B|52:120|90:127|90:127|102:178|102:178|171:211,1,194.999991073609,14|0,3:2|0:0,0:0:0:0:
83,360,232941,2,0,P|43:306|75:266,1,97.4999955368044,8|0,0:2|0:0,0:0:0:0:
258,259,233350,2,0,L|157:289,2,97.4999955368044,0|0|8,3:0|0:0|0:2,0:0:0:0:
368,378,233962,6,0,B|318:337|318:337|374:250,1,146.249993305207
433,250,234370,1,0,0:0:0:0:
327,158,234574,1,8,0:2:0:0:
447,45,234778,2,0,B|488:15|488:15|445:122,1,146.249993305207
380,91,235186,2,0,B|360:73|360:73|298:85,1,48.7499977684022
275,40,235390,1,10,0:2:0:0:
378,247,235594,6,0,P|426:299|406:226,1,194.999991073609,10|0,0:2|0:0,0:0:0:0:
272,166,236207,1,8,0:2:0:0:
191,223,236411,1,0,0:0:0:0:
62,132,236615,1,0,3:0:0:0:
103,125,236717,1,0,3:0:0:0:
129,149,236819,1,0,3:0:0:0:
89,297,237023,2,0,P|76:268|61:240,1,48.7499977684022,8|0,0:2|0:0,0:0:0:0:
240,13,237227,6,0,B|212:63|212:63|224:104|224:104|207:128|190:169,1,146.249993305207,10|0,0:2|0:0,0:0:0:0:
235,210,237635,2,0,P|255:260|209:289,1,97.4999955368044,10|8,0:2|0:2,0:0:0:0:
416,354,238043,2,0,P|340:324|357:267,1,146.249993305207,2|0,0:0|0:0,0:0:0:0:
415,240,238452,1,10,0:2:0:0:
415,240,238656,1,0,3:0:0:0:
149,370,238860,6,0,B|199:340|251:343|251:343|271:277|212:253,1,194.999991073609,12|0,0:2|0:0,0:0:0:0:
107,240,239472,2,0,P|69:261|78:330,1,97.4999955368044,8|0,0:2|0:0,0:0:0:0:
79,154,239880,2,0,L|48:47,2,97.4999955368044,0|0|8,3:0|0:0|0:2,0:0:0:0:
173,25,240492,1,0,0:0:0:0:
303,142,240696,6,0,P|360:146|380:100,1,97.4999955368044,0|0,3:0|0:0,0:0:0:0:
345,29,241105,2,0,P|288:25|268:71,1,97.4999955368044,8|0,0:2|0:0,0:0:0:0:
216,224,241513,1,0,3:0:0:0:
191,193,241615,1,0,3:0:0:0:
199,158,241717,1,0,3:0:0:0:
332,271,241921,1,8,0:2:0:0:
160,357,242125,6,0,B|126:302|126:302|270:353,1,194.999991073609,10|0,0:2|0:0,0:0:0:0:
417,223,242737,2,0,P|458:258|440:311,1,97.4999955368044,8|0,0:2|0:0,0:0:0:0:
312,198,243145,1,0,3:0:0:0:
369,67,243350,1,0,0:0:0:0:
499,124,243554,2,0,P|488:150|476:181,1,48.7499977684022,8|0,0:2|0:0,0:0:0:0:
288,96,243758,6,0,B|264:85|245:56|245:56|219:98|146:117,1,146.249993305207,10|0,0:2|0:0,0:0:0:0:
39,164,244166,1,2,3:0:0:0:
75,155,244268,1,0,3:0:0:0:
103,177,244370,1,8,3:3:0:0:
241,255,244574,1,2,3:0:0:0:
205,246,244676,1,0,3:0:0:0:
177,268,244778,6,0,P|192:301|205:341,1,48.7499977684022,0|0,3:0|0:0,0:0:0:0:
307,175,244982,2,0,P|270:171|229:162,1,48.7499977684022,2|0,3:0|0:0,0:0:0:0:
321,335,245186,2,0,P|342:305|370:274,1,48.7499977684022,0|0,3:0|0:0,0:0:0:0:
413,58,245390,6,0,B|369:32|369:32|407:132|407:132|369:195,1,194.999991073609,12|0,0:2|0:0,0:0:0:0:
448,307,246003,2,0,P|484:257|456:220,1,97.4999955368044,8|0,0:2|0:0,0:0:0:0:
406,127,246411,1,0,3:0:0:0:
260,250,246615,2,0,L|378:221,1,97.4999955368044,0|8,0:0|0:2,0:0:0:0:
266,345,247023,6,0,B|185:309|185:309|173:338|133:353,1,146.249993305207
72,333,247431,2,0,L|55:271,1,48.7499977684022
97,224,247635,1,8,0:2:0:0:
256,111,247839,2,0,P|198:172|143:136,1,146.249993305207
91,108,248248,2,0,P|37:104|18:148,1,97.4999955368044,0|8,0:0|0:2,0:0:0:0:
259,3,248656,6,0,B|294:20|325:25|325:25|334:83|334:83|379:93|414:112,1,194.999991073609,10|0,0:2|0:0,0:0:0:0:
496,197,249268,1,8,0:2:0:0:
408,232,249472,1,0,0:0:0:0:
291,289,249676,1,0,3:0:0:0:
196,254,249880,1,0,0:0:0:0:
312,153,250084,2,0,P|344:166|378:177,1,48.7499977684022,8|0,0:2|0:0,0:0:0:0:
505,370,250288,6,0,B|534:328|534:328|442:364,1,146.249993305207,14|0,0:2|0:0,0:0:0:0:
399,305,250696,2,0,P|389:241|421:231,1,97.4999955368044,2|8,0:0|0:2,0:0:0:0:
497,111,251105,6,0,L|338:70,1,146.249993305207,10|0,0:2|0:0,0:0:0:0:
309,17,251513,2,0,P|282:24|218:42,1,48.7499977684022,10|0,0:2|0:0,0:0:0:0:
215,86,251717,1,0,3:0:0:0:
71,191,251921,6,0,B|34:151|34:151|79:77|79:77|77:108|88:128,1,187.5,12|0,0:2|0:0,0:0:0:0:
175,209,252533,2,0,P|223:220|259:185,1,93.75,8|0,0:2|0:0,0:0:0:0:
372,280,252941,2,0,P|324:269|288:304,2,93.75,0|0|8,3:0|0:0|0:2,0:0:0:0:
452,188,253554,1,0,0:0:0:0:
251,61,253758,2,0,P|269:110|283:164,1,93.75,0|0,3:0|0:0,0:0:0:0:
408,28,254166,2,0,P|356:19|302:4,1,93.75,8|0,0:2|0:0,0:0:0:0:
362,184,254574,2,0,P|395:143|435:104,1,93.75,0|0,3:0|0:0,0:0:0:0:
296,233,254982,2,0,P|307:257|318:293,1,46.875,8|0,0:2|0:0,0:0:0:0:
190,363,255186,6,0,B|112:322|156:203|247:270|224:316,1,172.500003290176,10|0,0:2|0:0,0:0:0:0:
220,155,255799,2,0,B|187:183|187:183|114:160,1,86.2500016450882,8|0,0:2|0:0,0:0:0:0:
128,83,256207,2,0,B|161:55|161:55|234:78,1,86.2500016450882,0|0,3:0|0:0,0:0:0:0:
70,148,256615,1,8,0:2:0:0:
70,148,256819,6,0,L|38:279,1,129.375002467632,10|0,0:2|0:0,0:0:0:0:
73,333,257227,1,2,3:0:0:0:
85,336,257329,1,0,3:0:0:0:
97,329,257431,1,8,3:2:0:0:
169,248,257635,2,0,L|153:203,2,43.1250008225441,2|0|0,3:0|3:0|3:0,0:0:0:0:
257,365,258043,2,0,P|280:354|300:348,1,43.1250008225441,2|0,3:0|0:0,0:0:0:0:
341,295,258248,1,0,3:0:0:0:
455,363,258452,5,12,0:2:0:0:
256,192,258554,12,0,264982,0:0:0:0:
