osu file format v14

[General]
AudioFilename: audio.mp3
AudioLeadIn: 0
PreviewTime: -1
Countdown: 0
SampleSet: None
StackLeniency: 0.3
Mode: 0
LetterboxInBreaks: 0
WidescreenStoryboard: 1

[Editor]
Bookmarks: 79855
DistanceSpacing: 1.1
BeatDivisor: 4
GridSize: 4
TimelineZoom: 2.3

[Metadata]
Title:The Relic
TitleUnicode:The Relic
Artist:Rings of Saturn
ArtistUnicode:Rings of Saturn
Creator:T r i s t a n
Version:Extinction
Source:Ultu Ulla
Tags:Rings of Saturn Deathmetal Stream Deathstream Deathcore Lucas Mann
BeatmapID:1405364
BeatmapSetID:664004

[Difficulty]
HPDrainRate:6
CircleSize:3.3
OverallDifficulty:8.4
ApproachRate:9.8
SliderMultiplier:1.4
SliderTickRate:1

[Events]
//Background and Video events
0,0,"editor_bg.png",0,0
//Break Periods
2,107328,108831
//Storyboard Layer 0 (Background)
//Storyboard Layer 1 (Fail)
//Storyboard Layer 2 (Pass)
//Storyboard Layer 3 (Foreground)
//Storyboard Sound Samples

[TimingPoints]
471,272.727272727273,3,1,0,100,1,0
471,-100,3,3,0,55,0,0
12743,272.727272727273,4,3,0,100,1,0
14924,-66.6666666666667,4,3,0,100,0,0
54061,-66.6666666666667,3,3,0,5,0,0
54765,272.727272727273,3,3,0,65,1,0
61310,272.727272727273,4,3,0,100,1,0
61310,-100,3,3,0,75,0,0
62946,-66.6666666666667,3,3,0,75,0,0
66969,-66.6666666666667,3,3,0,5,0,0
67037,-133.333333333333,3,3,0,60,0,0
67855,-66.6666666666667,3,3,0,75,0,0

[Colours]
Combo1 : 128,0,0
Combo2 : 255,0,0
Combo3 : 255,128,64
Combo4 : 255,255,0
Combo5 : 128,255,0
Combo6 : 0,255,255
Combo7 : 128,128,192
Combo8 : 255,0,255

[HitObjects]
76,64,471,5,0,0:0:0:0:
70,75,539,1,0,0:0:0:0:
66,86,607,1,0,0:0:0:0:
62,98,675,1,0,0:0:0:0:
59,109,743,1,0,0:0:0:0:
56,121,811,1,0,0:0:0:0:
55,134,880,1,0,0:0:0:0:
54,146,948,1,0,0:0:0:0:
54,158,1016,1,0,0:0:0:0:
55,170,1084,1,0,0:0:0:0:
57,182,1152,1,0,0:0:0:0:
59,194,1221,1,0,0:0:0:0:
92,212,1289,5,8,0:0:0:0:
100,223,1357,1,0,0:0:0:0:
111,234,1425,1,0,0:0:0:0:
122,243,1493,1,0,0:0:0:0:
134,251,1561,1,0,0:0:0:0:
148,257,1629,1,0,0:0:0:0:
162,262,1698,1,0,0:0:0:0:
176,265,1766,1,0,0:0:0:0:
191,267,1834,1,0,0:0:0:0:
205,266,1902,1,0,0:0:0:0:
220,264,1970,1,0,0:0:0:0:
234,261,2039,1,0,0:0:0:0:
280,292,2107,6,0,P|304:280|320:268,4,35
352,320,2448,2,0,P|376:308|392:296,6,35
436,352,2925,5,8,0:0:0:0:
446,337,2993,1,0,0:0:0:0:
454,322,3061,1,0,0:0:0:0:
460,306,3129,1,0,0:0:0:0:
465,289,3197,1,0,0:0:0:0:
467,271,3265,1,0,0:0:0:0:
468,254,3334,1,0,0:0:0:0:
466,237,3402,1,0,0:0:0:0:
462,219,3470,1,0,0:0:0:0:
456,203,3538,1,0,0:0:0:0:
448,187,3606,1,0,0:0:0:0:
439,173,3674,1,0,0:0:0:0:
384,136,3743,5,0,0:0:0:0:
386,146,3811,1,0,0:0:0:0:
387,156,3879,1,0,0:0:0:0:
388,167,3947,1,0,0:0:0:0:
387,177,4015,1,0,0:0:0:0:
385,187,4083,1,0,0:0:0:0:
383,198,4152,1,0,0:0:0:0:
379,207,4220,1,0,0:0:0:0:
375,217,4288,1,0,0:0:0:0:
369,226,4356,1,0,0:0:0:0:
363,234,4424,1,0,0:0:0:0:
356,242,4492,1,0,0:0:0:0:
288,272,4561,5,8,0:0:0:0:
288,254,4629,1,0,0:0:0:0:
285,237,4697,1,0,0:0:0:0:
280,220,4765,1,0,0:0:0:0:
272,205,4833,1,0,0:0:0:0:
261,190,4901,1,0,0:0:0:0:
249,178,4970,1,0,0:0:0:0:
235,168,5038,1,0,0:0:0:0:
219,160,5106,1,0,0:0:0:0:
202,155,5174,1,0,0:0:0:0:
185,153,5242,1,0,0:0:0:0:
168,153,5310,1,0,0:0:0:0:
124,96,5380,5,0,0:0:0:0:
107,113,5448,1,0,0:0:0:0:
94,134,5516,1,0,0:0:0:0:
86,157,5584,1,0,0:0:0:0:
83,182,5652,1,0,0:0:0:0:
84,206,5720,1,0,0:0:0:0:
91,230,5789,1,0,0:0:0:0:
102,251,5857,1,0,0:0:0:0:
118,270,5925,1,0,0:0:0:0:
136,286,5993,1,0,0:0:0:0:
158,297,6061,1,0,0:0:0:0:
182,304,6129,1,0,0:0:0:0:
240,308,6198,5,8,0:0:0:0:
225,276,6266,1,0,0:0:0:0:
226,241,6334,1,0,0:0:0:0:
243,211,6402,1,0,0:0:0:0:
271,192,6471,1,4,0:0:0:0:
312,124,6539,1,0,0:0:0:0:
287,98,6607,1,0,0:0:0:0:
255,85,6675,1,0,0:0:0:0:
221,86,6743,1,6,0:0:0:0:
189,101,6811,1,0,0:0:0:0:
166,127,6879,1,0,0:0:0:0:
156,160,6948,1,0,0:0:0:0:
208,232,7016,5,0,0:0:0:0:
219,238,7084,1,0,0:0:0:0:
230,242,7152,1,0,0:0:0:0:
242,246,7220,1,0,0:0:0:0:
253,249,7288,1,0,0:0:0:0:
265,252,7356,1,0,0:0:0:0:
278,253,7425,1,0,0:0:0:0:
290,254,7493,1,0,0:0:0:0:
302,254,7561,1,0,0:0:0:0:
314,253,7629,1,0,0:0:0:0:
326,251,7697,1,0,0:0:0:0:
338,249,7766,1,0,0:0:0:0:
420,172,7834,5,8,0:0:0:0:
412,161,7902,1,0,0:0:0:0:
401,150,7970,1,0,0:0:0:0:
390,141,8038,1,0,0:0:0:0:
378,133,8106,1,0,0:0:0:0:
364,127,8174,1,0,0:0:0:0:
350,122,8243,1,0,0:0:0:0:
336,119,8311,1,0,0:0:0:0:
321,117,8379,1,0,0:0:0:0:
307,118,8447,1,0,0:0:0:0:
292,120,8515,1,0,0:0:0:0:
278,123,8584,1,0,0:0:0:0:
232,92,8652,6,0,P|208:104|192:116,3,35
112,136,8925,2,0,P|88:124|72:112,3,35
196,216,9198,2,0,P|220:204|236:192,3,35
232,296,9470,5,8,0:0:0:0:
218,305,9538,1,0,0:0:0:0:
202,313,9606,1,0,0:0:0:0:
186,319,9674,1,0,0:0:0:0:
168,323,9742,1,0,0:0:0:0:
151,325,9810,1,0,0:0:0:0:
134,324,9879,1,0,0:0:0:0:
116,322,9947,1,0,0:0:0:0:
99,317,10015,1,0,0:0:0:0:
83,311,10083,1,0,0:0:0:0:
68,303,10151,1,0,0:0:0:0:
53,293,10221,1,0,0:0:0:0:
128,248,10289,5,0,0:0:0:0:
126,238,10356,1,0,0:0:0:0:
125,228,10424,1,0,0:0:0:0:
124,217,10492,1,0,0:0:0:0:
125,207,10560,1,0,0:0:0:0:
127,197,10628,1,0,0:0:0:0:
129,186,10697,1,0,0:0:0:0:
133,177,10765,1,0,0:0:0:0:
137,167,10833,1,0,0:0:0:0:
143,158,10901,1,0,0:0:0:0:
149,150,10969,1,0,0:0:0:0:
156,142,11037,1,0,0:0:0:0:
224,112,11106,5,8,0:0:0:0:
223,129,11174,1,0,0:0:0:0:
226,146,11242,1,0,0:0:0:0:
231,163,11310,1,0,0:0:0:0:
239,178,11378,1,0,0:0:0:0:
250,193,11446,1,0,0:0:0:0:
262,205,11515,1,0,0:0:0:0:
276,215,11583,1,0,0:0:0:0:
292,223,11651,1,0,0:0:0:0:
309,228,11719,1,0,0:0:0:0:
326,230,11787,1,0,0:0:0:0:
343,230,11855,1,0,0:0:0:0:
388,288,11925,5,0,0:0:0:0:
404,270,11993,1,0,0:0:0:0:
417,249,12061,1,0,0:0:0:0:
425,226,12129,1,0,0:0:0:0:
428,201,12197,1,0,0:0:0:0:
427,177,12265,1,0,0:0:0:0:
420,153,12334,1,0,0:0:0:0:
409,132,12402,1,0,0:0:0:0:
393,113,12470,1,0,0:0:0:0:
375,97,12538,1,0,0:0:0:0:
353,86,12606,1,0,0:0:0:0:
329,79,12674,1,0,0:0:0:0:
232,68,12743,6,0,L|208:96,1,35,12|0,0:0|0:0,0:0:0:0:
100,128,13016,2,0,L|120:164,1,35
244,220,13288,2,0,L|220:248,1,35
112,280,13561,2,0,L|132:316,1,35
284,328,13833,6,0,P|344:332|368:320,1,70
428,268,14106,1,0,0:0:0:0:
452,180,14243,1,0,0:0:0:0:
424,92,14379,1,0,0:0:0:0:
352,48,14515,2,0,L|304:56,1,35
160,80,14788,5,0,0:0:0:0:
96,160,14924,1,0,0:0:0:0:
88,268,15061,2,0,P|120:332|160:364,2,105.000004005432
176,132,15470,1,0,0:0:0:0:
56,104,15606,1,0,0:0:0:0:
160,40,15743,2,0,P|220:28|264:32,1,105.000004005432
344,96,16015,2,0,P|348:164|316:220,1,105.000004005432
216,272,16288,1,0,0:0:0:0:
328,344,16424,1,0,0:0:0:0:
264,196,16561,1,0,0:0:0:0:
132,264,16697,2,0,P|92:300|64:352,2,105.000004005432
256,208,17106,5,0,0:0:0:0:
276,210,17174,1,0,0:0:0:0:
297,206,17242,1,0,0:0:0:0:
316,197,17310,1,0,0:0:0:0:
331,183,17378,1,0,0:0:0:0:
342,165,17446,1,0,0:0:0:0:
348,145,17515,1,0,0:0:0:0:
348,124,17583,1,0,0:0:0:0:
342,104,17651,1,0,0:0:0:0:
331,87,17719,1,0,0:0:0:0:
315,73,17787,1,0,0:0:0:0:
296,64,17856,1,0,0:0:0:0:
275,61,17924,1,0,0:0:0:0:
255,63,17992,1,0,0:0:0:0:
235,72,18060,1,0,0:0:0:0:
219,85,18128,1,0,0:0:0:0:
204,104,18197,5,0,0:0:0:0:
183,105,18265,1,0,0:0:0:0:
162,111,18333,1,0,0:0:0:0:
144,121,18401,1,0,0:0:0:0:
128,135,18469,1,0,0:0:0:0:
116,152,18537,1,0,0:0:0:0:
108,171,18606,1,0,0:0:0:0:
104,191,18674,1,0,0:0:0:0:
104,212,18742,1,0,0:0:0:0:
109,233,18810,1,0,0:0:0:0:
119,251,18878,1,0,0:0:0:0:
132,268,18947,1,0,0:0:0:0:
148,280,19015,1,0,0:0:0:0:
167,290,19083,1,0,0:0:0:0:
188,294,19151,1,0,0:0:0:0:
209,295,19219,1,0,0:0:0:0:
224,288,19288,5,0,0:0:0:0:
231,262,19356,1,0,0:0:0:0:
234,236,19425,1,0,0:0:0:0:
234,210,19493,1,0,0:0:0:0:
231,184,19561,1,0,0:0:0:0:
224,159,19629,1,0,0:0:0:0:
213,135,19697,1,0,0:0:0:0:
199,113,19765,1,0,0:0:0:0:
64,280,19833,2,0,P|112:312|176:320,1,105.000004005432
296,288,20106,1,0,0:0:0:0:
344,176,20243,1,0,0:0:0:0:
144,116,20379,6,0,P|184:212|220:228,1,105.000004005432
280,232,20652,2,0,P|336:236|376:272,1,105.000004005432
464,228,20924,2,0,P|488:164|488:128,1,105.000004005432
376,112,21197,2,0,P|316:144|248:144,1,105.000004005432
248,220,21470,2,0,P|188:200|148:164,1,105.000004005432
88,248,21743,2,0,P|56:200|48:136,1,105.000004005432
144,56,22015,6,0,P|208:32|264:32,1,105.000004005432
236,112,22288,2,0,P|304:104|352:116,1,105.000004005432
296,184,22561,2,0,P|372:196|424:228,1,105.000004005432
336,272,22833,2,0,P|392:300|432:360,1,105.000004005432
252,336,23106,2,0,P|188:340|132:328,2,105.000004005432
336,272,23515,1,0,0:0:0:0:
144,268,23652,6,0,P|184:172|220:156,1,105.000004005432
280,152,23925,2,0,P|336:148|376:112,1,105.000004005432
464,156,24197,2,0,P|488:220|488:256,1,105.000004005432
376,272,24470,2,0,P|316:240|248:240,1,105.000004005432
248,164,24743,2,0,P|188:184|148:220,1,105.000004005432
88,136,25016,2,0,P|56:184|48:248,1,105.000004005432
144,328,25288,6,0,P|208:352|236:352,1,52.5000020027161
236,272,25424,2,0,P|304:280|324:280,1,52.5000020027161
296,200,25561,2,0,P|372:188|396:180,1,52.5000020027161
336,112,25697,2,0,P|392:84|412:64,1,52.5000020027161
280,40,25833,6,0,P|216:16|188:16,1,52.5000020027161
188,96,25969,2,0,P|120:88|100:88,1,52.5000020027161
128,168,26106,2,0,P|52:180|28:188,1,52.5000020027161
88,256,26242,2,0,P|32:284|12:304,1,52.5000020027161
148,332,26379,2,0,P|199:340|252:336,2,105.000004005432
336,272,26788,1,0,0:0:0:0:
140,192,26924,6,0,L|80:156,2,52.5000020027161
288,96,27197,2,0,L|348:60,2,52.5000020027161
424,288,27470,6,0,L|484:252,2,52.5000020027161
104,304,27743,2,0,L|44:268,2,52.5000020027161
352,144,28015,6,0,L|412:180,2,52.5000020027161
204,304,28288,2,0,L|144:268,2,52.5000020027161
412,292,28561,5,0,0:0:0:0:
452,184,28697,2,0,L|464:124,1,52.5000020027161
384,116,28833,2,0,L|384:60,1,52.5000020027161
304,60,28970,2,0,L|288:0,1,52.5000020027161
216,48,29106,6,0,L|188:-12,2,52.5000020027161
192,156,29379,2,0,L|164:96,2,52.5000020027161
280,228,29652,6,0,L|308:168,2,52.5000020027161
324,344,29924,2,0,L|352:284,2,52.5000020027161
112,324,30197,6,0,P|72:272|60:212,1,105.000004005432
60,144,30470,1,0,0:0:0:0:
80,127,30538,1,0,0:0:0:0:
103,114,30606,1,0,0:0:0:0:
127,104,30674,1,0,0:0:0:0:
153,99,30742,1,0,0:0:0:0:
264,96,30879,1,0,0:0:0:0:
372,132,31015,1,0,0:0:0:0:
432,240,31152,1,0,0:0:0:0:
426,265,31220,1,0,0:0:0:0:
416,289,31288,1,0,0:0:0:0:
402,311,31356,1,0,0:0:0:0:
385,331,31424,1,0,0:0:0:0:
248,336,31561,1,0,0:0:0:0:
296,232,31697,1,0,0:0:0:0:
232,136,31833,2,0,P|192:188|180:260,1,105.000004005432
92,236,32106,5,0,0:0:0:0:
86,205,32174,1,0,0:0:0:0:
80,174,32242,1,0,0:0:0:0:
74,143,32310,1,0,0:0:0:0:
116,136,32379,5,0,0:0:0:0:
127,106,32447,1,0,0:0:0:0:
138,77,32515,1,0,0:0:0:0:
149,47,32583,1,0,0:0:0:0:
276,52,32652,5,0,0:0:0:0:
280,77,32720,1,0,0:0:0:0:
279,104,32788,1,0,0:0:0:0:
273,129,32856,1,0,0:0:0:0:
263,153,32924,1,0,0:0:0:0:
248,175,32992,1,0,0:0:0:0:
230,194,33061,1,0,0:0:0:0:
209,209,33129,1,0,0:0:0:0:
184,228,33197,2,0,P|144:248|76:248,1,105.000004005432
116,108,33470,5,0,0:0:0:0:
147,80,33538,1,0,0:0:0:0:
186,65,33606,1,0,0:0:0:0:
228,64,33674,1,0,0:0:0:0:
267,77,33742,1,0,0:0:0:0:
301,102,33810,1,0,0:0:0:0:
323,138,33879,1,0,0:0:0:0:
332,178,33947,1,0,0:0:0:0:
336,224,34015,2,2,P|336:260|324:300,3,52.5000020027161
252,264,34288,2,2,P|252:300|264:340,3,52.5000020027161
304,344,34561,5,0,0:0:0:0:
340,346,34629,1,0,0:0:0:0:
376,339,34697,1,0,0:0:0:0:
408,320,34765,1,0,0:0:0:0:
432,294,34833,1,0,0:0:0:0:
448,261,34901,1,0,0:0:0:0:
454,224,34970,1,0,0:0:0:0:
448,188,35038,1,0,0:0:0:0:
432,155,35106,2,2,P|416:124|400:100,3,52.5000020027161
348,176,35379,2,2,P|331:207|315:231,3,52.5000020027161
288,256,35652,5,0,0:0:0:0:
278,220,35720,1,0,0:0:0:0:
261,188,35788,1,0,0:0:0:0:
237,160,35856,1,0,0:0:0:0:
207,138,35924,1,0,0:0:0:0:
174,125,35992,1,0,0:0:0:0:
137,119,36061,1,0,0:0:0:0:
101,121,36129,1,0,0:0:0:0:
66,133,36197,2,2,P|32:148|12:164,3,52.5000020027161
104,208,36470,2,2,P|138:222|158:238,3,52.5000020027161
80,292,36743,5,0,0:0:0:0:
80,292,36811,1,0,0:0:0:0:
80,292,36879,1,0,0:0:0:0:
200,340,37015,2,0,P|268:344|304:336,1,105.000004005432
380,244,37288,1,0,0:0:0:0:
404,124,37424,1,0,0:0:0:0:
288,40,37561,1,0,0:0:0:0:
288,40,37629,1,0,0:0:0:0:
288,40,37697,1,0,0:0:0:0:
140,88,37833,6,0,P|92:128|64:180,1,105.000004005432
328,256,38106,2,0,P|384:224|416:188,2,105.000004005432
200,272,38515,1,0,0:0:0:0:
147,276,38583,1,0,0:0:0:0:
97,264,38651,1,0,0:0:0:0:
96,144,38788,1,0,0:0:0:0:
148,139,38856,1,0,0:0:0:0:
198,151,38924,5,0,0:0:0:0:
316,212,39061,2,0,P|380:248|416:304,1,105.000004005432
456,184,39333,1,0,0:0:0:0:
471,134,39401,1,0,0:0:0:0:
472,81,39469,1,0,0:0:0:0:
332,64,39606,1,0,0:0:0:0:
316,113,39674,1,0,0:0:0:0:
315,166,39742,1,0,0:0:0:0:
232,256,39879,1,0,0:0:0:0:
116,204,40015,5,0,0:0:0:0:
88,179,40083,1,0,0:0:0:0:
73,146,40151,1,0,0:0:0:0:
74,110,40219,1,0,0:0:0:0:
90,77,40287,1,0,0:0:0:0:
118,54,40355,1,0,0:0:0:0:
153,45,40424,1,0,0:0:0:0:
189,51,40492,1,0,0:0:0:0:
219,73,40561,2,2,P|248:104|256:120,3,52.5000020027161
188,160,40833,2,2,P|202:181|221:199,3,52.5000020027161
180,308,41106,5,0,0:0:0:0:
216,309,41174,1,0,0:0:0:0:
252,303,41242,1,0,0:0:0:0:
286,288,41310,1,0,0:0:0:0:
316,267,41378,1,0,0:0:0:0:
340,239,41446,1,0,0:0:0:0:
358,207,41515,1,0,0:0:0:0:
368,172,41583,1,0,0:0:0:0:
376,136,41652,2,2,P|377:87|373:71,3,52.5000020027161
292,100,41924,2,2,P|290:51|294:35,3,52.5000020027161
376,80,42197,5,0,0:0:0:0:
385,110,42265,1,0,0:0:0:0:
388,141,42333,1,0,0:0:0:0:
385,172,42401,1,0,0:0:0:0:
376,202,42469,1,0,0:0:0:0:
361,230,42537,1,0,0:0:0:0:
342,254,42606,1,0,0:0:0:0:
317,275,42674,1,0,0:0:0:0:
290,289,42743,2,2,P|244:308|224:308,3,52.5000020027161
256,200,43015,2,2,P|230:205|207:218,3,52.5000020027161
372,192,43288,6,0,L|432:228,2,52.5000020027161
224,288,43561,2,0,L|164:324,2,52.5000020027161
88,96,43834,6,0,L|28:132,2,52.5000020027161
408,80,44107,2,0,L|468:116,2,52.5000020027161
160,240,44379,6,0,L|100:204,2,52.5000020027161
308,80,44652,2,0,L|368:116,2,52.5000020027161
100,92,44924,5,0,0:0:0:0:
60,200,45060,2,0,L|48:260,1,52.5000020027161
128,268,45196,2,0,L|128:324,1,52.5000020027161
208,324,45333,2,0,L|224:384,1,52.5000020027161
296,336,45469,6,0,L|324:396,2,52.5000020027161
320,228,45742,2,0,L|348:288,2,52.5000020027161
232,156,46015,6,0,L|204:216,2,52.5000020027161
188,40,46287,2,0,L|160:100,2,52.5000020027161
80,56,46561,5,0,0:0:0:0:
65,77,46629,1,0,0:0:0:0:
55,102,46697,1,0,0:0:0:0:
49,127,46765,1,0,0:0:0:0:
48,153,46833,1,0,0:0:0:0:
51,179,46901,1,0,0:0:0:0:
59,204,46970,1,0,0:0:0:0:
70,228,47038,1,0,0:0:0:0:
86,249,47106,1,0,0:0:0:0:
106,266,47174,1,0,0:0:0:0:
128,281,47242,1,0,0:0:0:0:
152,291,47310,1,0,0:0:0:0:
176,296,47379,5,8,0:0:0:0:
208,298,47447,1,0,0:0:0:0:
239,292,47515,1,0,0:0:0:0:
266,277,47583,1,0,0:0:0:0:
289,255,47651,1,0,0:0:0:0:
305,228,47719,1,0,0:0:0:0:
313,198,47788,1,0,0:0:0:0:
312,167,47856,1,0,0:0:0:0:
302,137,47924,1,0,0:0:0:0:
285,111,47992,1,0,0:0:0:0:
261,90,48060,1,0,0:0:0:0:
232,78,48128,1,0,0:0:0:0:
192,68,48197,5,0,0:0:0:0:
192,85,48265,1,0,0:0:0:0:
192,103,48333,1,0,0:0:0:0:
192,120,48401,1,0,0:0:0:0:
192,138,48469,1,0,0:0:0:0:
192,155,48537,1,0,0:0:0:0:
192,173,48606,1,0,0:0:0:0:
192,190,48674,1,0,0:0:0:0:
228,268,48743,5,0,0:0:0:0:
258,277,48811,1,0,0:0:0:0:
288,287,48879,1,0,0:0:0:0:
318,297,48947,1,0,0:0:0:0:
319,236,49015,5,8,0:0:0:0:
348,227,49083,1,0,0:0:0:0:
378,217,49151,1,0,0:0:0:0:
408,207,49219,1,0,0:0:0:0:
464,144,49288,6,0,P|448:100|436:88,3,52.5000020027161
292,84,49561,2,0,P|297:109|311:131,3,52.5000020027161
182,104,49833,5,0,0:0:0:0:
156,111,49901,1,0,0:0:0:0:
133,123,49969,1,0,0:0:0:0:
112,139,50037,1,0,0:0:0:0:
95,158,50105,1,0,0:0:0:0:
82,181,50173,1,0,0:0:0:0:
74,206,50242,1,0,0:0:0:0:
71,232,50310,1,0,0:0:0:0:
73,258,50378,1,0,0:0:0:0:
80,283,50446,1,0,0:0:0:0:
91,307,50514,1,0,0:0:0:0:
108,328,50582,1,0,0:0:0:0:
208,284,50652,6,0,P|248:288|268:288,3,52.5000020027161,8|0|0|0,0:0|0:0|0:0|0:0,0:0:0:0:
248,204,50924,2,0,P|288:200|308:200,3,52.5000020027161
332,292,51197,2,0,P|372:296|392:296,3,52.5000020027161
384,216,51470,6,0,L|424:176,1,52.5000020027161,8|0,0:0|0:0,0:0:0:0:
344,140,51606,2,0,L|284:100,1,52.5000020027161,8|0,0:0|0:0,0:0:0:0:
408,80,51743,2,0,L|448:40,1,52.5000020027161,8|0,0:0|0:0,0:0:0:0:
336,32,51879,2,0,L|276:-8,1,52.5000020027161,8|0,0:0|0:0,0:0:0:0:
152,36,52015,6,0,L|112:76,1,52.5000020027161,8|0,0:0|0:0,0:0:0:0:
228,128,52151,2,0,L|288:168,1,52.5000020027161,8|0,0:0|0:0,0:0:0:0:
96,204,52288,2,0,L|56:244,1,52.5000020027161,8|0,0:0|0:0,0:0:0:0:
232,264,52424,2,0,L|292:304,1,52.5000020027161,8|0,0:0|0:0,0:0:0:0:
416,344,52561,6,0,L|456:304,1,52.5000020027161,8|0,0:0|0:0,0:0:0:0:
308,216,52697,2,0,L|248:176,1,52.5000020027161,8|0,0:0|0:0,0:0:0:0:
472,152,52834,2,0,L|512:112,1,52.5000020027161,8|0,0:0|0:0,0:0:0:0:
344,60,52970,2,0,L|284:20,1,52.5000020027161,8|0,0:0|0:0,0:0:0:0:
256,192,53106,12,0,54061,0:0:0:0:
348,56,54765,5,4,0:0:0:0:
357,70,54833,1,0,0:0:0:0:
365,86,54901,1,0,0:0:0:0:
371,102,54969,1,0,0:0:0:0:
375,119,55037,1,0,0:0:0:0:
376,137,55105,1,0,0:0:0:0:
376,154,55174,1,0,0:0:0:0:
373,171,55242,1,0,0:0:0:0:
368,188,55310,1,0,0:0:0:0:
361,204,55378,1,0,0:0:0:0:
352,219,55446,1,0,0:0:0:0:
341,233,55514,1,0,0:0:0:0:
388,288,55583,5,8,0:0:0:0:
376,301,55651,1,0,0:0:0:0:
364,313,55719,1,0,0:0:0:0:
350,323,55787,1,0,0:0:0:0:
334,332,55855,1,0,0:0:0:0:
318,338,55923,1,0,0:0:0:0:
301,343,55992,1,0,0:0:0:0:
284,345,56060,1,0,0:0:0:0:
266,344,56128,1,0,0:0:0:0:
249,342,56196,1,0,0:0:0:0:
232,337,56264,1,0,0:0:0:0:
216,330,56332,1,0,0:0:0:0:
200,320,56401,6,0,P|176:300|164:284,3,35,4|0|0|0,0:0|0:0|0:0|0:0,0:0:0:0:
244,208,56674,2,0,P|268:228|280:244,3,35
200,320,56946,2,0,P|176:300|164:284,3,35
244,208,57219,2,0,P|268:228|280:244,3,35,8|0|0|0,0:0|0:0|0:0|0:0,0:0:0:0:
280,248,57492,5,0,0:0:0:0:
291,269,57560,1,0,0:0:0:0:
309,286,57628,1,0,0:0:0:0:
331,297,57696,1,0,0:0:0:0:
355,301,57764,1,0,0:0:0:0:
379,298,57832,1,0,0:0:0:0:
401,289,57901,1,0,0:0:0:0:
420,273,57969,1,0,0:0:0:0:
432,164,58037,5,4,0:0:0:0:
423,148,58105,1,0,0:0:0:0:
412,135,58173,1,0,0:0:0:0:
400,122,58241,1,0,0:0:0:0:
386,112,58309,1,0,0:0:0:0:
371,103,58377,1,0,0:0:0:0:
355,96,58446,1,0,0:0:0:0:
338,91,58514,1,0,0:0:0:0:
320,88,58582,1,0,0:0:0:0:
303,88,58650,1,0,0:0:0:0:
286,90,58718,1,0,0:0:0:0:
269,94,58786,1,0,0:0:0:0:
252,100,58855,1,8,0:0:0:0:
192,56,58924,5,0,0:0:0:0:
183,66,58992,1,0,0:0:0:0:
175,78,59060,1,0,0:0:0:0:
167,90,59128,1,0,0:0:0:0:
161,102,59196,1,0,0:0:0:0:
156,115,59264,1,0,0:0:0:0:
151,128,59333,1,0,0:0:0:0:
148,142,59401,1,0,0:0:0:0:
145,156,59469,1,0,0:0:0:0:
144,170,59537,1,0,0:0:0:0:
144,184,59605,1,0,0:0:0:0:
144,196,59674,6,0,P|148:228|160:260,3,35,4|0|0|0,0:0|0:0|0:0|0:0,0:0:0:0:
268,200,59946,2,0,P|264:168|252:136,3,35
144,196,60219,2,0,P|148:228|160:260,3,35
268,200,60491,2,0,P|264:168|252:136,3,35,8|0|0|0,0:0|0:0|0:0|0:0,0:0:0:0:
256,148,60765,5,0,0:0:0:0:
247,132,60833,1,0,0:0:0:0:
235,118,60901,1,0,0:0:0:0:
221,108,60969,1,0,0:0:0:0:
206,102,61037,1,2,0:0:0:0:
188,100,61105,1,2,0:0:0:0:
170,103,61174,1,2,0:0:0:0:
155,110,61242,1,2,0:0:0:0:
64,216,61310,5,8,0:0:0:0:
85,267,61378,1,0,0:0:0:0:
127,303,61446,1,8,0:0:0:0:
181,317,61514,1,0,0:0:0:0:
240,316,61583,2,0,P|268:312|304:296,3,35,8|0|8|0,0:0|0:0|0:0|0:0,0:0:0:0:
448,168,61855,5,8,0:0:0:0:
426,116,61923,1,0,0:0:0:0:
384,80,61991,1,8,0:0:0:0:
330,66,62059,1,0,0:0:0:0:
272,68,62128,2,0,P|244:72|208:88,3,35,8|0|8|0,0:0|0:0|0:0|0:0,0:0:0:0:
44,232,62401,5,8,0:0:0:0:
109,256,62469,1,0,0:0:0:0:
178,252,62537,1,8,0:0:0:0:
240,221,62605,1,0,0:0:0:0:
276,172,62674,1,8,0:0:0:0:
341,148,62742,1,0,0:0:0:0:
410,152,62810,1,8,0:0:0:0:
472,183,62878,1,0,0:0:0:0:
448,276,62946,6,2,P|432:300|404:320,3,52.5000020027161,10|2|10|2,0:0|0:0|0:0|0:0,0:0:0:0:
292,208,63219,2,2,P|308:184|336:164,3,52.5000020027161,10|2|10|2,0:0|0:0|0:0|0:0,0:0:0:0:
401,321,63491,6,2,P|372:326|338:321,3,52.5000020027161,10|2|10|2,0:3|0:3|0:3|0:3,0:3:0:0:
338,162,63765,2,2,P|367:157|401:162,3,52.5000020027161,10|2|10|2,0:0|0:0|0:0|0:0,0:0:0:0:
326,315,64037,6,0,P|304:296|288:266,3,52.5000020027161,8|0|8|0,0:0|0:0|0:0|0:0,0:0:0:0:
413,168,64310,2,8,P|435:187|451:217,3,52.5000020027161
420,296,64582,5,8,0:0:0:0:
370,343,64650,1,0,0:0:0:0:
301,345,64718,1,8,0:0:0:0:
249,301,64786,1,0,0:0:0:0:
220,244,64855,2,0,P|212:212|212:184,3,52.5000020027161,8|0|8|0,0:0|0:0|0:0|0:0,0:0:0:0:
208,136,65128,5,8,0:0:0:0:
164,96,65196,1,0,0:0:0:0:
105,86,65264,1,8,0:0:0:0:
51,109,65332,1,0,0:0:0:0:
17,158,65400,1,8,0:0:0:0:
16,217,65468,1,0,0:0:0:0:
46,268,65537,1,8,0:0:0:0:
104,296,65605,2,0,P|128:304|160:308,1,52.5000020027161,0|8,0:0|0:0,0:0:0:0:
240,252,65741,5,4,0:0:0:0:
251,222,65809,1,4,0:0:0:0:
261,192,65877,1,4,0:0:0:0:
330,190,65946,5,8,0:0:0:0:
319,160,66014,1,8,0:0:0:0:
308,130,66082,1,8,0:0:0:0:
298,100,66150,1,8,0:0:0:0:
202,90,66219,5,0,0:0:0:0:
211,54,66287,1,0,0:0:0:0:
233,25,66355,1,0,0:0:0:0:
264,6,66423,1,0,0:0:0:0:
300,0,66491,1,2,0:0:0:0:
336,7,66559,1,2,0:0:0:0:
367,26,66628,1,2,0:0:0:0:
388,56,66696,1,2,0:0:0:0:
420,172,66764,6,0,P|404:264|304:292,1,157.500006008148
324,200,67037,1,14,0:0:0:0:
256,192,67105,12,0,67787,0:0:0:0:
108,108,67855,5,0,0:0:0:0:
108,108,67923,1,0,0:0:0:0:
108,108,67991,1,0,0:0:0:0:
96,240,68128,2,0,P|116:296|164:328,1,105.000004005432
304,320,68400,1,0,0:0:0:0:
388,212,68537,1,0,0:0:0:0:
328,80,68673,2,0,P|276:40|236:32,1,105.000004005432
164,112,68946,5,0,0:0:0:0:
96,322,69082,1,0,0:0:0:0:
274,192,69219,1,0,0:0:0:0:
53,192,69355,1,0,0:0:0:0:
232,322,69491,1,0,0:0:0:0:
232,322,69560,1,0,0:0:0:0:
232,322,69628,1,0,0:0:0:0:
372,252,69764,2,0,P|424:204|456:156,1,105.000004005432
332,60,70037,2,0,P|280:108|248:156,1,105.000004005432
208,276,70310,1,0,0:0:0:0:
208,276,70378,1,0,0:0:0:0:
208,276,70446,1,0,0:0:0:0:
328,316,70582,2,0,P|392:336|448:336,1,105.000004005432
400,240,71128,5,0,0:0:0:0:
400,240,71196,1,0,0:0:0:0:
400,240,71264,1,0,0:0:0:0:
412,108,71401,2,0,P|392:52|344:20,1,105.000004005432
204,28,71673,1,0,0:0:0:0:
120,136,71810,1,0,0:0:0:0:
180,268,71946,2,0,P|232:308|272:316,1,105.000004005432
344,236,72219,5,0,0:0:0:0:
412,26,72355,1,0,0:0:0:0:
234,156,72492,1,0,0:0:0:0:
455,156,72628,1,0,0:0:0:0:
276,26,72764,1,0,0:0:0:0:
276,26,72833,1,0,0:0:0:0:
276,26,72901,1,0,0:0:0:0:
136,96,73037,2,0,P|84:144|52:192,1,105.000004005432
176,288,73310,2,0,P|228:240|260:192,1,105.000004005432
300,72,73583,1,0,0:0:0:0:
300,72,73651,1,0,0:0:0:0:
300,72,73719,1,0,0:0:0:0:
180,32,73855,2,0,P|116:12|60:12,1,105.000004005432
44,156,74128,2,0,P|108:176|164:176,1,105.000004005432
320,136,74400,6,0,P|352:120|380:116,2,52.5000020027161
180,268,74673,1,0,0:0:0:0:
412,324,74810,2,0,P|448:280|460:224,1,105.000004005432
232,88,75082,1,0,0:0:0:0:
76,296,75219,1,0,0:0:0:0:
284,256,75355,1,0,0:0:0:0:
72,104,75491,5,0,0:0:0:0:
128,244,75628,1,0,0:0:0:0:
192,96,75764,1,0,0:0:0:0:
128,160,75900,1,0,0:0:0:0:
240,304,76037,2,0,P|260:332|284:348,2,52.5000020027161
208,176,76310,2,0,P|212:104|232:64,1,105.000004005432
340,36,76582,1,0,0:0:0:0:
420,120,76719,1,0,0:0:0:0:
376,236,76855,1,0,0:0:0:0:
376,236,76923,1,0,0:0:0:0:
376,236,76991,1,0,0:0:0:0:
204,252,77128,2,0,P|180:176|188:120,1,105.000004005432
388,272,77673,6,0,P|388:304|372:336,2,52.5000020027161
332,116,77946,1,0,0:0:0:0:
100,60,78083,2,0,P|64:104|52:160,1,105.000004005432
280,296,78355,1,0,0:0:0:0:
436,88,78492,1,0,0:0:0:0:
228,128,78628,1,0,0:0:0:0:
440,280,78764,5,0,0:0:0:0:
384,140,78901,1,0,0:0:0:0:
320,288,79037,1,0,0:0:0:0:
384,224,79173,1,0,0:0:0:0:
288,72,79310,1,0,0:0:0:0:
264,64,79378,1,0,0:0:0:0:
232,64,79446,1,0,0:0:0:0:
80,148,79583,1,0,0:0:0:0:
100,300,79719,1,0,0:0:0:0:
286,309,79855,2,0,P|304:260|304:208,1,105.000004005432
232,140,80128,2,0,P|308:116|364:124,1,105.000004005432
220,240,80400,2,0,P|144:264|88:256,1,105.000004005432
144,164,80673,2,0,P|120:88|128:32,1,105.000004005432
312,56,80946,5,0,0:0:0:0:
312,56,81014,1,0,0:0:0:0:
312,56,81082,1,0,0:0:0:0:
372,176,81219,2,0,P|392:228|384:288,1,105.000004005432
152,296,81491,2,0,P|132:244|144:184,1,105.000004005432
224,80,81764,1,0,0:0:0:0:
256,204,81900,1,0,0:0:0:0:
112,72,82037,2,0,P|60:96|32:152,1,105.000004005432
116,312,82310,1,0,0:0:0:0:
248,192,82446,1,0,0:0:0:0:
40,256,82582,1,0,0:0:0:0:
264,308,82719,1,0,0:0:0:0:
412,220,82855,2,0,P|452:156|456:120,1,105.000004005432
304,64,83128,2,0,P|264:128|260:164,1,105.000004005432
224,328,83400,1,0,0:0:0:0:
224,328,83469,1,0,0:0:0:0:
224,328,83537,1,0,0:0:0:0:
104,248,83673,2,0,P|56:180|52:120,1,105.000004005432
304,84,84219,6,0,P|332:72|364:68,2,52.5000020027161
160,180,84491,1,0,0:0:0:0:
276,332,84628,1,0,0:0:0:0:
100,324,84764,1,0,0:0:0:0:
288,216,84900,1,0,0:0:0:0:
52,208,85037,1,0,0:0:0:0:
360,272,85173,1,0,0:0:0:0:
264,120,85310,2,0,P|212:80|152:60,1,105.000004005432
56,100,85582,2,0,P|108:140|168:160,1,105.000004005432
280,176,85855,5,0,0:0:0:0:
302,190,85923,1,0,0:0:0:0:
319,209,85991,1,0,0:0:0:0:
331,232,86059,1,0,0:0:0:0:
336,258,86127,1,0,0:0:0:0:
292,308,86196,5,0,0:0:0:0:
266,314,86264,1,0,0:0:0:0:
241,321,86332,1,0,0:0:0:0:
215,327,86400,1,0,0:0:0:0:
190,334,86468,1,0,0:0:0:0:
120,284,86537,5,0,0:0:0:0:
127,258,86605,1,0,0:0:0:0:
134,233,86673,1,0,0:0:0:0:
140,207,86741,1,0,0:0:0:0:
147,182,86809,1,0,0:0:0:0:
160,84,86878,5,0,0:0:0:0:
190,90,86946,1,0,0:0:0:0:
217,106,87014,1,0,0:0:0:0:
238,129,87082,1,0,0:0:0:0:
251,158,87150,1,0,0:0:0:0:
256,188,87219,2,0,P|256:256|252:304,1,105.000004005432
160,324,87491,5,0,0:0:0:0:
160,324,87559,1,0,0:0:0:0:
160,324,87627,1,0,0:0:0:0:
100,204,87764,2,0,P|80:152|88:92,1,105.000004005432
320,84,88036,2,0,P|340:136|328:196,1,105.000004005432
248,300,88309,1,0,0:0:0:0:
216,176,88445,1,0,0:0:0:0:
360,308,88582,2,0,P|412:284|440:228,1,105.000004005432
356,68,88855,1,0,0:0:0:0:
224,188,88991,1,0,0:0:0:0:
432,124,89127,1,0,0:0:0:0:
208,72,89264,1,0,0:0:0:0:
60,160,89400,2,0,P|20:224|16:260,1,105.000004005432
168,316,89673,2,0,P|208:252|212:216,1,105.000004005432
248,52,89945,1,0,0:0:0:0:
248,52,90014,1,0,0:0:0:0:
248,52,90082,1,0,0:0:0:0:
368,132,90218,2,0,P|416:200|420:260,1,105.000004005432
168,296,90764,6,0,P|140:308|108:312,2,52.5000020027161
312,200,91036,1,0,0:0:0:0:
196,48,91173,1,0,0:0:0:0:
372,56,91309,1,0,0:0:0:0:
184,164,91445,1,0,0:0:0:0:
420,172,91582,1,0,0:0:0:0:
112,108,91718,1,0,0:0:0:0:
208,260,91855,2,0,P|260:300|320:320,1,105.000004005432
416,280,92127,2,0,P|364:240|304:220,1,105.000004005432
192,204,92400,5,0,0:0:0:0:
170,190,92468,1,0,0:0:0:0:
153,171,92536,1,0,0:0:0:0:
141,148,92604,1,0,0:0:0:0:
136,122,92672,1,0,0:0:0:0:
180,72,92741,5,0,0:0:0:0:
206,66,92809,1,0,0:0:0:0:
231,59,92877,1,0,0:0:0:0:
257,53,92945,1,0,0:0:0:0:
282,46,93013,1,0,0:0:0:0:
352,96,93082,5,0,0:0:0:0:
345,122,93150,1,0,0:0:0:0:
338,147,93218,1,0,0:0:0:0:
332,173,93286,1,0,0:0:0:0:
325,198,93354,1,0,0:0:0:0:
312,296,93423,5,0,0:0:0:0:
282,290,93491,1,0,0:0:0:0:
255,274,93559,1,0,0:0:0:0:
234,251,93627,1,0,0:0:0:0:
221,222,93695,1,0,0:0:0:0:
216,192,93764,2,0,P|216:124|220:76,1,105.000004005432
340,88,94037,5,0,0:0:0:0:
340,140,94105,1,0,0:0:0:0:
340,193,94173,1,0,0:0:0:0:
224,328,94310,2,0,P|144:344|104:332,1,105.000004005432
64,124,94582,1,0,0:0:0:0:
196,212,94719,1,0,0:0:0:0:
44,264,94855,1,0,0:0:0:0:
172,84,94991,1,0,0:0:0:0:
368,256,95128,1,0,0:0:0:0:
240,48,95264,1,0,0:0:0:0:
280,320,95400,1,0,0:0:0:0:
340,48,95537,1,0,0:0:0:0:
424,168,95673,1,0,0:0:0:0:
439,217,95741,1,0,0:0:0:0:
430,268,95809,1,0,0:0:0:0:
316,336,95946,2,0,P|236:352|184:344,1,105.000004005432
200,216,96219,6,0,P|280:200|332:208,1,105.000004005432
416,280,96491,1,0,0:0:0:0:
416,280,96560,1,0,0:0:0:0:
416,280,96628,1,0,0:0:0:0:
488,160,96764,2,0,P|504:112|496:56,1,105.000004005432
172,296,97310,5,0,0:0:0:0:
172,244,97378,1,0,0:0:0:0:
172,191,97446,1,0,0:0:0:0:
288,56,97583,2,0,P|368:40|408:52,1,105.000004005432
448,260,97855,1,0,0:0:0:0:
316,172,97992,1,0,0:0:0:0:
468,120,98128,1,0,0:0:0:0:
340,300,98264,1,0,0:0:0:0:
144,128,98401,1,0,0:0:0:0:
272,336,98537,1,0,0:0:0:0:
232,64,98673,1,0,0:0:0:0:
172,336,98810,1,0,0:0:0:0:
88,216,98946,1,0,0:0:0:0:
73,167,99014,1,0,0:0:0:0:
82,116,99082,1,0,0:0:0:0:
196,48,99219,2,0,P|276:32|328:40,1,105.000004005432
312,168,99492,6,0,P|232:184|180:176,1,105.000004005432
96,104,99764,1,0,0:0:0:0:
96,104,99833,1,0,0:0:0:0:
96,104,99901,1,0,0:0:0:0:
24,224,100037,2,0,P|8:272|16:328,1,105.000004005432
156,336,100310,2,0,P|172:288|164:232,1,105.000004005432
112,96,100582,5,0,0:0:0:0:
112,96,100650,1,0,0:0:0:0:
112,96,100719,1,0,0:0:0:0:
256,56,100855,2,0,P|316:44|368:44,1,105.000004005432
448,136,101128,1,0,0:0:0:0:
432,276,101264,2,0,P|372:308|304:316,1,105.000004005432
116,240,101537,1,0,0:0:0:0:
328,176,101673,1,0,0:0:0:0:
96,120,101810,1,0,0:0:0:0:
224,324,101946,1,0,0:0:0:0:
248,80,102082,1,0,0:0:0:0:
88,276,102219,1,0,0:0:0:0:
88,276,102287,1,0,0:0:0:0:
88,276,102355,1,0,0:0:0:0:
232,340,102491,2,0,P|292:352|336:352,1,105.000004005432
352,224,102764,6,0,P|292:212|248:212,1,105.000004005432
104,260,103037,1,0,0:0:0:0:
200,56,103173,1,0,0:0:0:0:
56,128,103310,1,0,0:0:0:0:
232,300,103446,1,0,0:0:0:0:
400,288,103855,5,0,0:0:0:0:
400,288,103923,1,0,0:0:0:0:
400,288,103992,1,0,0:0:0:0:
256,328,104128,2,0,P|196:340|144:340,1,105.000004005432
64,248,104401,1,0,0:0:0:0:
80,108,104537,2,0,P|140:76|208:68,1,105.000004005432
396,144,104810,1,0,0:0:0:0:
184,208,104946,1,0,0:0:0:0:
416,264,105083,1,0,0:0:0:0:
288,60,105219,1,0,0:0:0:0:
264,304,105355,1,0,0:0:0:0:
424,108,105492,1,0,0:0:0:0:
424,108,105560,1,0,0:0:0:0:
424,108,105628,1,0,0:0:0:0:
280,44,105764,2,0,P|220:32|176:32,1,105.000004005432
160,160,106037,6,0,P|220:172|264:172,1,105.000004005432
408,124,106310,1,0,0:0:0:0:
312,328,106446,1,0,0:0:0:0:
456,256,106583,1,0,0:0:0:0:
280,84,106719,1,0,0:0:0:0:
256,73,106787,1,0,0:0:0:0:
230,70,106855,1,0,0:0:0:0:
204,74,106923,1,0,0:0:0:0:
180,85,106991,1,0,0:0:0:0:
161,102,107059,1,0,0:0:0:0:
147,125,107128,5,12,0:0:0:0:
360,68,109310,5,0,0:0:0:0:
408,188,109446,2,0,P|428:216|448:228,2,52.5000020027161
448,112,109719,5,0,0:0:0:0:
280,116,109855,2,0,P|246:110|226:97,2,52.5000020027161
336,208,110128,6,0,P|336:264|288:296,1,105.000004005432
120,304,110400,1,0,0:0:0:0:
64,156,110537,1,0,0:0:0:0:
232,204,110673,1,0,0:0:0:0:
36,280,110810,2,0,P|60:340|100:360,1,105.000004005432
264,352,111082,2,0,P|332:340|376:296,1,105.000004005432
392,164,111355,1,0,0:0:0:0:
180,84,111491,5,0,0:0:0:0:
149,103,111559,1,0,0:0:0:0:
124,130,111627,1,0,0:0:0:0:
108,163,111695,1,0,0:0:0:0:
102,199,111763,1,0,0:0:0:0:
184,328,111900,2,0,P|240:344|296:328,1,105.000004005432
240,256,112173,2,0,P|288:208|428:248,1,210.000008010865
336,292,112719,1,0,0:0:0:0:
312,132,112855,1,0,0:0:0:0:
305,79,112923,1,0,0:0:0:0:
299,27,112991,1,0,0:0:0:0:
192,28,113128,1,0,0:0:0:0:
168,188,113264,1,0,0:0:0:0:
161,240,113332,1,0,0:0:0:0:
155,292,113400,1,0,0:0:0:0:
420,312,113673,6,0,L|428:164,1,105.000004005432
404,56,113946,1,0,0:0:0:0:
212,120,114082,1,0,0:0:0:0:
160,320,114219,1,0,0:0:0:0:
134,325,114287,1,0,0:0:0:0:
109,319,114355,1,0,0:0:0:0:
88,303,114423,1,0,0:0:0:0:
76,280,114491,1,0,0:0:0:0:
76,253,114559,1,0,0:0:0:0:
76,227,114627,1,0,0:0:0:0:
76,201,114695,1,0,0:0:0:0:
152,128,114764,6,0,L|112:168,1,52.5000020027161,8|0,0:0|0:0,0:0:0:0:
192,204,114900,2,0,L|252:244,1,52.5000020027161,8|0,0:0|0:0,0:0:0:0:
128,264,115037,2,0,L|88:304,1,52.5000020027161,8|0,0:0|0:0,0:0:0:0:
200,312,115173,2,0,L|260:352,1,52.5000020027161,8|0,0:0|0:0,0:0:0:0:
384,308,115309,6,0,L|424:268,1,52.5000020027161,8|0,0:0|0:0,0:0:0:0:
308,216,115445,2,0,L|248:176,1,52.5000020027161,8|0,0:0|0:0,0:0:0:0:
440,140,115582,2,0,L|480:100,1,52.5000020027161,8|0,0:0|0:0,0:0:0:0:
304,80,115718,2,0,L|244:40,1,52.5000020027161,8|0,0:0|0:0,0:0:0:0:
76,124,115855,5,0,0:0:0:0:
76,124,115923,1,0,0:0:0:0:
76,124,115991,1,0,0:0:0:0:
284,320,116128,2,0,P|348:348|392:352,1,105.000004005432
444,76,116400,1,0,0:0:0:0:
188,236,116537,1,0,0:0:0:0:
424,228,116673,1,0,0:0:0:0:
264,60,116810,2,0,P|196:44|136:56,1,105.000004005432
48,172,117082,1,0,0:0:0:0:
128,296,117219,1,0,0:0:0:0:
168,328,117287,1,0,0:0:0:0:
217,347,117355,1,0,0:0:0:0:
269,350,117423,1,0,0:0:0:0:
320,337,117491,1,0,0:0:0:0:
432,248,117628,2,0,P|456:184|456:140,1,105.000004005432
360,24,117900,1,0,0:0:0:0:
108,68,118037,6,0,P|64:76|48:84,2,52.5000020027161
376,188,118310,1,0,0:0:0:0:
100,312,118446,1,0,0:0:0:0:
288,80,118582,1,0,0:0:0:0:
288,80,118650,1,0,0:0:0:0:
288,80,118719,1,0,0:0:0:0:
332,344,118855,1,0,0:0:0:0:
112,128,118991,1,0,0:0:0:0:
388,68,119128,6,0,P|436:124|436:268,1,210.000008010865
124,316,119537,2,0,P|76:260|76:116,1,210.000008010865
248,80,119946,1,0,0:0:0:0:
284,117,120014,1,0,0:0:0:0:
307,164,120082,1,0,0:0:0:0:
313,216,120150,1,0,0:0:0:0:
301,267,120219,6,0,P|288:304|280:320,2,52.5000020027161
228,40,120491,1,0,0:0:0:0:
52,212,120628,2,0,P|84:300|124:320,1,105.000004005432
360,128,120900,1,0,0:0:0:0:
64,108,121037,1,0,0:0:0:0:
400,304,121173,1,0,0:0:0:0:
280,68,121310,2,0,P|216:44|160:52,1,105.000004005432
12,184,121582,1,0,0:0:0:0:
128,332,121719,2,0,P|208:356|336:336,1,210.000008010865
372,88,122128,1,0,0:0:0:0:
464,256,122264,1,0,0:0:0:0:
268,120,122400,6,0,P|104:64|68:72,1,210.000008010865
76,288,122810,2,8,P|112:304|152:304,3,52.5000020027161
160,232,123082,2,4,P|200:228|240:232,3,52.5000020027161
224,312,123355,2,2,P|264:316|304:312,3,52.5000020027161
372,252,123628,6,0,L|412:212,1,52.5000020027161,0|0,0:0|0:0,0:0:0:0:
332,176,123764,2,0,L|272:136,1,52.5000020027161,0|0,0:0|0:0,0:0:0:0:
396,116,123901,2,0,L|436:76,1,52.5000020027161,0|0,0:0|0:0,0:0:0:0:
324,68,124037,2,0,L|264:28,1,52.5000020027161,0|0,0:0|0:0,0:0:0:0:
140,72,124173,6,0,L|100:112,1,52.5000020027161,0|0,0:0|0:0,0:0:0:0:
216,164,124309,2,0,L|276:204,1,52.5000020027161,0|0,0:0|0:0,0:0:0:0:
84,240,124446,2,0,L|44:280,1,52.5000020027161,0|0,0:0|0:0,0:0:0:0:
220,300,124582,6,0,L|280:340,1,52.5000020027161
284,344,124719,1,0,0:0:0:0:
297,355,124787,1,0,0:0:0:0:
312,364,124855,1,0,0:0:0:0:
328,370,124923,1,0,0:0:0:0:
345,374,124991,1,0,0:0:0:0:
362,374,125059,1,0,0:0:0:0:
380,371,125128,1,0,0:0:0:0:
396,365,125196,1,0,0:0:0:0:
411,356,125264,1,0,0:0:0:0:
424,344,125332,1,0,0:0:0:0:
435,331,125400,1,0,0:0:0:0:
444,316,125469,1,0,0:0:0:0:
449,299,125537,1,0,0:0:0:0:
451,282,125605,1,0,0:0:0:0:
452,264,125673,6,0,P|452:224|444:192,5,52.5000020027161
360,192,126082,6,0,P|360:152|368:120,5,52.5000020027161
460,92,126491,5,0,0:0:0:0:
424,53,126559,1,0,0:0:0:0:
376,34,126627,1,0,0:0:0:0:
324,39,126695,1,0,0:0:0:0:
280,67,126764,5,0,0:0:0:0:
285,87,126832,1,0,0:0:0:0:
287,108,126900,1,0,0:0:0:0:
285,128,126968,1,0,0:0:0:0:
279,149,127036,1,0,0:0:0:0:
270,167,127104,1,0,0:0:0:0:
257,184,127173,1,0,0:0:0:0:
242,198,127241,1,0,0:0:0:0:
224,210,127309,1,0,0:0:0:0:
205,217,127377,1,0,0:0:0:0:
184,222,127445,1,0,0:0:0:0:
163,222,127514,1,0,0:0:0:0:
143,218,127582,1,0,0:0:0:0:
123,211,127650,1,0,0:0:0:0:
105,201,127718,1,0,0:0:0:0:
89,187,127786,1,0,0:0:0:0:
76,168,127855,6,0,P|76:128|84:96,5,52.5000020027161
168,96,128264,6,0,P|168:56|160:24,5,52.5000020027161
292,40,128673,5,0,0:0:0:0:
306,89,128741,1,0,0:0:0:0:
294,140,128809,1,0,0:0:0:0:
258,177,128877,1,0,0:0:0:0:
208,191,128946,5,0,0:0:0:0:
181,199,129014,1,0,0:0:0:0:
158,215,129082,1,0,0:0:0:0:
142,238,129150,1,0,0:0:0:0:
133,264,129218,1,0,0:0:0:0:
132,292,129286,1,0,0:0:0:0:
139,319,129355,1,0,0:0:0:0:
155,342,129423,1,0,0:0:0:0:
177,360,129491,1,0,0:0:0:0:
203,370,129559,1,0,0:0:0:0:
230,372,129627,1,0,0:0:0:0:
258,365,129696,1,0,0:0:0:0:
281,350,129764,1,0,0:0:0:0:
300,329,129832,1,0,0:0:0:0:
311,304,129900,1,0,0:0:0:0:
314,276,129968,1,0,0:0:0:0:
312,256,130037,6,0,P|312:216|304:184,1,52.5000020027161
228,220,130173,2,0,P|228:180|236:148,1,52.5000020027161
304,132,130310,2,0,P|304:92|296:60,1,52.5000020027161
224,84,130446,2,0,P|224:44|232:12,1,52.5000020027161
296,4,130582,5,0,0:0:0:0:
322,1,130650,1,0,0:0:0:0:
347,5,130718,1,0,0:0:0:0:
371,17,130786,1,0,0:0:0:0:
391,33,130854,1,0,0:0:0:0:
406,55,130922,1,0,0:0:0:0:
414,80,130991,1,0,0:0:0:0:
416,106,131059,1,0,0:0:0:0:
416,128,131128,6,0,L|408:200,6,52.5000020027161
320,200,131605,2,0,L|328:272,6,52.5000020027161
232,172,132082,2,0,L|224:100,1,52.5000020027161
216,52,132219,6,0,L|208:-20,1,52.5000020027161
140,48,132355,2,0,L|132:120,1,52.5000020027161
124,164,132491,2,0,L|116:236,1,52.5000020027161
108,284,132628,2,0,L|100:356,1,52.5000020027161
176,376,132764,6,0,L|212:304,1,52.5000020027161
232,272,132900,2,0,L|268:200,1,52.5000020027161
288,168,133037,2,0,L|324:96,1,52.5000020027161
344,64,133173,2,0,L|380:-8,1,52.5000020027161
436,4,133310,5,0,0:0:0:0:
463,71,133378,1,0,0:0:0:0:
465,144,133446,1,0,0:0:0:0:
440,213,133514,1,0,0:0:0:0:
391,268,133582,1,0,0:0:0:0:
327,301,133650,1,0,0:0:0:0:
254,309,133719,1,0,0:0:0:0:
183,290,133787,1,0,0:0:0:0:
144,236,133855,5,0,0:0:0:0:
93,249,133923,1,0,0:0:0:0:
44,234,133991,1,0,0:0:0:0:
10,194,134059,1,0,0:0:0:0:
3,143,134127,1,0,0:0:0:0:
23,96,134195,1,0,0:0:0:0:
66,67,134264,1,0,0:0:0:0:
118,65,134332,1,0,0:0:0:0:
163,91,134400,5,0,0:0:0:0:
132,133,134468,1,0,0:0:0:0:
128,184,134536,1,0,0:0:0:0:
150,231,134604,1,0,0:0:0:0:
193,261,134672,1,0,0:0:0:0:
244,264,134740,1,0,0:0:0:0:
291,242,134809,1,0,0:0:0:0:
320,198,134877,1,0,0:0:0:0:
322,147,134946,5,0,0:0:0:0:
352,189,135014,1,0,0:0:0:0:
356,240,135082,1,0,0:0:0:0:
334,287,135150,1,0,0:0:0:0:
291,317,135218,1,0,0:0:0:0:
240,320,135286,1,0,0:0:0:0:
193,298,135355,1,0,0:0:0:0:
164,254,135423,1,0,0:0:0:0:
162,203,135491,5,12,0:0:0:0:
