osu file format v14

[General]
AudioFilename: audio.ogg
AudioLeadIn: 0
PreviewTime: 324855
Countdown: 0
SampleSet: Normal
StackLeniency: 0.7
Mode: 2
LetterboxInBreaks: 0
WidescreenStoryboard: 1

[Editor]
Bookmarks: 44079,205183,428644,438012
DistanceSpacing: 0.1
BeatDivisor: 12
GridSize: 4
TimelineZoom: 6.699996

[Metadata]
Title:Songs Compilation
TitleUnicode:Songs Compilation
Artist:Rings of Saturn
ArtistUnicode:Rings of Saturn
Creator:fuhie
Version:Nise Matati Kisitti Qatiya
Source:
Tags:lugal ki en deathcore technical death metal instrumental stream mazzerin english marathon compilation aliencore senseless massacre desolate paradise fractal intake
BeatmapID:4254301
BeatmapSetID:2039523

[Difficulty]
HPDrainRate:1
CircleSize:4.5
OverallDifficulty:10
ApproachRate:10
SliderMultiplier:2.2
SliderTickRate:2

[Events]
//Background and Video events
0,0,"FINALE.jpg",0,0
//Break Periods
//Storyboard Layer 0 (Background)
//Storyboard Layer 1 (Fail)
//Storyboard Layer 2 (Pass)
//Storyboard Layer 3 (Foreground)
//Storyboard Layer 4 (Overlay)
//Storyboard Sound Samples

[TimingPoints]
682,222.222222222222,4,1,5,40,1,0
682,-121.951219512195,4,1,5,40,0,0
901,-121.951219512195,4,1,5,40,0,0
904,-121.951219512195,4,1,8,40,0,0
1348,-121.951219512195,4,1,5,40,0,0
1793,-121.951219512195,4,1,5,40,0,0
2015,-121.951219512195,4,1,5,40,0,0
2234,-121.951219512195,4,1,5,40,0,0
2237,-121.951219512195,4,1,8,40,0,0
2459,-121.951219512195,4,1,5,40,0,0
2681,-121.951219512195,4,1,10,40,0,0
2901,-121.951219512195,4,1,10,40,0,0
3348,-121.951219512195,4,1,8,40,0,0
3793,-121.951219512195,4,1,17,40,0,0
4237,-111.111111111111,4,1,17,40,0,1
6459,-111.111111111111,4,1,17,40,0,1
6570,-111.111111111111,4,1,17,40,0,1
6681,-111.111111111111,4,1,17,40,0,1
6793,-111.111111111111,4,1,17,40,0,1
6904,-121.951219512195,4,1,5,40,0,1
7015,-121.951219512195,4,1,5,40,0,0
7126,-121.951219512195,4,2,5,40,0,0
7237,-121.951219512195,4,2,5,40,0,0
7348,-121.951219512195,4,2,5,40,0,0
7570,-121.951219512195,4,2,5,40,0,0
7793,-121.951219512195,4,1,11,40,0,0
9126,-121.951219512195,4,1,11,40,0,0
9570,-121.951219512195,4,1,17,40,0,0
10904,-121.951219512195,4,1,17,40,0,0
11348,-121.951219512195,4,1,21,40,0,0
11793,-121.951219512195,4,1,21,40,0,0
11959,-121.951219512195,4,1,21,40,0,0
12237,-121.951219512195,4,1,17,40,0,0
12459,-121.951219512195,4,1,5,40,0,0
12626,-121.951219512195,4,1,5,40,0,0
12681,-121.951219512195,4,1,17,40,0,0
12904,-121.951219512195,4,1,5,40,0,0
13126,-121.951219512195,4,1,17,40,0,0
13237,-121.951219512195,4,1,17,40,0,0
13348,-121.951219512195,4,1,8,40,0,0
13570,-121.951219512195,4,1,17,40,0,0
13681,-121.951219512195,4,1,8,40,0,0
14015,-121.951219512195,4,1,21,40,0,0
14904,-121.951219512195,4,1,11,40,0,0
15346,-121.951219512195,4,1,11,40,0,0
15793,-121.951219512195,4,1,5,40,0,0
16015,-121.951219512195,4,1,5,40,0,0
16237,-121.951219512195,4,1,12,40,0,0
16293,-121.951219512195,4,2,12,30,0,0
16459,-121.951219512195,4,1,12,40,0,0
16515,-121.951219512195,4,2,12,30,0,0
16681,-121.951219512195,4,1,5,40,0,1
16904,-121.951219512195,4,1,5,40,0,1
17348,-121.951219512195,4,1,21,40,0,0
17793,-121.951219512195,4,1,5,40,0,0
18015,-121.951219512195,4,1,5,40,0,0
18237,-121.951219512195,4,1,17,40,0,0
18459,-121.951219512195,4,1,21,40,0,0
18904,-121.951219512195,4,1,21,40,0,0
19237,-121.951219512195,4,1,21,40,0,0
19293,-121.951219512195,4,2,5,5,0,0
19348,-121.951219512195,4,1,17,40,0,0
19570,-121.951219512195,4,1,17,40,0,0
19681,-121.951219512195,4,1,5,40,0,0
19737,-121.951219512195,4,1,5,40,0,0
19793,-121.951219512195,4,1,17,40,0,0
20015,-121.951219512195,4,1,5,40,0,0
20237,-121.951219512195,4,1,17,40,0,0
20348,-121.951219512195,4,1,17,40,0,0
20459,-121.951219512195,4,1,8,40,0,0
20681,-121.951219512195,4,1,17,40,0,0
20793,-121.951219512195,4,1,8,40,0,0
21126,-121.951219512195,4,1,21,40,0,0
21348,-121.951219512195,4,1,21,40,0,0
21570,-121.951219512195,4,2,5,40,0,0
21793,-121.951219512195,4,2,5,40,0,0
22015,-121.951219512195,4,1,11,40,0,0
22459,-121.951219512195,4,1,11,40,0,0
22904,-121.951219512195,4,1,5,40,0,0
22957,-121.951219512195,4,1,5,40,0,0
23126,-121.951219512195,4,1,5,40,0,0
23179,-121.951219512195,4,1,5,40,0,0
23348,-121.951219512195,4,1,12,40,0,0
23570,-121.951219512195,4,1,12,40,0,0
23793,-121.951219512195,4,1,17,40,0,0
38234,-121.951219512195,4,1,17,40,0,0
38459,-121.951219512195,4,1,17,40,0,0
38681,-121.951219512195,4,1,7,40,0,0
38904,-121.951219512195,4,1,5,40,0,0
39126,-111.111111111111,4,1,8,40,0,0
39348,-111.111111111111,4,1,8,40,0,0
39793,-111.111111111111,4,1,5,40,0,1
40237,-111.111111111111,4,1,11,40,0,1
40293,-111.111111111111,4,1,11,40,0,1
40681,-111.111111111111,4,1,13,40,0,1
40737,-111.111111111111,4,1,11,40,0,1
40904,-111.111111111111,4,1,11,40,0,1
41348,-111.111111111111,4,1,13,40,0,1
41793,-111.111111111111,4,1,11,40,0,1
42015,-111.111111111111,4,1,11,40,0,1
42459,-111.111111111111,4,1,13,40,0,1
43348,-111.111111111111,4,1,13,40,0,1
43793,-111.111111111111,4,1,11,40,0,1
44126,-111.111111111111,4,1,11,40,0,1
44348,-111.111111111111,4,1,11,40,0,1
44570,-111.111111111111,4,1,8,40,0,1
44679,-111.111111111111,4,1,8,40,0,1
44793,-111.111111111111,4,1,11,40,0,1
45126,-111.111111111111,4,1,7,40,0,1
45348,-111.111111111111,4,1,7,40,0,1
45404,-111.111111111111,4,1,7,40,0,1
45793,-111.111111111111,4,1,13,40,0,1
45848,-111.111111111111,4,1,7,40,0,1
46459,-111.111111111111,4,1,7,40,0,1
46681,-111.111111111111,4,1,7,40,0,1
46904,-111.111111111111,4,1,13,40,0,1
47126,-111.111111111111,4,1,11,40,0,1
47348,-111.111111111111,4,1,11,40,0,1
47404,-111.111111111111,4,1,11,40,0,1
47792,-111.111111111111,4,1,13,40,0,1
47848,-111.111111111111,4,1,11,40,0,1
48015,-111.111111111111,4,1,11,40,0,1
48070,-111.111111111111,4,1,11,40,0,1
48459,-111.111111111111,4,1,13,40,0,1
48515,-111.111111111111,4,1,11,40,0,1
49126,-111.111111111111,4,1,11,40,0,1
49570,-111.111111111111,4,1,13,40,0,1
50237,-111.111111111111,4,1,13,40,0,1
50681,-111.111111111111,4,1,11,40,0,1
51237,-111.111111111111,4,1,11,40,0,1
51459,-111.111111111111,4,1,11,40,0,1
51681,-111.111111111111,4,1,8,40,0,1
51793,-111.111111111111,4,1,8,40,0,1
51904,-111.111111111111,4,1,11,40,0,1
52237,-111.111111111111,4,1,7,40,0,1
52459,-111.111111111111,4,1,7,40,0,1
52904,-111.111111111111,4,1,13,40,0,1
53570,-111.111111111111,4,1,13,40,0,1
54015,-121.951219512195,4,1,21,40,0,0
54401,-121.951219512195,4,1,21,40,0,0
54457,-121.951219512195,4,1,21,40,0,0
54789,-121.951219512195,4,1,21,40,0,0
54848,-121.951219512195,4,2,5,15,0,0
54900,-121.951219512195,4,2,5,15,0,0
54904,-121.951219512195,4,1,17,40,0,0
55122,-121.951219512195,4,1,17,40,0,0
55236,-121.951219512195,4,1,5,40,0,0
55290,-121.951219512195,4,1,5,40,0,0
55347,-121.951219512195,4,1,17,40,0,0
55569,-121.951219512195,4,1,5,40,0,0
55793,-121.951219512195,4,1,17,40,0,0
55901,-121.951219512195,4,1,17,40,0,0
56015,-121.951219512195,4,1,8,40,0,0
56234,-121.951219512195,4,1,8,40,0,0
56237,-121.951219512195,4,1,17,40,0,0
56348,-121.951219512195,4,1,8,40,0,0
56681,-121.951219512195,4,1,21,40,0,0
56846,-121.951219512195,4,1,21,40,0,0
56901,-121.951219512195,4,1,21,40,0,0
57123,-121.951219512195,4,1,21,40,0,0
57126,-121.951219512195,4,2,5,40,0,0
57348,-121.951219512195,4,2,5,40,0,0
57570,-121.951219512195,4,1,11,40,0,0
58012,-121.951219512195,4,1,11,40,0,0
58459,-121.951219512195,4,1,5,40,0,0
58512,-121.951219512195,4,1,5,40,0,0
58679,-121.951219512195,4,1,5,40,0,0
58734,-121.951219512195,4,1,5,40,0,0
58901,-121.951219512195,4,1,5,40,0,0
58904,-121.951219512195,4,1,12,40,0,0
59126,-121.951219512195,4,1,12,40,0,0
59348,-121.951219512195,4,1,5,40,0,1
59570,-121.951219512195,4,1,5,40,0,1
59959,-121.951219512195,4,1,5,40,0,0
60015,-121.951219512195,4,1,21,40,0,0
60458,-121.951219512195,4,1,5,40,0,0
60679,-121.951219512195,4,1,5,40,0,0
60903,-121.951219512195,4,1,17,40,0,0
61126,-121.951219512195,4,1,21,40,0,0
61512,-121.951219512195,4,1,21,40,0,0
61568,-121.951219512195,4,1,21,40,0,0
61900,-121.951219512195,4,1,21,40,0,0
62015,-121.951219512195,4,1,17,40,0,0
62234,-121.951219512195,4,1,17,40,0,0
62347,-121.951219512195,4,1,5,40,0,0
62401,-121.951219512195,4,1,5,40,0,0
62458,-121.951219512195,4,1,17,40,0,0
62681,-121.951219512195,4,1,5,40,0,0
62904,-121.951219512195,4,1,17,40,0,0
63012,-121.951219512195,4,1,17,40,0,0
63126,-121.951219512195,4,1,8,40,0,0
63348,-121.951219512195,4,1,17,40,0,0
63459,-121.951219512195,4,1,8,40,0,0
63790,-121.951219512195,4,1,8,40,0,0
63793,-121.951219512195,4,1,21,40,0,0
63957,-121.951219512195,4,1,21,40,0,0
64012,-121.951219512195,4,1,21,40,0,0
64234,-121.951219512195,4,1,21,40,0,0
64237,-121.951219512195,4,2,5,40,0,0
64459,-121.951219512195,4,2,5,40,0,0
64681,-121.951219512195,4,1,11,40,0,0
65123,-121.951219512195,4,1,11,40,0,0
65570,-121.951219512195,4,1,5,40,0,0
65623,-121.951219512195,4,1,5,40,0,0
65790,-121.951219512195,4,1,5,40,0,0
65846,-121.951219512195,4,1,5,40,0,0
66015,-121.951219512195,4,1,12,40,0,0
66237,-121.951219512195,4,1,12,40,0,0
66459,-121.951219512195,4,1,5,40,0,0
66901,-121.951219512195,4,1,5,40,0,0
67348,-121.951219512195,4,1,8,40,0,0
67790,-121.951219512195,4,1,8,40,0,0
67901,-121.951219512195,4,1,8,40,0,0
68237,-111.111111111111,4,1,13,40,0,1
68348,-111.111111111111,4,2,13,40,0,1
68681,-111.111111111111,4,2,13,40,0,1
68793,-111.111111111111,4,2,13,40,0,1
68904,-111.111111111111,4,2,13,40,0,1
69126,-111.111111111111,4,1,17,40,0,1
69237,-111.111111111111,4,2,13,40,0,1
69348,-111.111111111111,4,1,5,40,0,1
69459,-111.111111111111,4,1,5,40,0,1
69570,-111.111111111111,4,2,13,40,0,1
69681,-111.111111111111,4,1,13,40,0,1
69793,-111.111111111111,4,2,13,40,0,1
69904,-111.111111111111,4,1,13,40,0,1
70015,-111.111111111111,4,2,13,40,0,1
70126,-111.111111111111,4,1,13,40,0,1
70237,-52.6315789473684,4,1,5,40,0,1
70348,-111.111111111111,4,2,13,40,0,1
70459,-111.111111111111,4,2,13,40,0,1
70793,-111.111111111111,4,2,13,40,0,1
70901,-111.111111111111,4,2,13,40,0,1
70904,-111.111111111111,4,1,5,40,0,1
71012,-111.111111111111,4,1,5,40,0,1
71123,-111.111111111111,4,1,5,40,0,1
71237,-111.111111111111,4,2,13,40,0,1
71348,-111.111111111111,4,1,5,40,0,1
71404,-111.111111111111,4,1,5,40,0,1
71459,-111.111111111111,4,2,13,40,0,1
71570,-111.111111111111,4,1,5,40,0,1
71681,-111.111111111111,4,2,13,40,0,1
71793,-111.111111111111,4,1,15,40,0,1
71848,-111.111111111111,4,2,13,40,0,1
71904,-111.111111111111,4,1,13,40,0,1
72015,-111.111111111111,4,2,13,40,0,1
72126,-50,4,1,13,40,0,1
72237,-111.111111111111,4,2,13,40,0,1
72348,-111.111111111111,4,1,13,40,0,1
72459,-111.111111111111,4,2,13,40,0,1
72570,-111.111111111111,4,1,13,40,0,1
72681,-111.111111111111,4,1,13,40,0,1
72793,-111.111111111111,4,1,14,40,0,1
72904,-111.111111111111,4,2,13,40,0,1
73015,-111.111111111111,4,1,14,40,0,1
73126,-111.111111111111,4,1,15,40,0,1
73237,-111.111111111111,4,1,14,40,0,1
73571,-111.111111111111,4,1,5,40,0,1
73793,-111.111111111111,4,1,5,40,0,1
74015,-111.111111111111,4,1,5,40,0,1
74237,-111.111111111111,4,1,13,40,0,1
74459,-111.111111111111,4,1,5,40,0,1
74904,-111.111111111111,4,1,5,40,0,1
75015,-111.111111111111,4,1,5,40,0,1
75348,-111.111111111111,4,1,13,40,0,1
75459,-111.111111111111,4,2,13,40,0,1
75793,-111.111111111111,4,2,13,40,0,1
75904,-111.111111111111,4,2,13,40,0,1
76015,-111.111111111111,4,2,13,40,0,1
76237,-111.111111111111,4,1,17,40,0,1
76348,-111.111111111111,4,2,13,40,0,1
76459,-111.111111111111,4,1,5,40,0,1
76570,-111.111111111111,4,1,5,40,0,1
76681,-111.111111111111,4,2,13,40,0,1
76793,-111.111111111111,4,1,13,40,0,1
76904,-111.111111111111,4,2,13,40,0,1
77015,-111.111111111111,4,1,13,40,0,1
77126,-111.111111111111,4,1,15,40,0,1
77237,-111.111111111111,4,1,13,40,0,1
77348,-50,4,1,5,40,0,1
77459,-111.111111111111,4,2,13,40,0,1
77570,-111.111111111111,4,2,13,40,0,1
77904,-111.111111111111,4,2,13,40,0,1
78015,-111.111111111111,4,1,5,40,0,1
78126,-111.111111111111,4,1,5,40,0,1
78237,-111.111111111111,4,1,5,40,0,1
78348,-111.111111111111,4,2,13,40,0,1
78459,-111.111111111111,4,1,5,40,0,1
78515,-111.111111111111,4,1,5,40,0,1
78570,-111.111111111111,4,2,13,40,0,1
78681,-111.111111111111,4,1,5,40,0,1
78793,-111.111111111111,4,2,13,40,0,1
78904,-111.111111111111,4,1,15,40,0,1
78959,-111.111111111111,4,2,15,40,0,1
79015,-111.111111111111,4,1,13,40,0,1
79126,-111.111111111111,4,2,13,40,0,1
79237,-50,4,1,13,40,0,1
79348,-111.111111111111,4,2,15,40,0,1
79459,-111.111111111111,4,1,13,40,0,1
79570,-111.111111111111,4,2,13,40,0,1
79681,-111.111111111111,4,1,13,40,0,1
79793,-111.111111111111,4,1,13,40,0,1
79904,-111.111111111111,4,1,14,40,0,1
80015,-111.111111111111,4,2,13,40,0,1
80126,-111.111111111111,4,1,14,40,0,1
80237,-111.111111111111,4,1,15,40,0,1
80348,-111.111111111111,4,1,14,40,0,1
80681,-111.111111111111,4,1,5,40,0,1
80901,-111.111111111111,4,1,5,40,0,1
81348,-111.111111111111,4,1,13,40,0,1
82026,-111.111111111111,4,1,13,40,0,1
82459,-121.951219512195,4,1,13,40,0,0
82473,-121.951219512195,4,2,20,15,0,0
82901,-121.951219512195,4,2,20,15,0,0
83348,-121.951219512195,4,1,13,40,0,0
85582,-121.951219512195,4,1,13,40,0,0
86015,-152.671755725191,4,1,13,40,0,0
86029,-152.671755725191,4,2,20,15,0,0
86457,-152.671755725191,4,2,20,15,0,0
86904,-153.846153846154,4,1,13,40,0,0
87793,-121.951219512195,4,1,13,40,0,0
88679,-121.951219512195,4,1,13,40,0,0
88901,-121.951219512195,4,1,13,40,0,0
89126,-121.951219512195,4,1,8,40,0,0
89137,-121.951219512195,4,1,8,40,0,0
89348,-121.951219512195,4,1,13,40,0,0
89570,-125,4,1,13,40,0,0
90012,-125,4,1,13,40,0,0
90459,-121.951219512195,4,1,13,40,0,0
92234,-121.951219512195,4,1,13,40,0,0
92237,-50,4,1,13,40,0,0
92457,-50,4,1,13,40,0,0
92681,-121.951219512195,4,1,8,40,0,0
92904,-121.951219512195,4,1,13,40,0,0
94459,-121.951219512195,4,1,13,40,0,0
94904,-121.951219512195,4,1,8,40,0,0
95126,-121.951219512195,4,1,8,40,0,0
95570,-121.951219512195,4,1,13,40,0,0
95790,-121.951219512195,4,1,13,40,0,0
96234,-121.951219512195,4,1,13,40,0,0
96237,-121.951219512195,4,1,8,40,0,0
96346,-121.951219512195,4,1,8,40,0,0
96681,-111.111111111111,4,1,13,40,0,1
96793,-111.111111111111,4,2,13,40,0,1
97126,-111.111111111111,4,2,13,40,0,1
97237,-111.111111111111,4,2,13,40,0,1
97348,-111.111111111111,4,2,13,40,0,1
97570,-111.111111111111,4,1,13,40,0,1
97681,-111.111111111111,4,2,13,40,0,1
97790,-111.111111111111,4,2,13,40,0,1
97793,-111.111111111111,4,1,5,40,0,1
97901,-111.111111111111,4,1,5,40,0,1
98015,-111.111111111111,4,2,5,40,0,1
98126,-111.111111111111,4,1,8,40,0,1
98237,-111.111111111111,4,2,5,40,0,1
98348,-111.111111111111,4,1,8,40,0,1
98459,-111.111111111111,4,1,15,40,0,1
98570,-111.111111111111,4,1,8,40,0,1
98681,-50,4,1,5,40,0,1
98793,-111.111111111111,4,2,8,40,0,1
98901,-111.111111111111,4,2,8,40,0,1
99015,-111.111111111111,4,1,8,40,0,1
99126,-111.111111111111,4,2,8,40,0,1
99237,-111.111111111111,4,1,8,40,0,1
99348,-111.111111111111,4,1,22,40,0,1
99459,-111.111111111111,4,1,5,40,0,1
99681,-111.111111111111,4,2,5,40,0,1
99793,-111.111111111111,4,1,5,40,0,1
99848,-111.111111111111,4,1,5,40,0,1
100126,-111.111111111111,4,2,5,40,0,1
100237,-111.111111111111,4,1,15,40,0,1
100293,-111.111111111111,4,2,5,40,0,1
100570,-50,4,2,5,40,0,1
100681,-50,4,2,5,40,0,1
100793,-111.111111111111,4,2,5,40,0,1
100904,-111.111111111111,4,2,5,40,0,1
101015,-111.111111111111,4,1,5,40,0,1
101126,-111.111111111111,4,1,13,40,0,1
101237,-111.111111111111,4,2,13,40,0,1
101348,-111.111111111111,4,1,14,40,0,1
101570,-111.111111111111,4,1,14,40,0,1
102015,-111.111111111111,4,1,5,40,0,1
102237,-111.111111111111,4,1,5,40,0,1
102681,-111.111111111111,4,1,13,40,0,1
103459,-111.111111111111,4,1,13,40,0,1
103793,-111.111111111111,4,1,13,40,0,1
103904,-111.111111111111,4,2,13,40,0,1
104237,-111.111111111111,4,1,15,40,0,1
104348,-111.111111111111,4,2,13,40,0,1
104459,-111.111111111111,4,2,13,40,0,1
104681,-111.111111111111,4,1,13,40,0,1
104793,-111.111111111111,4,2,13,40,0,1
104904,-111.111111111111,4,1,5,40,0,1
105126,-111.111111111111,4,1,15,40,0,1
105237,-111.111111111111,4,1,13,40,0,1
105348,-111.111111111111,4,1,13,40,0,1
105570,-111.111111111111,4,1,13,40,0,1
105681,-111.111111111111,4,1,13,40,0,1
105793,-50,4,1,5,40,0,1
106015,-111.111111111111,4,1,15,40,0,1
106126,-111.111111111111,4,2,15,40,0,1
106348,-111.111111111111,4,2,15,40,0,1
106459,-111.111111111111,4,1,5,40,0,1
106570,-111.111111111111,4,1,5,40,0,1
106681,-111.111111111111,4,1,5,40,0,1
106789,-111.111111111111,4,1,5,40,0,1
106792,-111.111111111111,4,2,5,40,0,1
106903,-111.111111111111,4,1,18,40,0,1
106959,-111.111111111111,4,1,18,40,0,1
107015,-111.111111111111,4,2,5,40,0,1
107126,-111.111111111111,4,1,5,40,0,1
107237,-111.111111111111,4,2,5,40,0,1
107348,-111.111111111111,4,1,15,40,0,1
107404,-111.111111111111,4,2,5,40,0,1
107570,-111.111111111111,4,1,5,40,0,1
107681,-50,4,1,5,40,0,1
107792,-111.111111111111,4,1,13,40,0,1
107848,-111.111111111111,4,2,5,40,0,1
107904,-111.111111111111,4,2,5,40,0,1
108015,-111.111111111111,4,1,5,40,0,1
108126,-111.111111111111,4,1,7,40,0,1
108237,-111.111111111111,4,1,13,40,0,1
108348,-111.111111111111,4,2,13,40,0,1
108570,-111.111111111111,4,1,15,40,0,1
108681,-111.111111111111,4,2,15,40,0,1
108793,-111.111111111111,4,1,14,40,0,1
109126,-111.111111111111,4,1,5,40,0,1
109348,-111.111111111111,4,1,5,40,0,1
109793,-111.111111111111,4,1,13,40,0,1
110459,-111.111111111111,4,1,13,40,0,1
110904,-121.951219512195,4,1,13,40,0,0
110918,-121.951219512195,4,2,20,15,0,0
111792,-121.951219512195,4,1,5,40,0,0
112012,-121.951219512195,4,1,5,40,0,0
112123,-121.951219512195,4,1,5,40,0,0
112456,-121.951219512195,4,1,5,40,0,0
112459,-121.951219512195,4,1,8,40,0,0
112570,-121.951219512195,4,1,5,40,0,0
112903,-121.951219512195,4,1,10,40,0,0
113123,-121.951219512195,4,1,10,40,0,0
113567,-121.951219512195,4,1,10,40,0,0
113570,-121.951219512195,4,1,8,40,0,0
114014,-121.951219512195,4,1,17,40,0,0
114459,-111.111111111111,4,1,17,40,0,1
116681,-111.111111111111,4,1,17,40,0,1
116793,-111.111111111111,4,1,17,40,0,1
116904,-111.111111111111,4,1,17,40,0,1
117015,-111.111111111111,4,1,17,40,0,1
117126,-121.951219512195,4,1,5,40,0,1
117237,-121.951219512195,4,1,5,40,0,0
117348,-121.951219512195,4,2,5,40,0,0
117459,-121.951219512195,4,2,5,40,0,0
117567,-121.951219512195,4,2,5,40,0,0
117570,-121.951219512195,4,2,5,40,0,0
117792,-121.951219512195,4,2,5,40,0,0
118014,-121.951219512195,4,1,11,40,0,0
119345,-121.951219512195,4,1,11,40,0,0
119792,-121.951219512195,4,1,17,40,0,0
126234,-121.951219512195,4,1,17,40,0,0
126681,-121.951219512195,4,1,5,40,0,0
128234,-121.951219512195,4,1,5,40,0,0
128681,-121.951219512195,4,1,17,40,0,0
130901,-121.951219512195,4,1,17,40,0,0
131348,-121.951219512195,4,1,7,40,0,0
131570,-121.951219512195,4,1,7,40,0,0
132015,-121.951219512195,4,1,17,40,0,0
132234,-121.951219512195,4,1,17,40,0,0
132459,-121.951219512195,4,1,7,40,0,0
132681,-121.951219512195,4,1,17,40,0,0
132901,-121.951219512195,4,1,17,40,0,0
133126,-121.951219512195,4,1,7,40,0,0
133348,-121.951219512195,4,1,17,40,0,0
133793,-121.951219512195,4,1,5,40,0,0
134900,-121.951219512195,4,1,5,40,0,0
135341,222.222222222222,4,1,18,40,1,0
135563,-121.951219512195,4,1,18,40,0,0
135783,-121.951219512195,4,1,18,40,0,0
136230,-121.951219512195,4,1,13,40,0,0
136672,-121.951219512195,4,1,13,40,0,0
137119,-121.951219512195,4,1,18,40,0,0
137672,-121.951219512195,4,1,18,40,0,0
138119,-121.951219512195,4,1,5,40,0,0
138450,-121.951219512195,4,1,5,40,0,0
138897,-121.951219512195,4,1,18,40,0,0
139339,-121.951219512195,4,1,18,40,0,0
139783,-121.951219512195,4,1,18,40,0,0
139786,-121.951219512195,4,1,13,40,0,0
140230,-121.951219512195,4,1,8,40,0,0
140450,-121.951219512195,4,1,8,40,0,0
140675,-121.951219512195,4,1,13,40,0,0
140897,-121.951219512195,4,1,11,40,0,0
141561,-121.951219512195,4,1,11,40,0,0
141728,-121.951219512195,4,1,11,40,0,0
141783,-121.951219512195,4,1,11,40,0,0
141950,-121.951219512195,4,1,11,40,0,0
142005,-121.951219512195,4,1,11,40,0,0
142008,-121.951219512195,4,1,18,40,0,0
142175,-121.951219512195,4,2,11,15,0,0
142230,-121.951219512195,4,1,18,40,0,0
142397,-121.951219512195,4,2,13,15,0,0
142452,-121.951219512195,4,1,18,40,0,0
142783,-121.951219512195,4,1,18,40,0,0
143230,-121.951219512195,4,1,13,40,0,0
143783,-121.951219512195,4,1,13,40,0,0
144230,-121.951219512195,4,1,18,40,0,0
144672,-121.951219512195,4,1,18,40,0,0
144783,-121.951219512195,4,1,18,40,0,0
145119,-121.951219512195,4,1,20,40,0,0
145230,-121.951219512195,4,1,5,40,0,0
145561,-121.951219512195,4,1,5,40,0,0
146005,-121.951219512195,4,1,5,40,0,0
146008,-121.951219512195,4,1,18,40,0,0
146452,-121.951219512195,4,1,5,40,0,0
146672,-121.951219512195,4,1,5,40,0,0
146897,-121.951219512195,4,1,13,40,0,0
147119,-121.951219512195,4,1,5,40,0,0
147339,-121.951219512195,4,1,5,40,0,0
147786,-121.951219512195,4,1,11,40,0,0
149339,-121.951219512195,4,1,11,40,0,0
149563,-181.818181818182,4,1,11,40,0,0
149786,-181.818181818182,4,2,11,30,0,0
150005,-181.818181818182,4,2,11,30,0,0
150452,-121.951219512195,4,1,7,40,0,1
150896,-121.951219512195,4,1,7,40,0,1
151341,-121.951219512195,4,2,7,30,0,0
151783,-121.951219512195,4,2,7,30,0,0
152230,-121.951219512195,4,2,19,30,0,0
153561,-121.951219512195,4,2,19,30,0,0
154008,-121.951219512195,4,1,7,40,0,0
154450,-121.951219512195,4,1,7,40,0,0
154672,-121.951219512195,4,1,7,40,0,0
154894,-121.951219512195,4,1,7,40,0,0
154897,-121.951219512195,4,1,19,40,0,0
155119,-121.951219512195,4,2,7,40,0,0
155341,-121.951219512195,4,1,19,40,0,0
155450,-121.951219512195,4,1,19,40,0,0
155564,-121.951219512195,4,2,7,40,0,0
155783,-121.951219512195,4,2,7,40,0,0
155786,-121.951219512195,4,1,19,40,0,0
155897,-121.951219512195,4,2,7,30,0,0
156005,-121.951219512195,4,2,7,30,0,0
156230,-121.951219512195,4,1,19,40,0,0
156452,-121.951219512195,4,2,7,40,0,0
156672,-121.951219512195,4,2,7,40,0,0
156675,-121.951219512195,4,1,19,40,0,0
156894,-121.951219512195,4,1,19,40,0,0
157116,-121.951219512195,4,1,19,40,0,0
157119,-121.951219512195,4,1,13,40,0,0
157341,-121.951219512195,4,1,14,40,0,0
157563,-111.111111111111,4,1,13,40,0,1
164229,-111.111111111111,4,1,13,40,0,1
164674,-166.666666666667,4,1,5,40,0,0
164689,-166.666666666667,4,2,5,15,0,0
166005,-166.666666666667,4,2,5,15,0,0
166452,-121.951219512195,4,1,14,40,0,0
166672,-121.951219512195,4,1,14,40,0,0
166783,-121.951219512195,4,1,14,40,0,0
166950,-121.951219512195,4,1,14,40,0,0
167119,-121.951219512195,4,1,15,40,0,0
167230,-121.951219512195,4,1,14,40,0,0
167342,222.222222222222,3,2,20,15,1,0
167342,-121.654501216545,3,2,20,15,0,0
190008,-111.111111111111,3,2,20,15,0,0
191342,-121.951219512195,3,2,20,15,0,0
192675,-111.111111111111,3,2,20,15,0,0
193563,-111.111111111111,3,2,20,15,0,0
193953,-111.111111111111,3,2,20,15,0,0
194008,-121.951219512195,3,2,20,15,0,0
196675,-93.8967136150235,3,2,20,15,0,0
197564,-121.951219512195,3,2,20,15,0,0
198008,-93.8967136150235,3,2,20,15,0,0
199341,-152.905198776758,3,2,20,15,0,0
202230,-133.333333333333,3,2,20,15,0,0
203341,-102.040816326531,3,2,20,15,0,0
204675,-142.857142857143,3,2,20,15,0,0
206008,-121.951219512195,3,2,20,15,0,0
207341,-152.905198776758,3,2,20,15,0,0
208285,-152.905198776758,3,2,20,15,0,0
208675,-135.50135501355,3,2,20,15,0,0
208732,-135.50135501355,3,2,20,15,0,0
214530,300,4,3,1,75,1,0
214530,-114.942528735632,4,3,1,75,0,0
227130,-95.2380952380952,4,3,1,75,0,0
233730,-50,4,3,1,75,0,0
234330,-33.3333333333333,4,3,1,75,0,0
234930,-76.9230769230769,4,3,1,75,0,0
236130,-76.9230769230769,4,3,1,75,0,1
238530,-95.2380952380952,4,3,1,75,0,0
239130,-48.0769230769231,4,3,1,75,0,0
239355,-95.2380952380952,4,3,1,75,0,0
243930,-47.6190476190476,4,3,1,75,0,0
244530,-95.2380952380952,4,3,1,75,0,0
245730,-76.9230769230769,4,3,1,75,0,1
248130,-95.2380952380952,4,3,1,75,0,0
248730,-47.6190476190476,4,3,1,75,0,0
248955,-95.2380952380952,4,3,1,75,0,0
262530,-95.2380952380952,4,3,1,75,0,1
264180,-177.304964539007,4,3,1,75,0,0
265230,-114.942528735632,4,3,1,75,0,0
276330,-90.9090909090909,4,3,1,75,0,0
276930,-50,4,3,1,75,0,0
278130,-114.942528735632,4,3,1,75,0,0
278730,-90.9090909090909,4,3,1,75,0,0
279330,-114.942528735632,4,3,1,75,0,0
279930,-95.2380952380952,4,3,1,75,0,0
280530,-114.942528735632,4,3,1,75,0,0
282330,-76.9230769230769,4,3,1,75,0,0
282930,-114.942528735632,4,3,1,75,0,0
283530,-90.9090909090909,4,3,1,75,0,0
284130,-114.942528735632,4,3,1,75,0,0
288330,-90.9090909090909,4,3,1,75,0,0
290030,-100,4,3,1,75,0,0
290130,-104.166666666667,4,3,1,75,0,0
291030,-82.6446280991736,4,3,1,75,0,0
292830,-86.2068965517241,4,3,1,75,0,0
294030,-80.6451612903226,4,3,1,75,0,0
294930,-87.3362445414847,4,3,1,75,0,0
299730,-114.942528735632,4,3,1,75,0,0
300630,-82.6446280991736,4,3,1,75,0,0
302130,-114.942528735632,4,3,1,80,0,0
303930,-114.942528735632,4,3,1,30,0,0
304080,-114.942528735632,4,3,1,80,0,0
305730,-114.942528735632,4,3,1,90,0,0
314030,-114.942528735632,4,3,1,60,0,0
314730,-114.942528735632,4,3,1,75,0,0
320730,-45.4545454545455,4,3,1,90,0,0
321330,-114.942528735632,4,3,1,75,0,0
323730,-76.9230769230769,4,3,1,75,0,0
324930,-102.040816326531,4,3,1,75,0,1
326730,-50,4,3,1,75,0,1
326880,-102.040816326531,4,3,1,75,0,1
334530,-105.263157894737,4,3,1,75,0,1
339730,-50,4,3,1,75,0,1
340130,-102.040816326531,4,3,1,75,0,1
341730,-104.166666666667,4,3,1,90,0,1
343530,-102.040816326531,4,3,1,75,0,1
345330,-45.4545454545455,4,3,1,75,0,1
345480,-102.040816326531,4,3,1,75,0,1
346080,-104.166666666667,4,3,1,75,0,1
358330,-50,4,3,1,75,0,1
358730,-104.166666666667,4,3,1,75,0,1
360330,-104.166666666667,4,3,1,90,0,1
362130,-200,4,3,1,40,0,0
363330,-104.166666666667,4,3,1,75,0,0
378180,-104.712041884817,4,3,1,75,0,0
404430,-104.712041884817,4,3,1,75,0,1
405030,-47.6190476190476,4,3,1,75,0,1
405330,-104.166666666667,4,3,1,75,0,1
411630,-47.6190476190476,4,3,1,75,0,1
411930,-104.166666666667,4,3,1,75,0,1
416130,-104.166666666667,4,3,1,75,0,0
420166,499.583680266445,4,3,0,40,1,0
420166,-83.3333333333333,4,3,0,40,0,0
428644,-50,4,3,0,40,0,0

[Colours]
Combo1 : 69,137,91
Combo2 : 111,0,111
Combo3 : 111,255,111
Combo4 : 137,29,99

[HitObjects]
98,115,682,6,0,L|91:191,3,45,8|8|8|8,0:0|0:0|0:0|0:0,0:0:0:0:
292,119,904,1,2,0:0:0:0:
339,141,959,1,2,0:0:0:0:
339,141,1015,1,2,0:0:0:0:
292,119,1070,1,2,0:0:0:0:
59,339,1126,6,0,L|64:283,1,45.1000006881714,8|8,0:0|0:0,0:0:0:0:
188,302,1237,2,0,L|194:255,1,45.1000006881714,8|8,0:0|0:0,0:0:0:0:
326,228,1348,2,0,L|262:229,1,45,2|2,0:0|0:0,0:0:0:0:
93,184,1459,2,0,L|169:182,1,45.1000006881714,2|2,0:0|0:0,0:0:0:0:
351,165,1570,1,12,0:0:0:0:
305,163,1626,1,8,0:0:0:0:
261,160,1681,1,8,0:0:0:0:
474,139,1793,5,4,0:0:0:0:
228,260,1904,1,12,0:0:0:0:
273,270,1959,1,8,0:0:0:0:
319,266,2015,1,8,0:0:0:0:
107,210,2126,1,12,0:0:0:0:
351,338,2237,2,0,L|304:338,1,45.1000006881714,8|8,0:0|0:0,0:0:0:0:
194,262,2348,2,0,L|246:260,1,45.1000006881714,4|4,0:0|0:0,0:0:0:0:
439,233,2459,5,12,0:0:0:0:
307,168,2681,1,0,0:0:0:0:
175,187,2904,1,0,0:0:0:0:
324,84,3126,1,0,0:0:0:0:
136,95,3348,6,0,L|88:95,2,45,8|8|8,0:0|0:0|0:0,0:0:0:0:
258,95,3570,1,4,0:0:0:0:
208,94,3626,1,4,0:0:0:0:
159,94,3681,1,4,0:0:0:0:
352,308,3793,5,8,0:0:0:0:
463,288,3848,1,8,0:0:0:0:
352,308,3904,1,8,0:0:0:0:
463,288,3959,1,8,0:0:0:0:
278,316,4015,1,0,0:0:0:0:
232,314,4070,1,0,0:0:0:0:
187,312,4126,1,0,0:0:0:0:
142,311,4181,1,0,0:0:0:0:
464,324,4237,6,0,L|459:250,1,49.4999984893799,14|0,0:0|0:0,0:0:0:0:
310,125,4348,2,0,L|305:198,1,49.4999984893799,10|0,0:0|0:0,0:0:0:0:
152,222,4459,2,0,L|147:148,1,49.4999984893799,14|0,0:0|0:0,0:0:0:0:
302,239,4570,2,0,L|369:240,1,49.4999984893799,10|0,0:0|0:0,0:0:0:0:
69,334,4681,6,0,L|77:261,1,49.4999984893799,14|0,0:0|0:0,0:0:0:0:
239,279,4792,2,0,L|248:205,1,49.4999984893799,10|0,0:0|0:0,0:0:0:0:
409,226,4903,2,0,L|418:151,1,49.4999984893799,14|0,0:0|0:0,0:0:0:0:
220,153,5014,2,0,L|152:151,1,49.4999984893799,10|0,0:0|0:0,0:0:0:0:
439,348,5126,6,0,L|425:277,1,49.4999984893799,14|0,0:0|0:0,0:0:0:0:
255,66,5237,2,0,L|241:136,1,49.4999984893799,10|0,0:0|0:0,0:0:0:0:
70,227,5348,2,0,L|56:156,1,49.4999984893799,14|0,0:0|0:0,0:0:0:0:
268,189,5459,2,0,L|324:187,1,49.4999984893799,10|0,0:0|0:0,0:0:0:0:
34,352,5570,6,0,L|40:279,1,49.4999984893799,14|0,0:0|0:0,0:0:0:0:
233,307,5681,2,0,L|240:234,1,49.4999984893799,10|0,0:0|0:0,0:0:0:0:
433,241,5792,2,0,L|439:172,1,49.4999984893799,14|0,0:0|0:0,0:0:0:0:
215,182,5903,2,0,L|158:182,1,49.4999984893799,10|0,0:0|0:0,0:0:0:0:
459,28,6015,5,14,0:0:0:0:
318,51,6070,1,10,0:0:0:0:
174,324,6126,1,10,0:0:0:0:
319,288,6181,1,10,0:0:0:0:
460,268,6237,1,14,0:0:0:0:
321,173,6293,1,10,0:0:0:0:
181,190,6349,1,10,0:0:0:0:
44,185,6404,1,10,0:0:0:0:
181,147,6459,5,14,0:0:0:0:
321,295,6515,1,10,0:0:0:0:
184,309,6570,1,10,0:0:0:0:
40,128,6626,1,10,0:0:0:0:
181,237,6681,5,14,0:0:0:0:
321,89,6737,1,10,0:0:0:0:
184,75,6792,1,10,0:0:0:0:
40,256,6848,1,10,0:0:0:0:
325,223,6904,6,0,L|421:224,1,90,14|0,0:0|0:0,0:0:0:0:
298,298,7126,2,0,L|292:188,1,90,2|0,0:0|0:0,0:0:0:0:
179,210,7348,2,0,L|168:102,1,90,2|0,0:0|0:0,0:0:0:0:
299,120,7570,2,0,L|395:120,1,90,2|0,0:0|0:0,0:0:0:0:
121,328,7793,5,6,0:0:0:0:
73,315,7848,1,0,0:0:0:0:
73,315,7904,1,6,0:0:0:0:
121,328,7959,1,0,0:0:0:0:
313,327,8015,2,0,L|312:264,1,45,6|0,0:0|0:0,0:0:0:0:
134,239,8126,2,0,L|89:239,1,45,6|0,0:0|0:0,0:0:0:0:
295,172,8237,5,6,0:0:0:0:
251,172,8292,1,0,0:0:0:0:
206,172,8348,1,6,0:0:0:0:
163,172,8403,1,0,0:0:0:0:
359,240,8459,1,6,0:0:0:0:
409,227,8515,1,0,0:0:0:0:
409,227,8570,1,6,0:0:0:0:
359,240,8625,1,0,0:0:0:0:
156,325,8681,6,0,L|160:263,1,45,6|0,0:0|0:0,0:0:0:0:
335,291,8793,2,0,L|399:292,1,45,6|0,0:0|0:0,0:0:0:0:
144,197,8904,1,6,0:0:0:0:
94,184,8960,1,0,0:0:0:0:
94,184,9015,1,6,0:0:0:0:
144,197,9070,1,0,0:0:0:0:
381,150,9126,2,0,L|380:213,1,45,6|0,0:0|0:0,0:0:0:0:
158,229,9237,2,0,L|211:230,1,45,6|0,0:0|0:0,0:0:0:0:
421,320,9348,5,6,0:0:0:0:
376,320,9403,1,0,0:0:0:0:
330,320,9459,1,6,0:0:0:0:
285,320,9514,1,0,0:0:0:0:
113,272,9570,6,0,L|65:273,1,45,10|8,0:0|0:0,0:0:0:0:
254,270,9681,1,10,0:0:0:0:
42,203,9793,1,14,0:0:0:0:
249,162,9904,1,10,0:0:0:0:
456,137,10015,2,0,L|395:136,1,45,14|0,0:0|0:0,0:0:0:0:
214,100,10126,1,10,0:0:0:0:
447,245,10237,5,10,0:0:0:0:
323,232,10293,1,8,0:0:0:0:
202,220,10348,1,10,0:0:0:0:
469,78,10459,1,10,0:0:0:0:
320,93,10515,1,8,0:0:0:0:
175,106,10570,1,10,0:0:0:0:
431,305,10681,1,12,0:0:0:0:
162,35,10793,1,8,0:0:0:0:
440,340,10904,6,0,L|434:276,1,45,8|0,0:0|0:0,0:0:0:0:
261,248,11015,2,0,L|303:230,1,45.1000006881714,8|0,0:0|0:0,0:0:0:0:
141,146,11126,2,0,L|147:210,1,45,8|0,0:0|0:0,0:0:0:0:
342,132,11237,2,0,L|398:131,1,45,8|0,0:0|0:0,0:0:0:0:
93,210,11348,5,14,0:0:0:0:
47,225,11403,1,2,0:0:0:0:
32,266,11459,1,2,0:0:0:0:
57,304,11514,1,2,0:0:0:0:
99,318,11570,1,0,0:0:0:0:
224,287,11681,1,2,0:0:0:0:
97,260,11793,5,14,0:0:0:0:
141,260,11848,1,2,0:0:0:0:
186,260,11904,1,2,0:0:0:0:
231,260,11959,1,2,0:0:0:0:
276,260,12015,1,2,0:0:0:0:
150,224,12126,1,0,0:0:0:0:
366,183,12237,5,12,0:0:0:0:
146,215,12348,1,12,0:0:0:0:
308,298,12570,2,0,L|373:298,2,45,6|2|6,0:0|0:0|0:0,0:0:0:0:
109,302,12904,1,12,0:0:0:0:
324,237,13126,6,0,L|332:186,1,45.1000006881714,6|2,0:0|0:0,0:0:0:0:
262,184,13237,2,0,L|253:116,1,45,2|2,0:0|0:0,0:0:0:0:
367,113,13348,1,8,0:0:0:0:
477,91,13403,1,8,0:0:0:0:
364,93,13459,1,4,0:0:0:0:
476,74,13515,1,4,0:0:0:0:
124,139,13570,2,0,L|120:247,1,90,6|2,0:0|0:0,0:0:0:0:
307,300,13793,2,0,L|404:298,1,90,8|4,0:0|0:0,0:0:0:0:
163,305,14015,5,14,0:0:0:0:
212,304,14070,1,2,0:0:0:0:
262,303,14126,1,2,0:0:0:0:
51,250,14237,1,14,0:0:0:0:
100,249,14292,1,2,0:0:0:0:
150,249,14348,1,2,0:0:0:0:
321,155,14459,2,0,L|140:153,1,180.400002752686
46,151,14793,1,0,0:0:0:0:
280,71,14904,6,0,L|278:146,1,45,6|0,0:0|0:0,0:0:0:0:
206,267,15015,2,0,L|156:267,1,45,6|0,0:0|0:0,0:0:0:0:
318,230,15126,2,0,L|368:230,1,45,6|0,0:0|0:0,0:0:0:0:
165,176,15237,2,0,L|113:177,1,45,6|0,0:0|0:0,0:0:0:0:
351,128,15348,2,0,L|360:187,3,45,6|0|6|0,0:0|0:0|0:0|0:0,0:0:0:0:
194,158,15570,2,0,L|239:139,1,45.1000006881714,8|8,0:0|0:0,0:0:0:0:
65,131,15681,2,0,L|57:80,1,45,8|8,0:0|0:0,0:0:0:0:
295,58,15793,6,0,L|405:58,1,90,6|8,0:0|0:0,0:0:0:0:
167,245,16015,2,0,L|57:245,1,90,6|8,0:0|0:0,0:0:0:0:
316,325,16237,2,0,L|327:276,3,45
126,157,16459,1,0,0:0:0:0:
78,170,16514,1,0,0:0:0:0:
78,170,16570,1,0,0:0:0:0:
126,157,16626,1,0,0:0:0:0:
356,257,16681,5,8,0:0:0:0:
228,266,16737,1,8,0:0:0:0:
100,280,16793,1,8,0:0:0:0:
229,303,16848,1,8,0:0:0:0:
363,94,16904,1,8,0:0:0:0:
225,63,16959,1,8,0:0:0:0:
87,59,17015,1,8,0:0:0:0:
244,35,17070,1,8,0:0:0:0:
388,31,17126,5,8,0:0:0:0:
236,262,17182,1,8,0:0:0:0:
87,248,17237,1,8,0:0:0:0:
244,78,17293,1,8,0:0:0:0:
439,137,17348,2,0,L|337:136,1,90,14|0,0:0|0:0,0:0:0:0:
147,86,17570,2,0,L|149:192,1,90,14|0,0:0|0:0,0:0:0:0:
340,211,17793,1,2,0:0:0:0:
147,207,17904,1,2,0:0:0:0:
347,284,18015,2,0,L|248:284,1,90.2000013763428,2|0,0:0|0:0,0:0:0:0:
80,155,18237,1,12,0:0:0:0:
305,332,18348,1,12,0:0:0:0:
113,190,18459,5,14,0:0:0:0:
67,175,18514,1,2,0:0:0:0:
52,134,18570,1,2,0:0:0:0:
77,96,18625,1,2,0:0:0:0:
119,82,18681,1,2,0:0:0:0:
244,113,18792,1,2,0:0:0:0:
117,140,18904,5,14,0:0:0:0:
161,140,18959,1,2,0:0:0:0:
206,140,19015,1,2,0:0:0:0:
251,140,19070,1,2,0:0:0:0:
296,140,19126,1,2,0:0:0:0:
170,176,19237,1,0,0:0:0:0:
386,217,19348,5,12,0:0:0:0:
161,185,19459,1,12,0:0:0:0:
323,102,19681,2,0,L|378:102,2,45,6|2|6,0:0|0:0|0:0,0:0:0:0:
116,101,20015,1,12,0:0:0:0:
294,179,20237,6,0,L|305:246,1,45,6|2,0:0|0:0,0:0:0:0:
231,227,20348,2,0,L|222:295,1,45,2|2,0:0|0:0,0:0:0:0:
343,313,20459,1,8,0:0:0:0:
453,279,20515,1,0,0:0:0:0:
336,273,20570,1,8,0:0:0:0:
447,242,20626,1,0,0:0:0:0:
151,277,20681,2,0,L|150:168,1,90,6|2,0:0|0:0,0:0:0:0:
343,181,20904,6,0,L|221:183,1,90,8|4,0:0|0:0,0:0:0:0:
457,138,21126,2,0,L|514:138,2,45,14|2|2,0:0|0:0|0:0,0:0:0:0:
238,137,21348,1,14,0:0:0:0:
287,138,21403,1,2,0:0:0:0:
337,138,21459,1,2,0:0:0:0:
238,101,21570,2,0,L|93:213,1,180
171,192,21904,1,0,0:0:0:0:
420,201,22015,6,0,L|366:201,1,45,6|0,0:0|0:0,0:0:0:0:
167,272,22126,2,0,L|171:218,1,45,6|0,0:0|0:0,0:0:0:0:
344,281,22237,2,0,L|391:281,1,45,6|0,0:0|0:0,0:0:0:0:
180,158,22348,2,0,L|133:158,1,45,6|0,0:0|0:0,0:0:0:0:
308,84,22459,1,0,0:0:0:0:
343,109,22514,1,0,0:0:0:0:
342,152,22570,1,0,0:0:0:0:
306,176,22625,1,0,0:0:0:0:
185,165,22681,5,0,0:0:0:0:
72,148,22736,1,0,0:0:0:0:
187,148,22792,1,0,0:0:0:0:
74,131,22847,1,0,0:0:0:0:
230,87,22904,2,0,L|338:87,1,90,6|8,0:0|0:0,0:0:0:0:
126,215,23126,2,0,L|30:215,1,90,6|8,0:0|0:0,0:0:0:0:
288,304,23348,2,0,L|281:203,1,90
169,162,23570,2,0,L|162:263,1,90
398,171,23793,6,0,L|392:108,1,45,8|8,0:0|0:0,0:0:0:0:
251,253,23904,2,0,L|245:316,1,45,8|8,0:0|0:0,0:0:0:0:
104,181,24015,2,0,L|152:182,1,45.1000006881714,8|8,0:0|0:0,0:0:0:0:
305,136,24126,2,0,L|258:135,1,45.1000006881714
435,216,24237,2,0,L|431:153,1,45.1000006881714,8|8,0:0|0:0,0:0:0:0:
257,297,24348,2,0,L|248:231,1,45.1000006881714,8|8,0:0|0:0,0:0:0:0:
135,341,24459,2,0,L|27:342,1,90,6|2,0:0|0:0,0:0:0:0:
453,171,24681,6,0,L|447:108,1,45,12|0,0:0|0:0,0:0:0:0:
281,255,24792,2,0,L|275:318,1,45,8|0,0:0|0:0,0:0:0:0:
104,176,24903,2,0,L|98:117,1,45.1000006881714,12|0,0:0|0:0,0:0:0:0:
342,187,25014,2,0,L|386:187,1,45.1000006881714,8|0,0:0|0:0,0:0:0:0:
222,141,25125,2,0,L|278:141,1,45.1000006881714,12|0,0:0|0:0,0:0:0:0:
127,81,25237,2,0,L|79:81,1,45.1000006881714,8|0,0:0|0:0,0:0:0:0:
278,243,25348,2,0,L|272:184,1,45.1000006881714,12|0,0:0|0:0,0:0:0:0:
133,41,25459,2,0,L|125:91,1,45.1000006881714,8|0,0:0|0:0,0:0:0:0:
272,346,25570,6,0,L|380:346,1,90,6|2,0:0|0:0,0:0:0:0:
151,259,25793,2,0,L|61:259,1,90,2|2,0:0|0:0,0:0:0:0:
267,194,26015,1,6,0:0:0:0:
64,183,26126,1,10,0:0:0:0:
303,172,26237,2,0,L|303:63,1,90,2|2,0:0|0:0,0:0:0:0:
57,176,26459,2,0,L|167:175,1,90,14|2,0:0|0:0,0:0:0:0:
354,247,26681,2,0,L|446:248,1,90.2000013763428,2|2,0:0|0:0,0:0:0:0:
139,290,26903,2,0,L|38:291,1,90,6|2,0:0|0:0,0:0:0:0:
306,257,27126,5,2,0:0:0:0:
387,219,27237,1,2,0:0:0:0:
388,127,27348,1,6,0:0:0:0:
301,91,27459,1,2,0:0:0:0:
74,119,27570,2,0,L|72:224,1,90,2|2,0:0|0:0,0:0:0:0:
273,113,27793,1,6,0:0:0:0:
57,87,27904,1,10,0:0:0:0:
268,161,28015,2,0,L|386:161,1,90,2|2,0:0|0:0,0:0:0:0:
124,263,28237,5,14,0:0:0:0:
169,263,28292,1,0,0:0:0:0:
214,263,28348,1,2,0:0:0:0:
93,200,28459,1,2,0:0:0:0:
138,200,28514,1,2,0:0:0:0:
183,200,28570,1,2,0:0:0:0:
382,319,28681,6,0,L|387:250,1,45,6|2,0:0|0:0,0:0:0:0:
320,272,28793,2,0,L|275:273,1,45,2|2,0:0|0:0,0:0:0:0:
334,219,28904,1,2,0:0:0:0:
378,218,28959,1,2,0:0:0:0:
313,218,29015,1,2,0:0:0:0:
268,217,29070,1,2,0:0:0:0:
83,163,29126,6,0,L|82:276,1,90,6|2,0:0|0:0,0:0:0:0:
310,165,29348,2,0,L|204:165,1,90,2|2,0:0|0:0,0:0:0:0:
422,166,29570,1,6,0:0:0:0:
212,105,29681,1,10,0:0:0:0:
439,243,29793,2,0,L|445:348,1,90,2|2,0:0|0:0,0:0:0:0:
166,297,30015,2,0,L|72:296,1,90,14|2,0:0|0:0,0:0:0:0:
274,208,30237,1,0,0:0:0:0:
174,180,30348,2,0,L|242:182,1,45,2|2,0:0|0:0,0:0:0:0:
408,241,30459,6,0,L|310:242,1,90,6|0,0:0|0:0,0:0:0:0:
99,339,30681,2,0,L|202:338,1,90,2|2,0:0|0:0,0:0:0:0:
443,198,30904,2,0,L|449:298,1,90,6|2,0:0|0:0,0:0:0:0:
205,205,31126,2,0,L|311:205,1,90,2|2,0:0|0:0,0:0:0:0:
30,149,31348,2,0,L|136:149,1,90,6|2,0:0|0:0,0:0:0:0:
340,88,31570,1,2,0:0:0:0:
221,71,31626,1,2,0:0:0:0:
105,53,31681,1,2,0:0:0:0:
226,157,31737,1,2,0:0:0:0:
351,292,31793,6,0,L|359:233,1,45.1000006881714,14|2,0:0|0:0,0:0:0:0:
477,250,31904,2,0,L|475:189,1,45.1000006881714,2|2,0:0|0:0,0:0:0:0:
327,156,32015,2,0,L|269:156,1,45,2|2,0:0|0:0,0:0:0:0:
130,243,32126,2,0,L|184:242,1,45,2|2,0:0|0:0,0:0:0:0:
376,304,32237,1,6,0:0:0:0:
257,321,32293,1,2,0:0:0:0:
141,339,32348,1,2,0:0:0:0:
262,235,32404,1,2,0:0:0:0:
380,169,32459,2,0,L|425:170,1,45,2|2,0:0|0:0,0:0:0:0:
251,247,32570,2,0,L|243:197,1,45.1000006881714,2|2,0:0|0:0,0:0:0:0:
65,296,32681,6,0,L|168:296,1,90,6|2,0:0|0:0,0:0:0:0:
376,275,32904,2,2,L|386:159,1,90
177,187,33126,1,6,0:0:0:0:
384,157,33237,1,8,0:0:0:0:
159,347,33348,2,0,L|155:230,1,90,2|2,0:0|0:0,0:0:0:0:
391,332,33570,2,0,L|294:333,1,90,12|2,0:0|0:0,0:0:0:0:
83,278,33793,2,0,L|191:278,1,90,2|2,0:0|0:0,0:0:0:0:
380,255,34015,2,0,L|381:155,1,90,6|2,0:0|0:0,0:0:0:0:
138,182,34237,5,2,0:0:0:0:
51,221,34348,1,2,0:0:0:0:
49,304,34459,1,6,0:0:0:0:
131,339,34570,1,2,0:0:0:0:
363,331,34681,2,0,L|270:332,1,90,2|2,0:0|0:0,0:0:0:0:
82,309,34904,1,6,0:0:0:0:
289,255,35015,1,10,0:0:0:0:
60,214,35126,2,0,L|161:213,1,90,2|2,0:0|0:0,0:0:0:0:
376,172,35348,6,0,L|427:171,2,45,14|0|2,0:0|0:0|0:0,0:0:0:0:
183,214,35570,1,2,0:0:0:0:
227,214,35625,1,2,0:0:0:0:
272,214,35681,1,2,0:0:0:0:
51,329,35793,6,0,L|46:260,1,45,6|2,0:0|0:0,0:0:0:0:
113,282,35905,2,0,L|158:283,1,45,2|2,0:0|0:0,0:0:0:0:
99,229,36016,1,2,0:0:0:0:
55,228,36071,1,2,0:0:0:0:
120,228,36127,1,2,0:0:0:0:
165,227,36182,1,2,0:0:0:0:
376,143,36237,6,0,L|381:253,1,90,6|2,0:0|0:0,0:0:0:0:
169,219,36459,2,0,L|69:218,1,90,2|2,0:0|0:0,0:0:0:0:
295,183,36681,1,6,0:0:0:0:
59,144,36793,1,10,0:0:0:0:
275,93,36904,6,0,L|278:207,1,90,2|0,0:0|0:0,0:0:0:0:
44,282,37126,2,0,L|140:283,1,90,14|2,0:0|0:0,0:0:0:0:
341,284,37348,1,0,0:0:0:0:
242,246,37459,2,0,L|306:246,1,45,2|2,0:0|0:0,0:0:0:0:
472,250,37570,2,0,L|357:248,1,90,6|0,0:0|0:0,0:0:0:0:
155,158,37793,1,2,0:0:0:0:
375,101,37904,1,2,0:0:0:0:
152,316,38015,2,0,L|158:252,1,45,4|0,0:0|0:0,0:0:0:0:
225,269,38126,2,0,L|231:205,1,45
51,214,38237,5,8,0:0:0:0:
282,147,38348,1,8,0:0:0:0:
91,116,38459,1,4,0:0:0:0:
43,128,38514,1,0,0:0:0:0:
43,128,38570,1,0,0:0:0:0:
91,116,38625,1,0,0:0:0:0:
307,218,38681,2,0,L|258:219,1,45,2|8,0:0|0:0,0:0:0:0:
86,289,38793,2,0,L|15:289,1,45,8|8,0:0|0:0,0:0:0:0:
254,291,38904,5,8,0:0:0:0:
457,290,39015,1,8,0:0:0:0:
223,194,39126,2,0,L|233:130,1,49.5000015106202,2|2,0:0|0:0,0:0:0:0:
408,133,39237,2,0,L|419:70,1,49.5000015106202,2|2,0:0|0:0,0:0:0:0:
238,78,39348,2,0,L|231:140,1,49.5000015106202,8|8,0:0|0:0,0:0:0:0:
56,141,39459,2,0,L|49:203,1,49.5000015106202,8|8,0:0|0:0,0:0:0:0:
273,265,39570,2,0,L|333:266,1,49.5000015106202,4|0,0:0|0:0,0:0:0:0:
123,325,39681,2,0,L|64:326,1,49.5000015106202,4|0,0:0|0:0,0:0:0:0:
295,338,39793,6,0,L|289:283,3,49.4999984893799,6|2|2|2,0:0|0:0|0:0|0:0,0:0:0:0:
242,288,40015,1,2,0:0:0:0:
202,267,40070,1,2,0:0:0:0:
204,222,40126,1,2,0:0:0:0:
246,205,40181,1,2,0:0:0:0:
295,200,40237,2,0,L|291:148,1,49.4999984893799,6|2,0:0|0:0,0:0:0:0:
233,153,40348,2,0,L|230:102,1,49.4999984893799,2|2,0:0|0:0,0:0:0:0:
172,111,40459,2,0,L|168:59,1,49.4999984893799,2|2,0:0|0:0,0:0:0:0:
226,153,40570,2,0,L|230:205,1,49.4999984893799,2|2,0:0|0:0,0:0:0:0:
386,333,40681,6,0,L|382:279,3,49.4999984893799,14|2|2|2,0:0|0:0|0:0|0:0,0:0:0:0:
319,283,40904,2,0,L|315:229,3,49.4999984893799,2|2|2|2,0:0|0:0|0:0|0:0,0:0:0:0:
373,226,41126,2,0,L|377:174,1,49.4999984893799,2|2,0:0|0:0,0:0:0:0:
434,179,41237,2,0,L|438:127,1,49.4999984893799,2|2,0:0|0:0,0:0:0:0:
232,326,41348,6,0,L|228:277,1,49.4999984893799,6|2,0:0|0:0,0:0:0:0:
170,277,41459,2,0,L|166:225,1,49.4999984893799,2|2,0:0|0:0,0:0:0:0:
109,281,41570,2,0,L|105:332,1,49.4999984893799,2|2,0:0|0:0,0:0:0:0:
48,280,41681,2,0,L|52:228,1,49.4999984893799,2|2,0:0|0:0,0:0:0:0:
110,227,41793,2,0,L|115:176,1,49.4999984893799,6|2,0:0|0:0,0:0:0:0:
172,179,41904,2,0,L|176:127,1,49.4999984893799,2|2,0:0|0:0,0:0:0:0:
381,317,42015,6,0,L|385:267,1,49.4999984893799,6|2,0:0|0:0,0:0:0:0:
442,267,42126,2,0,L|446:215,1,49.4999984893799,2|2,0:0|0:0,0:0:0:0:
389,269,42237,2,0,L|385:219,1,49.4999984893799,6|2,0:0|0:0,0:0:0:0:
327,219,42348,6,0,L|323:168,1,49.4999984893799,2|2,0:0|0:0,0:0:0:0:
79,117,42459,2,0,L|16:113,1,49.4999984893799,12|2,0:0|0:0,0:0:0:0:
162,241,42570,2,0,L|170:185,1,49.4999984893799,2|2,0:0|0:0,0:0:0:0:
290,309,42681,1,4,0:0:0:0:
333,309,42736,1,2,0:0:0:0:
376,308,42792,1,2,0:0:0:0:
418,308,42847,1,2,0:0:0:0:
194,154,42904,5,4,0:0:0:0:
144,142,42959,1,2,0:0:0:0:
194,128,43015,1,2,0:0:0:0:
145,117,43070,1,2,0:0:0:0:
351,165,43126,2,0,L|405:165,1,49.4999984893799,4|2,0:0|0:0,0:0:0:0:
229,274,43237,2,0,L|164:273,1,49.4999984893799,2|2,0:0|0:0,0:0:0:0:
36,344,43348,6,0,L|40:282,3,49.5000015106202,6|2|2|2,0:0|0:0|0:0|0:0,0:0:0:0:
254,283,43570,2,0,L|260:223,1,49.5000015106202,2|2,0:0|0:0,0:0:0:0:
328,235,43681,2,0,L|334:175,1,49.5000015106202,2|2,0:0|0:0,0:0:0:0:
195,168,43793,2,0,L|189:108,1,49.5000015106202,6|2,0:0|0:0,0:0:0:0:
121,112,43904,2,0,L|115:52,1,49.5000015106202,2|2,0:0|0:0,0:0:0:0:
270,66,44015,2,0,L|276:126,1,49.5000015106202,6|2,0:0|0:0,0:0:0:0:
425,158,44126,2,0,L|431:218,1,49.5000015106202,2|2,0:0|0:0,0:0:0:0:
248,205,44237,6,0,L|192:206,1,49.5000015106202,8|8,0:0|0:0,0:0:0:0:
361,310,44348,2,0,L|417:311,1,49.5000015106202,8|8,0:0|0:0,0:0:0:0:
155,320,44459,2,0,L|156:265,1,49.5000015106202,2|2,0:0|0:0,0:0:0:0:
268,255,44570,1,8,0:0:0:0:
383,236,44626,1,8,0:0:0:0:
271,221,44681,1,4,0:0:0:0:
158,211,44737,1,4,0:0:0:0:
108,212,44793,2,0,L|196:210,1,49.5000015106202,2|2,0:0|0:0,0:0:0:0:
330,119,44904,6,0,L|381:118,1,49.4999984893799,8|8,0:0|0:0,0:0:0:0:
247,76,45015,1,8,0:0:0:0:
109,46,45070,1,8,0:0:0:0:
342,178,45126,6,0,L|407:178,1,49.4999984893799,6|8,0:0|0:0,0:0:0:0:
264,150,45237,1,6,0:0:0:0:
126,120,45292,1,8,0:0:0:0:
365,238,45348,6,0,L|415:239,1,49.4999984893799,6|8,0:0|0:0,0:0:0:0:
250,216,45459,1,6,0:0:0:0:
108,187,45514,1,8,0:0:0:0:
386,294,45570,6,0,L|441:293,1,49.4999984893799,6|8,0:0|0:0,0:0:0:0:
257,284,45681,1,6,0:0:0:0:
82,259,45736,1,8,0:0:0:0:
472,214,45793,6,0,L|466:148,1,49.5000015106202,6|8,0:0|0:0,0:0:0:0:
321,156,45903,2,0,L|317:100,1,49.5000015106202,6|8,0:0|0:0,0:0:0:0:
167,267,46014,2,0,L|154:339,1,49.4999984893799,6|8,0:0|0:0,0:0:0:0:
21,323,46126,2,0,L|12:248,1,49.5000015106202,6|8,0:0|0:0,0:0:0:0:
472,214,46237,6,0,L|467:147,1,49.5000015106202,6|8,0:0|0:0,0:0:0:0:
322,227,46348,2,0,L|318:283,1,49.5000015106202,6|8,0:0|0:0,0:0:0:0:
161,118,46459,2,0,L|150:39,1,49.4999984893799,6|8,0:0|0:0,0:0:0:0:
25,173,46571,2,0,L|16:252,1,49.4999984893799,6|8,0:0|0:0,0:0:0:0:
423,100,46681,2,0,L|473:99,1,49.5000015106202,6|8,0:0|0:0,0:0:0:0:
70,301,46793,2,0,L|-8:308,1,49.5000015106202,6|8,0:0|0:0,0:0:0:0:
295,46,46904,6,0,L|289:101,3,49.4999984893799,6|2|2|2,0:0|0:0|0:0|0:0,0:0:0:0:
242,96,47126,1,6,0:0:0:0:
202,117,47181,1,2,0:0:0:0:
204,162,47237,1,2,0:0:0:0:
246,179,47292,1,2,0:0:0:0:
295,184,47348,2,0,L|291:236,1,49.4999984893799,6|2,0:0|0:0,0:0:0:0:
233,231,47459,2,0,L|230:282,1,49.4999984893799,2|2,0:0|0:0,0:0:0:0:
172,273,47570,2,0,L|168:325,1,49.4999984893799,6|2,0:0|0:0,0:0:0:0:
226,231,47681,2,0,L|230:179,1,49.4999984893799,2|2,0:0|0:0,0:0:0:0:
386,51,47792,6,0,L|382:105,3,49.4999984893799,14|2|2|2,0:0|0:0|0:0|0:0,0:0:0:0:
319,101,48015,2,0,L|315:155,3,49.4999984893799,2|2|6|2,0:0|0:0|0:0|0:0,0:0:0:0:
373,158,48237,2,0,L|377:210,1,49.4999984893799,6|2,0:0|0:0,0:0:0:0:
434,205,48348,2,0,L|438:257,1,49.4999984893799,2|2,0:0|0:0,0:0:0:0:
232,58,48459,6,0,L|228:107,1,49.4999984893799,6|2,0:0|0:0,0:0:0:0:
170,107,48570,2,0,L|166:159,1,49.4999984893799,2|2,0:0|0:0,0:0:0:0:
109,103,48681,2,0,L|105:52,1,49.4999984893799,2|2,0:0|0:0,0:0:0:0:
48,104,48792,2,0,L|52:156,1,49.4999984893799,6|2,0:0|0:0,0:0:0:0:
110,157,48904,2,0,L|115:208,1,49.4999984893799,6|2,0:0|0:0,0:0:0:0:
172,205,49015,2,0,L|176:257,1,49.4999984893799,2|2,0:0|0:0,0:0:0:0:
381,67,49126,6,0,L|385:117,1,49.4999984893799,6|2,0:0|0:0,0:0:0:0:
442,117,49237,2,0,L|446:169,1,49.4999984893799,2|2,0:0|0:0,0:0:0:0:
389,115,49348,2,0,L|385:165,1,49.4999984893799,6|2,0:0|0:0,0:0:0:0:
327,165,49459,2,0,L|323:216,1,49.4999984893799,2|2,0:0|0:0,0:0:0:0:
79,267,49570,2,0,L|16:271,1,49.4999984893799,14|2,0:0|0:0,0:0:0:0:
162,143,49681,2,0,L|170:199,1,49.4999984893799,2|2,0:0|0:0,0:0:0:0:
299,96,49792,1,6,0:0:0:0:
342,96,49847,1,2,0:0:0:0:
385,97,49903,1,2,0:0:0:0:
427,97,49958,1,2,0:0:0:0:
218,284,50015,5,6,0:0:0:0:
167,271,50070,1,2,0:0:0:0:
218,284,50126,1,2,0:0:0:0:
167,271,50181,1,2,0:0:0:0:
366,220,50237,2,0,L|419:221,1,49.4999984893799,6|2,0:0|0:0,0:0:0:0:
268,132,50348,2,0,L|212:129,1,49.4999984893799,2|2,0:0|0:0,0:0:0:0:
74,52,50459,6,0,L|78:114,3,49.5000015106202,6|2|2|2,0:0|0:0|0:0|0:0,0:0:0:0:
253,100,50681,2,0,L|259:160,1,49.5000015106202,6|2,0:0|0:0,0:0:0:0:
327,148,50792,2,0,L|333:208,1,49.5000015106202,2|2,0:0|0:0,0:0:0:0:
166,168,50904,2,0,L|160:228,1,49.5000015106202,6|2,0:0|0:0,0:0:0:0:
89,217,51015,2,0,L|83:277,1,49.5000015106202,2|2,0:0|0:0,0:0:0:0:
251,317,51126,2,0,L|257:257,1,49.5000015106202,6|2,0:0|0:0,0:0:0:0:
424,225,51237,2,0,L|430:165,1,49.5000015106202,2|2,0:0|0:0,0:0:0:0:
247,178,51348,6,0,L|191:177,1,49.5000015106202,8|8,0:0|0:0,0:0:0:0:
360,73,51459,2,0,L|416:72,1,49.5000015106202,8|8,0:0|0:0,0:0:0:0:
154,63,51570,2,0,L|155:118,1,49.5000015106202,8|2,0:0|0:0,0:0:0:0:
267,128,51681,1,8,0:0:0:0:
382,147,51737,1,8,0:0:0:0:
270,162,51792,1,4,0:0:0:0:
157,172,51848,1,4,0:0:0:0:
107,171,51904,2,0,L|195:173,1,49.5000015106202,2|2,0:0|0:0,0:0:0:0:
330,246,52015,6,0,L|381:248,1,49.4999984893799,8|8,0:0|0:0,0:0:0:0:
246,303,52126,1,8,0:0:0:0:
110,332,52181,1,8,0:0:0:0:
344,195,52237,6,0,L|398:196,1,49.4999984893799,6|8,0:0|0:0,0:0:0:0:
262,231,52348,1,6,0:0:0:0:
127,260,52403,1,8,0:0:0:0:
366,145,52459,6,0,L|419:145,1,49.4999984893799,6|8,0:0|0:0,0:0:0:0:
249,166,52570,1,6,0:0:0:0:
109,194,52625,1,8,0:0:0:0:
382,98,52681,6,0,L|441:97,1,49.4999984893799,6|8,0:0|0:0,0:0:0:0:
222,97,52792,1,6,0:0:0:0:
110,128,52847,1,8,0:0:0:0:
307,100,52904,1,6,0:0:0:0:
419,129,52959,1,2,0:0:0:0:
226,288,53015,1,2,0:0:0:0:
114,315,53070,1,2,0:0:0:0:
257,207,53126,1,12,0:0:0:0:
384,225,53181,1,8,0:0:0:0:
250,169,53237,1,8,0:0:0:0:
116,144,53293,1,8,0:0:0:0:
248,112,53348,5,12,0:0:0:0:
383,331,53404,1,8,0:0:0:0:
236,42,53459,1,8,0:0:0:0:
103,38,53515,1,8,0:0:0:0:
236,333,53570,5,12,0:0:0:0:
372,141,53626,1,8,0:0:0:0:
506,195,53681,1,8,0:0:0:0:
370,192,53737,1,8,0:0:0:0:
234,283,53793,5,12,0:0:0:0:
368,121,53848,1,8,0:0:0:0:
504,57,53904,1,8,0:0:0:0:
363,268,53959,1,8,0:0:0:0:
158,322,54015,1,14,0:0:0:0:
110,315,54070,1,2,0:0:0:0:
89,273,54126,1,2,0:0:0:0:
113,232,54181,1,2,0:0:0:0:
160,228,54237,1,2,0:0:0:0:
259,180,54348,1,2,0:0:0:0:
160,206,54460,5,14,0:0:0:0:
204,206,54515,1,2,0:0:0:0:
249,206,54571,1,2,0:0:0:0:
294,206,54626,1,2,0:0:0:0:
339,206,54682,1,2,0:0:0:0:
222,172,54793,1,0,0:0:0:0:
429,213,54904,5,12,0:0:0:0:
204,181,55015,1,12,0:0:0:0:
366,98,55237,2,0,L|421:98,2,45,6|2|6,0:0|0:0|0:0,0:0:0:0:
159,97,55571,1,12,0:0:0:0:
330,168,55793,6,0,L|341:235,1,45,6|2,0:0|0:0,0:0:0:0:
267,216,55904,2,0,L|258:284,1,45,2|2,0:0|0:0,0:0:0:0:
379,314,56015,1,8,0:0:0:0:
492,315,56070,1,8,0:0:0:0:
379,314,56126,1,4,0:0:0:0:
492,315,56181,1,4,0:0:0:0:
177,302,56237,2,0,L|66:298,1,90.2000013763428,4|2,0:0|0:0,0:0:0:0:
259,218,56460,6,0,L|264:114,1,90.2000013763428,8|4,0:0|0:0,0:0:0:0:
441,149,56681,2,0,L|498:149,2,45,14|2|2,0:0|0:0|0:0,0:0:0:0:
198,232,56904,1,14,0:0:0:0:
247,231,56959,1,2,0:0:0:0:
297,231,57015,1,2,0:0:0:0:
189,198,57126,2,0,L|44:310,1,180
140,302,57459,1,0,0:0:0:0:
420,201,57570,6,0,L|366:201,1,45,6|0,0:0|0:0,0:0:0:0:
213,250,57681,2,0,L|163:250,1,45,6|0,0:0|0:0,0:0:0:0:
364,322,57792,2,0,L|362:271,1,45,6|0,0:0|0:0,0:0:0:0:
163,326,57903,2,0,L|116:326,1,45,6|0,0:0|0:0,0:0:0:0:
285,241,58015,2,0,L|294:187,1,45.1000006881714,6|0,0:0|0:0,0:0:0:0:
454,143,58126,2,0,L|391:138,1,45.1000006881714,6|0,0:0|0:0,0:0:0:0:
242,120,58237,1,8,0:0:0:0:
131,106,58293,1,8,0:0:0:0:
245,104,58348,1,8,0:0:0:0:
133,94,58404,1,8,0:0:0:0:
298,61,58459,6,0,L|406:61,1,90,6|8,0:0|0:0,0:0:0:0:
145,215,58681,2,0,L|49:215,1,90,6|8,0:0|0:0,0:0:0:0:
312,255,58904,2,0,L|316:306,1,45.1000006881714
373,299,59015,2,0,L|377:350,1,45.1000006881714
137,338,59126,1,0,0:0:0:0:
182,335,59181,1,0,0:0:0:0:
227,333,59237,1,0,0:0:0:0:
272,330,59292,1,0,0:0:0:0:
398,179,59348,5,8,0:0:0:0:
254,190,59404,1,8,0:0:0:0:
110,204,59460,1,8,0:0:0:0:
255,230,59515,1,8,0:0:0:0:
406,238,59571,1,8,0:0:0:0:
250,274,59626,1,8,0:0:0:0:
96,277,59682,1,8,0:0:0:0:
271,305,59737,1,8,0:0:0:0:
435,310,59793,5,8,0:0:0:0:
263,185,59848,1,8,0:0:0:0:
96,169,59904,1,8,0:0:0:0:
271,256,59959,1,8,0:0:0:0:
463,195,60015,2,0,L|372:196,1,90,14|0,0:0|0:0,0:0:0:0:
192,57,60237,6,0,L|194:163,1,90,14|0,0:0|0:0,0:0:0:0:
432,224,60459,1,2,0:0:0:0:
231,222,60571,1,2,0:0:0:0:
27,303,60682,2,0,L|137:302,1,90,2|0,0:0|0:0,0:0:0:0:
333,341,60904,1,12,0:0:0:0:
65,184,61015,1,12,0:0:0:0:
417,190,61126,5,14,0:0:0:0:
463,175,61181,1,2,0:0:0:0:
481,130,61237,1,2,0:0:0:0:
456,91,61292,1,2,0:0:0:0:
415,72,61348,1,2,0:0:0:0:
286,113,61459,1,2,0:0:0:0:
415,244,61571,5,14,0:0:0:0:
371,244,61626,1,2,0:0:0:0:
326,244,61682,1,2,0:0:0:0:
281,244,61737,1,2,0:0:0:0:
236,244,61793,1,2,0:0:0:0:
373,136,61904,1,0,0:0:0:0:
144,217,62015,5,12,0:0:0:0:
369,185,62126,1,12,0:0:0:0:
208,102,62348,1,6,0:0:0:0:
189,145,62403,1,2,0:0:0:0:
169,188,62459,1,6,0:0:0:0:
367,109,62681,1,12,0:0:0:0:
201,219,62904,6,0,L|190:152,1,45,6|2,0:0|0:0,0:0:0:0:
264,171,63015,2,0,L|273:103,1,45,2|2,0:0|0:0,0:0:0:0:
154,98,63126,1,8,0:0:0:0:
38,77,63181,1,8,0:0:0:0:
154,98,63237,1,4,0:0:0:0:
38,77,63292,1,4,0:0:0:0:
308,259,63348,2,0,L|308:151,1,90,6|2,0:0|0:0,0:0:0:0:
126,246,63571,6,0,L|34:247,1,90,8|4,0:0|0:0,0:0:0:0:
355,327,63793,2,0,L|412:327,2,45,14|2|2,0:0|0:0|0:0,0:0:0:0:
166,321,64015,1,14,0:0:0:0:
215,322,64070,1,2,0:0:0:0:
265,322,64126,1,2,0:0:0:0:
166,234,64237,2,0,L|29:350,1,180
126,339,64570,1,0,0:0:0:0:
417,201,64682,6,0,L|363:201,1,45,6|0,0:0|0:0,0:0:0:0:
164,272,64793,2,0,L|168:218,1,45,6|0,0:0|0:0,0:0:0:0:
341,281,64904,2,0,L|388:281,1,45,6|0,0:0|0:0,0:0:0:0:
175,158,65015,2,0,L|128:158,1,45,6|0,0:0|0:0,0:0:0:0:
368,175,65126,2,0,L|362:117,3,45,6|0|6|0,0:0|0:0|0:0|0:0,0:0:0:0:
206,209,65348,5,8,0:0:0:0:
95,195,65404,1,8,0:0:0:0:
209,193,65459,1,8,0:0:0:0:
97,183,65515,1,8,0:0:0:0:
256,99,65571,2,0,L|364:99,1,90,6|8,0:0|0:0,0:0:0:0:
139,216,65793,2,0,L|43:216,1,90,6|8,0:0|0:0,0:0:0:0:
282,343,66015,2,0,L|275:242,1,90
167,251,66237,2,0,L|160:150,1,90
415,173,66459,5,8,0:0:0:0:
298,172,66515,1,8,0:0:0:0:
413,86,66570,1,8,0:0:0:0:
297,134,66626,1,8,0:0:0:0:
126,97,66681,2,0,L|187:98,1,45.1000006881714,8|8,0:0|0:0,0:0:0:0:
321,271,66793,2,0,L|272:271,1,45.1000006881714,8|8,0:0|0:0,0:0:0:0:
84,302,66904,5,8,0:0:0:0:
195,304,66960,1,8,0:0:0:0:
86,286,67015,1,8,0:0:0:0:
195,287,67071,1,8,0:0:0:0:
326,310,67126,2,0,L|421:313,1,90.2000013763428,8|2,0:0|0:0,0:0:0:0:
119,202,67348,6,0,L|125:139,1,45,2|0,0:0|0:0,0:0:0:0:
280,298,67459,2,0,L|286:361,1,45,2|0,0:0|0:0,0:0:0:0:
441,208,67570,2,0,L|447:145,1,45,2|0,0:0|0:0,0:0:0:0:
263,203,67681,2,0,L|311:203,1,45,2|0,0:0|0:0,0:0:0:0:
174,96,67792,2,0,L|129:96,1,45,8|0,0:0|0:0,0:0:0:0:
318,54,67904,2,0,L|369:54,1,45,8|0,0:0|0:0,0:0:0:0:
207,195,68015,5,4,0:0:0:0:
89,189,68070,1,0,0:0:0:0:
275,272,68126,1,4,0:0:0:0:
393,278,68181,1,0,0:0:0:0:
144,311,68237,6,0,L|17:312,1,99.0000030212403,6|0,0:0|0:0,0:0:0:0:
110,165,68459,2,0,L|123:280,1,98.9999969787599,2|0,0:0|0:0,0:0:0:0:
342,305,68681,2,0,L|339:193,1,99.0000030212403,2|0,0:0|0:0,0:0:0:0:
235,212,68904,2,0,L|339:212,1,99.0000030212403,2|0,0:0|0:0,0:0:0:0:
433,312,69126,2,0,L|330:313,1,99.0000030212403,12|0,0:0|0:0,0:0:0:0:
148,227,69348,5,6,0:0:0:0:
366,117,69459,1,6,0:0:0:0:
139,102,69570,2,0,L|259:102,1,99.0000030212403,0|6,0:0|0:0,0:0:0:0:
123,171,69793,2,0,L|243:171,1,99.0000030212403,2|6,0:0|0:0,0:0:0:0:
322,277,70015,2,0,L|320:168,1,99.0000030212403,2|6,0:0|0:0,0:0:0:0:
114,322,70237,6,0,L|346:321,1,208.999994419098,6|0,0:0|0:0,0:0:0:0:
129,203,70459,1,2,0:0:0:0:
361,125,70570,1,0,0:0:0:0:
156,76,70681,2,0,L|52:76,1,99.0000030212403,2|0,0:0|0:0,0:0:0:0:
318,241,70904,5,10,0:0:0:0:
207,238,70959,1,2,0:0:0:0:
319,226,71015,1,2,0:0:0:0:
208,210,71070,1,2,0:0:0:0:
324,206,71126,2,0,L|427:205,1,98.9999969787599,6|0,0:0|0:0,0:0:0:0:
210,266,71348,2,0,L|195:161,1,98.9999969787599,6|0,0:0|0:0,0:0:0:0:
23,298,71570,2,0,L|144:297,1,98.9999969787599,6|0,0:0|0:0,0:0:0:0:
388,192,71793,6,0,L|266:192,2,99.0000030212403,2|6|2,0:0|0:0|0:0,0:0:0:0:
229,286,72070,1,0,0:0:0:0:
65,246,72126,2,0,L|289:133,2,220,6|2|6,0:0|0:0|0:0,0:0:0:0:
346,191,72459,2,0,L|349:315,1,99.0000030212403,2|6,0:0|0:0,0:0:0:0:
119,281,72681,2,0,L|232:282,1,99.0000030212403,10|0,0:0|0:0,0:0:0:0:
102,207,72904,2,0,L|215:208,1,99.0000030212403,2|0,0:0|0:0,0:0:0:0:
371,260,73126,2,0,L|473:261,1,98.9999969787599,2|0,0:0|0:0,0:0:0:0:
206,150,73348,2,0,L|317:150,1,99.0000030212403,2|0,0:0|0:0,0:0:0:0:
473,320,73570,6,0,L|423:322,1,49.4999984893799,6|2,0:0|0:0,0:0:0:0:
288,265,73681,2,0,L|238:265,1,49.5000015106202,2|2,0:0|0:0,0:0:0:0:
452,221,73793,2,0,L|448:167,1,49.4999984893799,2|2,0:0|0:0,0:0:0:0:
281,154,73904,2,0,L|277:100,1,49.4999984893799,2|2,0:0|0:0,0:0:0:0:
136,78,74015,2,0,L|76:75,1,49.4999984893799,2|2,0:0|0:0,0:0:0:0:
254,215,74126,2,0,L|313:212,1,49.4999984893799,2|2,0:0|0:0,0:0:0:0:
89,139,74237,2,0,L|29:136,1,49.4999984893799,4|2,0:0|0:0,0:0:0:0:
275,287,74348,2,0,L|334:284,1,49.4999984893799,2|2,0:0|0:0,0:0:0:0:
451,202,74459,5,8,0:0:0:0:
333,194,74515,1,8,0:0:0:0:
444,178,74570,1,8,0:0:0:0:
329,171,74626,1,8,0:0:0:0:
192,147,74681,2,0,L|130:148,1,49.4999984893799,2|2,0:0|0:0,0:0:0:0:
311,197,74793,2,0,L|314:256,1,49.4999984893799,2|2,0:0|0:0,0:0:0:0:
465,312,74904,2,0,L|477:246,1,49.4999984893799,6|2,0:0|0:0,0:0:0:0:
253,273,75015,2,0,L|185:267,1,49.4999984893799,2|2,0:0|0:0,0:0:0:0:
378,198,75126,2,0,L|427:195,1,49.4999984893799,2|2,0:0|0:0,0:0:0:0:
217,149,75237,2,0,L|155:149,1,49.4999984893799,2|2,0:0|0:0,0:0:0:0:
377,154,75348,6,0,L|504:153,1,99.0000030212403,4|0,0:0|0:0,0:0:0:0:
368,304,75570,2,0,L|355:189,1,98.9999969787599,2|0,0:0|0:0,0:0:0:0:
170,79,75792,2,0,L|173:191,1,99.0000030212403,2|0,0:0|0:0,0:0:0:0:
282,180,76015,2,0,L|178:180,1,99.0000030212403,0|2,0:0|0:0,0:0:0:0:
84,63,76237,2,0,L|187:62,1,99.0000030212403,12|0,0:0|0:0,0:0:0:0:
364,157,76459,5,6,0:0:0:0:
146,267,76570,1,6,0:0:0:0:
373,282,76681,2,0,L|253:282,1,99.0000030212403,0|6,0:0|0:0,0:0:0:0:
486,192,76904,2,0,L|366:192,1,99.0000030212403,2|6,0:0|0:0,0:0:0:0:
187,106,77126,2,0,L|170:218,1,98.9999969787599,2|6,0:0|0:0,0:0:0:0:
388,44,77348,6,0,L|150:45,1,220,6|0,0:0|0:0,0:0:0:0:
383,181,77570,1,2,0:0:0:0:
151,259,77681,1,0,0:0:0:0:
356,308,77792,2,0,L|460:308,1,99.0000030212403,2|0,0:0|0:0,0:0:0:0:
194,143,78015,5,10,0:0:0:0:
307,142,78070,1,2,0:0:0:0:
197,199,78126,1,2,0:0:0:0:
313,196,78181,1,2,0:0:0:0:
189,292,78237,2,0,L|86:293,1,98.9999969787599,6|0,0:0|0:0,0:0:0:0:
287,140,78459,2,0,L|302:245,1,98.9999969787599,6|0,0:0|0:0,0:0:0:0:
489,86,78681,2,0,L|368:87,1,98.9999969787599,6|0,0:0|0:0,0:0:0:0:
124,192,78904,6,0,L|246:192,2,99.0000030212403,0|6|2,0:0|0:0|0:0,0:0:0:0:
283,98,79181,1,0,0:0:0:0:
447,138,79237,2,0,L|219:254,2,220,6|0|6,0:0|0:0|0:0,0:0:0:0:
166,193,79570,2,0,L|163:69,1,99.0000030212403,2|6,0:0|0:0,0:0:0:0:
393,103,79792,2,0,L|280:102,1,99.0000030212403,10|0,0:0|0:0,0:0:0:0:
407,174,80015,2,0,L|294:173,1,99.0000030212403,2|0,0:0|0:0,0:0:0:0:
134,123,80237,2,0,L|32:122,1,98.9999969787599,2|0,0:0|0:0,0:0:0:0:
306,234,80459,2,0,L|195:234,1,99.0000030212403,2|0,0:0|0:0,0:0:0:0:
39,64,80681,6,0,L|89:62,1,49.4999984893799,6|2,0:0|0:0,0:0:0:0:
224,119,80792,2,0,L|274:119,1,49.5000015106202,2|2,0:0|0:0,0:0:0:0:
60,163,80904,2,0,L|64:217,1,49.4999984893799,2|2,0:0|0:0,0:0:0:0:
231,230,81015,2,0,L|235:284,1,49.4999984893799,2|2,0:0|0:0,0:0:0:0:
376,306,81126,2,0,L|436:309,1,49.4999984893799,2|2,0:0|0:0,0:0:0:0:
258,169,81237,2,0,L|199:172,1,49.4999984893799,2|2,0:0|0:0,0:0:0:0:
423,245,81348,2,0,L|483:248,1,49.4999984893799,6|2,0:0|0:0,0:0:0:0:
236,285,81459,2,0,L|295:282,1,49.4999984893799,2|2,0:0|0:0,0:0:0:0:
415,267,81570,5,8,0:0:0:0:
276,228,81626,1,8,0:0:0:0:
401,184,81681,1,8,0:0:0:0:
266,137,81737,1,8,0:0:0:0:
392,103,81792,2,0,L|454:102,1,49.4999984893799,2|2,0:0|0:0,0:0:0:0:
240,220,81904,2,0,L|237:161,1,49.4999984893799,2|2,0:0|0:0,0:0:0:0:
36,95,82015,6,0,L|90:99,1,49.4999984893799,6|2,0:0|0:0,0:0:0:0:
271,106,82126,2,0,L|339:112,1,49.4999984893799,2|2,0:0|0:0,0:0:0:0:
100,275,82237,2,0,L|114:218,1,49.4999984893799,2|2,0:0|0:0,0:0:0:0:
262,223,82348,2,0,L|274:164,1,49.4999984893799,2|2,0:0|0:0,0:0:0:0:
427,329,82459,6,0,P|189:127|91:345,1,630,2|0,0:0|0:0,0:0:0:0:
331,272,83348,1,12,0:0:0:0:
188,249,83570,1,2,0:0:0:0:
167,161,83681,1,2,0:0:0:0:
330,161,83904,1,2,0:0:0:0:
346,72,84015,1,2,0:0:0:0:
148,72,84237,6,0,L|338:72,2,180,6|2|2,0:0|0:0|0:0,0:0:0:0:
360,152,84904,1,0,0:0:0:0:
76,308,85126,2,0,L|71:111,1,180,12|0,0:0|0:0,0:0:0:0:
362,279,85570,2,0,L|353:210,1,45.1000006881714,2|2,0:0|0:0,0:0:0:0:
235,223,85681,2,0,L|226:163,1,45.1000006881714,2|2,0:0|0:0,0:0:0:0:
71,153,85793,2,0,L|143:152,1,45,2|2,0:0|0:0,0:0:0:0:
284,119,85904,2,0,L|331:119,1,45,2|2,0:0|0:0,0:0:0:0:
90,92,86015,6,0,P|226:159|65:302,1,432,2|0,0:0|0:0,0:0:0:0:
386,301,86904,1,12,0:0:0:0:
261,269,87126,1,2,0:0:0:0:
253,180,87237,1,2,0:0:0:0:
394,189,87460,1,2,0:0:0:0:
410,100,87571,1,2,0:0:0:0:
110,94,87793,6,0,L|311:95,2,180,6|2|2,0:0|0:0|0:0,0:0:0:0:
308,159,88459,2,0,L|316:286,1,90,2|2,0:0|0:0,0:0:0:0:
102,166,88681,1,12,0:0:0:0:
321,96,88793,1,2,0:0:0:0:
96,264,88904,2,0,L|191:265,1,90,2|0,0:0|0:0,0:0:0:0:
379,165,89126,6,0,L|371:117,1,45.1000006881714,4|4,0:0|0:0,0:0:0:0:
317,121,89237,2,0,L|321:68,1,45.1000006881714,4|4,0:0|0:0,0:0:0:0:
448,259,89348,1,2,0:0:0:0:
335,260,89403,1,2,0:0:0:0:
448,259,89459,1,2,0:0:0:0:
335,260,89514,1,2,0:0:0:0:
183,131,89570,6,0,P|93:168|200:335,1,352,2|0,0:0|0:0,0:0:0:0:
358,191,90237,1,0,0:0:0:0:
49,107,90459,1,12,0:0:0:0:
227,170,90681,1,2,0:0:0:0:
40,169,90792,1,2,0:0:0:0:
226,238,91015,1,2,0:0:0:0:
27,236,91126,1,2,0:0:0:0:
323,329,91348,5,6,0:0:0:0:
274,329,91403,1,2,0:0:0:0:
224,330,91459,1,2,0:0:0:0:
418,275,91570,2,0,L|462:273,2,45,2|2|2,0:0|0:0|0:0,0:0:0:0:
211,227,91793,1,2,0:0:0:0:
261,227,91848,1,2,0:0:0:0:
310,228,91904,2,0,P|370:186|292:150,1,180,2|0,0:0|0:0,0:0:0:0:
86,147,92237,2,0,B|306:130|306:130|84:146,1,440,12|0,0:0|0:0,0:0:0:0:
373,311,92681,6,0,L|371:243,1,45,4|4,0:0|0:0,0:0:0:0:
217,264,92793,2,0,L|170:262,1,45,4|4,0:0|0:0,0:0:0:0:
327,196,92904,2,0,L|374:194,1,45,2|2,0:0|0:0,0:0:0:0:
165,179,93015,2,0,L|118:177,1,45,2|2,0:0|0:0,0:0:0:0:
340,68,93126,6,0,L|468:68,2,120,2|2|2,0:0|0:0|0:0,0:0:0:0:
190,180,93570,2,0,L|326:181,2,120,2|2|2,0:0|0:0|0:0,0:0:0:0:
439,324,94015,6,0,L|334:325,1,90,12|0,0:0|0:0,0:0:0:0:
117,285,94237,1,2,0:0:0:0:
324,234,94348,2,0,L|417:233,1,90,2|0,0:0|0:0,0:0:0:0:
190,200,94570,1,2,0:0:0:0:
407,133,94681,2,0,L|299:132,1,90,2|0,0:0|0:0,0:0:0:0:
89,249,94904,6,0,L|37:251,2,45,2|2|2,0:0|0:0|0:0,0:0:0:0:
263,320,95126,1,8,0:0:0:0:
218,320,95181,1,8,0:0:0:0:
173,320,95237,1,8,0:0:0:0:
359,207,95348,2,0,L|411:209,2,45,4|4|4,0:0|0:0|0:0,0:0:0:0:
148,172,95570,5,12,0:0:0:0:
411,91,95681,1,12,0:0:0:0:
159,87,95793,2,0,L|151:207,1,90,2|8,0:0|0:0,0:0:0:0:
430,172,96015,2,0,L|319:172,1,90,8|6,0:0|0:0,0:0:0:0:
84,291,96237,2,0,L|199:294,1,90.2000013763428,8|8,0:0|0:0,0:0:0:0:
377,245,96459,2,0,L|467:245,1,90,4|4,0:0|0:0,0:0:0:0:
135,230,96681,6,0,L|8:231,1,99.0000030212403,4|0,0:0|0:0,0:0:0:0:
115,156,96903,2,0,L|128:271,1,98.9999969787599,2|0,0:0|0:0,0:0:0:0:
342,305,97125,2,0,L|339:193,1,99.0000030212403,2|0,0:0|0:0,0:0:0:0:
230,206,97348,2,0,L|334:206,1,99.0000030212403,2|0,0:0|0:0,0:0:0:0:
428,335,97570,2,0,L|325:336,1,99.0000030212403,12|0,0:0|0:0,0:0:0:0:
148,227,97792,5,6,0:0:0:0:
366,117,97903,1,6,0:0:0:0:
139,102,98014,2,0,L|259:102,1,99.0000030212403,0|2,0:0|0:0,0:0:0:0:
123,171,98237,2,0,L|243:171,1,99.0000030212403,0|8,0:0|0:0,0:0:0:0:
325,278,98459,2,0,L|323:169,1,99.0000030212403,0|4,0:0|0:0,0:0:0:0:
118,324,98681,6,0,L|353:324,1,220,6|0,0:0|0:0,0:0:0:0:
129,203,98903,1,2,0:0:0:0:
361,125,99014,1,4,0:0:0:0:
156,76,99125,2,0,L|52:76,1,99.0000030212403,2|4,0:0|0:0,0:0:0:0:
317,240,99348,5,14,0:0:0:0:
103,136,99459,1,6,0:0:0:0:
299,89,99570,2,0,L|402:88,1,98.9999969787599,6|0,0:0|0:0,0:0:0:0:
299,253,99792,2,0,L|284:148,1,98.9999969787599,6|0,0:0|0:0,0:0:0:0:
23,298,100014,2,0,L|144:297,1,98.9999969787599,6|0,0:0|0:0,0:0:0:0:
388,192,100237,6,0,L|266:192,2,99.0000030212403
229,286,100514,1,0,0:0:0:0:
65,246,100570,2,0,L|289:133,2,220
346,191,100904,2,0,L|349:315,1,99.0000030212403,2|2,0:0|0:0,0:0:0:0:
119,281,101125,2,0,L|232:282,1,99.0000030212403,12|0,0:0|0:0,0:0:0:0:
108,207,101348,2,0,L|221:208,1,99.0000030212403,2|0,0:0|0:0,0:0:0:0:
382,263,101570,2,0,L|484:264,1,98.9999969787599,2|0,0:0|0:0,0:0:0:0:
206,150,101792,2,0,L|317:150,1,99.0000030212403,2|0,0:0|0:0,0:0:0:0:
473,320,102014,6,0,L|423:322,1,49.4999984893799,6|2,0:0|0:0,0:0:0:0:
288,265,102125,2,0,L|238:265,1,49.5000015106202,2|2,0:0|0:0,0:0:0:0:
452,221,102237,2,0,L|448:167,1,49.4999984893799,2|2,0:0|0:0,0:0:0:0:
281,154,102348,2,0,L|277:100,1,49.4999984893799,2|2,0:0|0:0,0:0:0:0:
136,78,102459,2,0,L|76:75,1,49.4999984893799,2|2,0:0|0:0,0:0:0:0:
254,215,102570,2,0,L|313:212,1,49.4999984893799,2|2,0:0|0:0,0:0:0:0:
78,140,102681,2,0,L|18:137,1,49.4999984893799,6|2,0:0|0:0,0:0:0:0:
147,315,102793,2,0,L|206:312,1,49.4999984893799,2|2,0:0|0:0,0:0:0:0:
326,297,102904,5,8,0:0:0:0:
187,258,102960,1,8,0:0:0:0:
312,214,103015,1,8,0:0:0:0:
177,167,103071,1,8,0:0:0:0:
310,141,103125,2,0,L|365:141,1,49.4999984893799,2|2,0:0|0:0,0:0:0:0:
208,343,103237,2,0,L|151:342,1,49.4999984893799,2|2,0:0|0:0,0:0:0:0:
349,348,103348,6,0,L|406:349,1,49.4999984893799,6|2,0:0|0:0,0:0:0:0:
278,280,103459,1,2,0:0:0:0:
163,253,103515,1,2,0:0:0:0:
290,193,103570,2,0,L|325:139,1,49.4999984893799,2|2,0:0|0:0,0:0:0:0:
201,116,103681,1,2,0:0:0:0:
85,93,103737,1,2,0:0:0:0:
340,154,103792,6,0,L|467:153,1,99.0000030212403,4|0,0:0|0:0,0:0:0:0:
343,282,104014,2,0,L|330:167,1,98.9999969787599,2|0,0:0|0:0,0:0:0:0:
133,79,104237,2,0,L|136:191,1,99.0000030212403,2|0,0:0|0:0,0:0:0:0:
245,218,104459,2,0,L|141:218,1,99.0000030212403
47,218,104681,2,0,L|150:217,1,99.0000030212403,12|0,0:0|0:0,0:0:0:0:
327,157,104903,5,6,0:0:0:0:
101,282,105014,1,6,0:0:0:0:
351,307,105125,2,0,L|243:287,1,98.9999969787599
383,201,105293,1,0,0:0:0:0:
245,180,105348,2,0,L|139:165,1,98.9999969787599,4|0,0:0|0:0,0:0:0:0:
24,179,105515,1,0,0:0:0:0:
148,252,105570,2,0,L|249:242,1,98.9999969787599,4|0,0:0|0:0,0:0:0:0:
124,157,105737,1,0,0:0:0:0:
7,81,105793,6,0,L|245:82,1,220,6|0,0:0|0:0,0:0:0:0:
424,71,106014,1,2,0:0:0:0:
231,134,106125,1,0,0:0:0:0:
466,138,106236,2,0,L|362:138,1,99.0000030212403,2|0,0:0|0:0,0:0:0:0:
189,181,106459,5,10,0:0:0:0:
304,178,106514,1,2,0:0:0:0:
190,250,106570,1,2,0:0:0:0:
304,247,106625,1,2,0:0:0:0:
449,337,106681,2,0,L|346:338,1,98.9999969787599,6|0,0:0|0:0,0:0:0:0:
142,148,106903,2,0,L|152:254,1,98.9999969787599,14|0,0:0|0:0,0:0:0:0:
328,252,107125,2,0,L|433:251,1,98.9999969787599,6|0,0:0|0:0,0:0:0:0:
124,192,107348,6,0,L|246:192,2,99.0000030212403,0|0|2,0:0|0:0|0:0,0:0:0:0:
283,98,107625,1,2,0:0:0:0:
447,138,107681,2,0,L|219:254,2,220,2|6|0,0:0|0:0|0:0,0:0:0:0:
166,193,108014,2,0,L|163:69,1,99.0000030212403,2|8,0:0|0:0,0:0:0:0:
393,103,108236,2,0,L|280:102,1,99.0000030212403,12|0,0:0|0:0,0:0:0:0:
404,174,108459,2,0,L|291:173,1,99.0000030212403,2|0,0:0|0:0,0:0:0:0:
131,125,108681,2,0,L|29:124,1,98.9999969787599,2|0,0:0|0:0,0:0:0:0:
258,201,108903,2,0,L|368:201,1,98.9999969787599,2|0,0:0|0:0,0:0:0:0:
39,320,109126,6,0,L|89:322,1,49.4999984893799,6|2,0:0|0:0,0:0:0:0:
224,265,109237,2,0,L|274:265,1,49.5000015106202,2|2,0:0|0:0,0:0:0:0:
60,221,109349,2,0,L|64:167,1,49.4999984893799,2|2,0:0|0:0,0:0:0:0:
231,154,109459,2,0,L|235:100,1,49.4999984893799,2|2,0:0|0:0,0:0:0:0:
376,78,109571,2,0,L|436:75,1,49.4999984893799,2|2,0:0|0:0,0:0:0:0:
258,215,109682,2,0,L|199:212,1,49.4999984893799,2|2,0:0|0:0,0:0:0:0:
423,139,109793,2,0,L|483:136,1,49.4999984893799,6|2,0:0|0:0,0:0:0:0:
217,283,109904,2,0,L|158:280,1,49.4999984893799,2|2,0:0|0:0,0:0:0:0:
53,270,110015,5,8,0:0:0:0:
177,226,110071,1,8,0:0:0:0:
62,171,110126,1,8,0:0:0:0:
183,148,110182,1,8,0:0:0:0:
304,108,110237,2,0,L|366:109,1,49.4999984893799,2|2,0:0|0:0,0:0:0:0:
181,158,110349,2,0,L|178:217,1,49.4999984893799,2|2,0:0|0:0,0:0:0:0:
28,310,110460,6,0,L|82:306,1,49.4999984893799,6|2,0:0|0:0,0:0:0:0:
195,272,110571,1,2,0:0:0:0:
313,243,110627,1,2,0:0:0:0:
180,191,110682,2,0,L|145:137,1,49.4999984893799,2|2,0:0|0:0,0:0:0:0:
277,114,110793,1,2,0:0:0:0:
395,85,110849,1,2,0:0:0:0:
216,329,110904,6,0,B|87:32|87:32|224:339,1,631.4000096344,4|0,0:0|0:0,0:0:0:0:
379,279,111793,5,12,0:0:0:0:
264,274,111848,1,8,0:0:0:0:
154,271,111904,1,8,0:0:0:0:
363,157,112015,1,12,0:0:0:0:
132,127,112126,2,0,L|75:127,2,45,12|8|8,0:0|0:0|0:0,0:0:0:0:
388,96,112348,1,12,0:0:0:0:
119,321,112459,2,0,L|165:322,1,45.1000006881714,8|8,0:0|0:0,0:0:0:0:
323,230,112570,2,0,L|264:230,1,45.1000006881714,2|2,0:0|0:0,0:0:0:0:
99,188,112681,5,8,0:0:0:0:
256,146,112904,1,0,0:0:0:0:
414,113,113126,1,0,0:0:0:0:
260,75,113348,1,0,0:0:0:0:
51,162,113570,2,0,L|117:158,1,45.1000006881714,8|8,0:0|0:0,0:0:0:0:
205,154,113681,1,8,0:0:0:0:
418,119,113793,2,0,L|464:119,2,45,4|4|4,0:0|0:0|0:0,0:0:0:0:
236,323,114015,5,8,0:0:0:0:
125,303,114070,1,8,0:0:0:0:
236,323,114126,1,8,0:0:0:0:
125,303,114181,1,8,0:0:0:0:
343,253,114237,1,2,0:0:0:0:
391,234,114292,1,2,0:0:0:0:
391,234,114348,1,2,0:0:0:0:
343,253,114403,1,2,0:0:0:0:
42,60,114459,6,0,L|47:134,1,49.4999984893799,14|0,0:0|0:0,0:0:0:0:
196,259,114570,2,0,L|201:186,1,49.4999984893799,10|0,0:0|0:0,0:0:0:0:
354,162,114681,2,0,L|359:236,1,49.4999984893799,14|0,0:0|0:0,0:0:0:0:
204,145,114792,2,0,L|137:144,1,49.4999984893799,10|0,0:0|0:0,0:0:0:0:
437,50,114903,6,0,L|429:123,1,49.4999984893799,14|0,0:0|0:0,0:0:0:0:
267,105,115014,2,0,L|258:179,1,49.4999984893799,10|0,0:0|0:0,0:0:0:0:
97,158,115125,2,0,L|88:233,1,49.4999984893799,14|0,0:0|0:0,0:0:0:0:
286,231,115236,2,0,L|354:233,1,49.4999984893799,10|0,0:0|0:0,0:0:0:0:
67,36,115348,6,0,L|81:107,1,49.4999984893799,14|0,0:0|0:0,0:0:0:0:
251,318,115459,2,0,L|265:248,1,49.4999984893799,10|0,0:0|0:0,0:0:0:0:
436,157,115570,2,0,L|450:228,1,49.4999984893799,14|0,0:0|0:0,0:0:0:0:
238,195,115681,2,0,L|182:197,1,49.4999984893799,10|0,0:0|0:0,0:0:0:0:
472,32,115792,6,0,L|466:105,1,49.4999984893799,14|0,0:0|0:0,0:0:0:0:
273,77,115903,2,0,L|266:150,1,49.4999984893799,10|0,0:0|0:0,0:0:0:0:
73,143,116014,2,0,L|67:212,1,49.4999984893799,14|0,0:0|0:0,0:0:0:0:
291,202,116125,2,0,L|348:202,1,49.4999984893799,10|0,0:0|0:0,0:0:0:0:
34,354,116237,5,14,0:0:0:0:
175,331,116292,1,10,0:0:0:0:
319,58,116348,1,10,0:0:0:0:
174,94,116403,1,10,0:0:0:0:
33,114,116459,1,14,0:0:0:0:
172,209,116515,1,10,0:0:0:0:
312,192,116571,1,10,0:0:0:0:
449,197,116626,1,10,0:0:0:0:
312,235,116681,5,14,0:0:0:0:
172,87,116737,1,10,0:0:0:0:
309,73,116792,1,10,0:0:0:0:
453,254,116848,1,10,0:0:0:0:
312,149,116904,5,14,0:0:0:0:
172,297,116959,1,10,0:0:0:0:
309,311,117015,1,10,0:0:0:0:
453,130,117071,1,10,0:0:0:0:
190,219,117126,6,0,L|94:220,1,90,14|0,0:0|0:0,0:0:0:0:
217,294,117348,2,0,L|223:184,1,90,2|0,0:0|0:0,0:0:0:0:
118,202,117570,2,0,L|109:95,1,90,2|0,0:0|0:0,0:0:0:0:
219,110,117792,2,0,L|123:110,1,90,2|0,0:0|0:0,0:0:0:0:
427,328,118015,5,6,0:0:0:0:
475,315,118070,1,0,0:0:0:0:
475,315,118126,1,6,0:0:0:0:
427,328,118181,1,0,0:0:0:0:
231,327,118237,2,0,L|232:264,1,45,6|0,0:0|0:0,0:0:0:0:
410,239,118348,2,0,L|455:239,1,45,6|0,0:0|0:0,0:0:0:0:
249,172,118459,5,6,0:0:0:0:
293,172,118514,1,0,0:0:0:0:
338,172,118570,1,6,0:0:0:0:
381,172,118625,1,0,0:0:0:0:
185,148,118681,1,6,0:0:0:0:
135,161,118737,1,0,0:0:0:0:
135,161,118792,1,6,0:0:0:0:
185,148,118847,1,0,0:0:0:0:
388,325,118903,6,0,L|337:325,1,45,6|0,0:0|0:0,0:0:0:0:
157,287,119015,2,0,L|93:288,1,45,6|0,0:0|0:0,0:0:0:0:
309,240,119126,1,6,0:0:0:0:
359,227,119182,1,0,0:0:0:0:
359,227,119237,1,6,0:0:0:0:
309,240,119292,1,0,0:0:0:0:
109,148,119348,2,0,L|110:211,1,45,6|0,0:0|0:0,0:0:0:0:
323,146,119459,2,0,L|386:147,1,45,6|0,0:0|0:0,0:0:0:0:
140,252,119570,5,6,0:0:0:0:
185,252,119625,1,0,0:0:0:0:
231,252,119681,1,6,0:0:0:0:
276,252,119736,1,0,0:0:0:0:
83,167,119793,2,0,L|38:166,1,45,8|8,0:0|0:0,0:0:0:0:
210,153,119904,1,0,0:0:0:0:
378,118,120015,1,0,0:0:0:0:
178,58,120126,1,0,0:0:0:0:
403,199,120237,2,0,L|342:198,1,45,8|0,0:0|0:0,0:0:0:0:
158,163,120348,1,8,0:0:0:0:
410,269,120459,5,8,0:0:0:0:
295,257,120515,1,8,0:0:0:0:
182,246,120570,1,8,0:0:0:0:
423,75,120681,1,8,0:0:0:0:
308,87,120737,1,8,0:0:0:0:
195,98,120792,1,8,0:0:0:0:
429,239,120903,1,8,0:0:0:0:
202,58,121015,1,8,0:0:0:0:
444,294,121126,6,0,L|438:230,1,45,8|0,0:0|0:0,0:0:0:0:
259,156,121237,2,0,L|253:220,1,45,8|0,0:0|0:0,0:0:0:0:
82,275,121348,1,8,0:0:0:0:
198,263,121404,1,0,0:0:0:0:
357,346,121459,1,8,0:0:0:0:
241,339,121515,1,0,0:0:0:0:
121,346,121570,6,0,L|117:285,3,45,6|2|2|2,0:0|0:0|0:0|0:0,0:0:0:0:
174,292,121793,2,0,L|178:231,3,45,2|2|2|2,0:0|0:0|0:0|0:0,0:0:0:0:
124,240,122015,1,6,0:0:0:0:
78,224,122070,1,2,0:0:0:0:
78,224,122126,1,2,0:0:0:0:
124,240,122181,1,2,0:0:0:0:
185,225,122237,2,0,L|185:171,1,45,2|2,0:0|0:0,0:0:0:0:
122,180,122348,2,0,L|75:180,1,45,2|2,0:0|0:0,0:0:0:0:
287,351,122459,5,14,0:0:0:0:
328,333,122514,1,2,0:0:0:0:
331,290,122570,1,2,0:0:0:0:
291,269,122625,1,2,0:0:0:0:
231,263,122681,2,0,L|225:207,3,45,2|2|2|2,0:0|0:0|0:0|0:0,0:0:0:0:
291,215,122904,2,0,L|297:159,3,45,6|2|2|2,0:0|0:0|0:0|0:0,0:0:0:0:
230,53,123126,5,2,0:0:0:0:
185,49,123181,1,2,0:0:0:0:
145,68,123237,1,2,0:0:0:0:
121,105,123292,1,2,0:0:0:0:
120,150,123348,1,6,0:0:0:0:
142,188,123403,1,2,0:0:0:0:
181,210,123459,1,2,0:0:0:0:
225,208,123514,1,2,0:0:0:0:
289,188,123570,6,0,L|296:132,3,45,2|2|2|2,0:0|0:0|0:0|0:0,0:0:0:0:
234,88,123793,1,6,0:0:0:0:
189,82,123848,1,2,0:0:0:0:
149,101,123904,1,2,0:0:0:0:
126,139,123959,1,2,0:0:0:0:
126,183,124015,1,2,0:0:0:0:
151,220,124070,1,2,0:0:0:0:
191,238,124126,1,2,0:0:0:0:
234,88,124181,1,0,0:0:0:0:
420,208,124237,5,12,0:0:0:0:
131,111,124348,1,12,0:0:0:0:
420,208,124459,1,12,0:0:0:0:
131,111,124570,1,12,0:0:0:0:
420,208,124681,1,12,0:0:0:0:
131,111,124793,1,12,0:0:0:0:
377,331,124904,5,6,0:0:0:0:
421,332,124959,1,2,0:0:0:0:
460,310,125015,1,2,0:0:0:0:
482,271,125070,1,2,0:0:0:0:
481,227,125126,1,2,0:0:0:0:
457,189,125181,1,2,0:0:0:0:
418,169,125237,1,2,0:0:0:0:
373,172,125292,1,2,0:0:0:0:
166,172,125348,5,12,0:0:0:0:
452,59,125459,1,12,0:0:0:0:
166,303,125570,5,6,0:0:0:0:
121,304,125625,1,2,0:0:0:0:
82,282,125681,1,2,0:0:0:0:
60,243,125736,1,2,0:0:0:0:
61,199,125792,1,2,0:0:0:0:
85,161,125847,1,2,0:0:0:0:
124,141,125903,1,2,0:0:0:0:
169,144,125958,1,2,0:0:0:0:
372,188,126015,5,12,0:0:0:0:
85,52,126126,1,12,0:0:0:0:
378,167,126237,5,6,0:0:0:0:
234,143,126293,1,2,0:0:0:0:
90,140,126348,1,2,0:0:0:0:
251,58,126404,1,2,0:0:0:0:
413,255,126459,1,2,0:0:0:0:
258,238,126515,1,2,0:0:0:0:
108,243,126570,1,2,0:0:0:0:
270,167,126626,1,2,0:0:0:0:
433,159,126681,5,12,0:0:0:0:
250,99,126793,1,6,0:0:0:0:
73,341,126904,5,14,0:0:0:0:
34,321,126959,1,2,0:0:0:0:
32,278,127015,1,2,0:0:0:0:
68,254,127070,1,2,0:0:0:0:
222,277,127126,2,0,L|269:276,1,45,2|2,0:0|0:0,0:0:0:0:
42,190,127237,6,0,L|98:189,1,45.1000006881714,14|2,0:0|0:0,0:0:0:0:
220,207,127348,2,0,L|229:142,1,45.1000006881714,2|2,0:0|0:0,0:0:0:0:
413,151,127459,2,0,L|367:151,1,45.1000006881714,2|2,0:0|0:0,0:0:0:0:
86,91,127570,6,0,L|142:90,1,45.1000006881714,14|2,0:0|0:0,0:0:0:0:
270,94,127681,2,0,L|277:149,1,45.1000006881714,2|2,0:0|0:0,0:0:0:0:
421,244,127793,2,0,L|373:208,1,45.1000006881714,2|2,0:0|0:0,0:0:0:0:
176,228,127904,5,14,0:0:0:0:
124,222,127959,1,2,0:0:0:0:
176,228,128015,1,2,0:0:0:0:
124,222,128070,1,2,0:0:0:0:
283,303,128126,2,0,L|348:305,1,45.1000006881714,2|2,0:0|0:0,0:0:0:0:
77,132,128237,2,0,L|177:132,1,90.2000013763428,6|0,0:0|0:0,0:0:0:0:
384,79,128459,2,0,L|288:77,1,90.2000013763428,6|0,0:0|0:0,0:0:0:0:
115,336,128681,6,0,L|111:275,3,45,6|2|2|2,0:0|0:0|0:0|0:0,0:0:0:0:
178,284,128904,2,0,L|183:231,1,45,2|2,0:0|0:0,0:0:0:0:
246,241,129015,2,0,L|251:188,1,45,2|2,0:0|0:0,0:0:0:0:
182,176,129126,1,6,0:0:0:0:
136,160,129181,1,2,0:0:0:0:
136,160,129237,1,2,0:0:0:0:
182,176,129292,1,2,0:0:0:0:
252,157,129348,2,0,L|252:103,1,45,2|2,0:0|0:0,0:0:0:0:
182,112,129459,2,0,L|135:112,1,45,2|2,0:0|0:0,0:0:0:0:
360,343,129570,5,14,0:0:0:0:
401,325,129625,1,2,0:0:0:0:
404,282,129681,1,2,0:0:0:0:
364,261,129736,1,2,0:0:0:0:
299,254,129793,2,0,L|294:198,1,45,2|2,0:0|0:0,0:0:0:0:
229,208,129904,2,0,L|224:152,1,45,2|2,0:0|0:0,0:0:0:0:
291,254,130015,2,0,L|296:198,1,45,6|2,0:0|0:0,0:0:0:0:
361,208,130126,2,0,L|366:152,1,45,2|2,0:0|0:0,0:0:0:0:
175,63,130237,5,2,0:0:0:0:
130,59,130292,1,2,0:0:0:0:
90,78,130348,1,2,0:0:0:0:
66,115,130403,1,2,0:0:0:0:
65,160,130459,1,6,0:0:0:0:
87,198,130514,1,2,0:0:0:0:
126,220,130570,1,2,0:0:0:0:
170,218,130625,1,2,0:0:0:0:
231,206,130681,2,0,L|226:150,1,45,2|2,0:0|0:0,0:0:0:0:
161,158,130793,2,0,L|156:102,1,45,2|2,0:0|0:0,0:0:0:0:
219,87,130904,5,6,0:0:0:0:
264,81,130959,1,2,0:0:0:0:
304,100,131015,1,2,0:0:0:0:
327,138,131070,1,2,0:0:0:0:
327,182,131126,1,2,0:0:0:0:
302,219,131181,1,2,0:0:0:0:
262,237,131237,1,2,0:0:0:0:
218,230,131292,1,2,0:0:0:0:
74,238,131348,5,12,0:0:0:0:
203,248,131404,1,8,0:0:0:0:
333,262,131460,1,8,0:0:0:0:
460,289,131515,1,8,0:0:0:0:
333,332,131570,1,12,0:0:0:0:
203,321,131626,1,8,0:0:0:0:
346,327,131681,1,8,0:0:0:0:
477,270,131737,1,8,0:0:0:0:
346,205,131793,1,12,0:0:0:0:
218,224,131848,1,8,0:0:0:0:
350,159,131904,1,8,0:0:0:0:
478,137,131959,1,8,0:0:0:0:
248,112,132015,5,6,0:0:0:0:
204,115,132070,1,2,0:0:0:0:
167,139,132126,1,2,0:0:0:0:
146,179,132181,1,2,0:0:0:0:
146,223,132237,1,2,0:0:0:0:
168,262,132292,1,2,0:0:0:0:
205,286,132348,1,2,0:0:0:0:
249,289,132403,1,2,0:0:0:0:
359,300,132459,1,12,0:0:0:0:
250,232,132515,1,8,0:0:0:0:
363,237,132570,1,8,0:0:0:0:
254,164,132626,1,8,0:0:0:0:
375,118,132681,5,6,0:0:0:0:
421,127,132737,1,2,0:0:0:0:
458,151,132793,1,2,0:0:0:0:
479,191,132848,1,2,0:0:0:0:
479,235,132904,1,2,0:0:0:0:
457,274,132959,1,2,0:0:0:0:
420,298,133015,1,2,0:0:0:0:
376,301,133070,1,2,0:0:0:0:
238,294,133126,1,12,0:0:0:0:
355,215,133182,1,8,0:0:0:0:
223,199,133237,1,8,0:0:0:0:
336,120,133293,1,8,0:0:0:0:
154,80,133348,5,2,0:0:0:0:
112,95,133403,1,2,0:0:0:0:
94,135,133459,1,2,0:0:0:0:
109,176,133514,1,2,0:0:0:0:
149,195,133570,1,2,0:0:0:0:
195,200,133626,1,2,0:0:0:0:
157,284,133682,1,2,0:0:0:0:
115,285,133737,1,2,0:0:0:0:
309,214,133793,5,6,0:0:0:0:
92,95,133904,1,6,0:0:0:0:
326,348,134015,6,0,L|319:288,3,45,14|2|2|2,0:0|0:0|0:0|0:0,0:0:0:0:
191,302,134237,2,0,L|144:301,1,45,2|2,0:0|0:0,0:0:0:0:
382,261,134348,1,14,0:0:0:0:
419,241,134404,1,2,0:0:0:0:
421,223,134459,1,2,0:0:0:0:
389,163,134515,1,2,0:0:0:0:
237,184,134570,2,0,L|190:183,1,45,2|2,0:0|0:0,0:0:0:0:
442,171,134681,5,14,0:0:0:0:
490,155,134737,1,2,0:0:0:0:
490,155,134793,1,2,0:0:0:0:
442,171,134848,1,2,0:0:0:0:
284,105,134904,2,0,L|237:104,1,45,2|2,0:0|0:0,0:0:0:0:
60,69,135015,2,0,L|114:69,1,45,14|2,0:0|0:0,0:0:0:0:
321,208,135126,2,0,L|277:209,1,45,2|2,0:0|0:0,0:0:0:0:
91,284,135237,2,0,L|149:283,1,45,2|2,0:0|0:0,0:0:0:0:
360,286,135341,5,14,0:0:0:0:
84,170,135563,2,0,P|179:135|76:253,1,450,6|0,0:0|0:0,0:0:0:0:
314,272,136229,1,12,0:0:0:0:
134,242,136452,1,2,0:0:0:0:
178,242,136507,1,2,0:0:0:0:
223,243,136563,1,2,0:0:0:0:
178,242,136618,1,2,0:0:0:0:
133,242,136674,1,2,0:0:0:0:
332,240,136896,2,0,L|327:177,3,45,2|2|2|2,0:0|0:0|0:0|0:0,0:0:0:0:
144,164,137118,5,14,0:0:0:0:
440,72,137341,2,0,L|407:346,1,270,6|0,0:0|0:0,0:0:0:0:
201,161,137785,2,0,L|144:161,1,45,2|2,0:0|0:0,0:0:0:0:
309,259,137896,2,0,L|366:259,1,45,2|2,0:0|0:0,0:0:0:0:
134,258,138007,1,14,0:0:0:0:
305,192,138229,2,0,L|314:308,1,90,6|6,0:0|0:0,0:0:0:0:
141,245,138563,2,0,L|132:361,1,90,6|6,0:0|0:0,0:0:0:0:
338,240,138785,1,8,0:0:0:0:
132,116,138896,5,14,0:0:0:0:
345,106,139118,1,6,0:0:0:0:
147,283,139341,2,0,P|57:226|173:154,1,270
385,142,139785,1,12,0:0:0:0:
98,245,140229,2,0,L|43:245,2,45,8|8|8,0:0|0:0|0:0,0:0:0:0:
221,234,140452,1,4,0:0:0:0:
176,234,140507,1,4,0:0:0:0:
131,234,140563,1,4,0:0:0:0:
346,337,140674,5,6,0:0:0:0:
396,334,140729,1,2,0:0:0:0:
344,320,140785,1,2,0:0:0:0:
394,317,140841,1,2,0:0:0:0:
221,340,140896,2,0,L|215:268,1,45,6|2,0:0|0:0,0:0:0:0:
85,317,141007,2,0,L|79:245,1,45,2|2,0:0|0:0,0:0:0:0:
339,171,141118,5,6,0:0:0:0:
391,179,141174,1,2,0:0:0:0:
341,156,141229,1,2,0:0:0:0:
393,167,141285,1,2,0:0:0:0:
212,262,141341,2,0,L|206:190,1,45,6|2,0:0|0:0,0:0:0:0:
68,235,141452,2,0,L|62:163,1,45,2|2,0:0|0:0,0:0:0:0:
336,48,141563,5,14,0:0:0:0:
386,56,141618,1,2,0:0:0:0:
342,32,141674,1,2,0:0:0:0:
392,45,141729,1,2,0:0:0:0:
209,165,141785,2,0,L|203:93,1,45,6|2,0:0|0:0,0:0:0:0:
52,117,141896,2,0,L|46:45,1,45,2|2,0:0|0:0,0:0:0:0:
286,85,142007,2,0,P|332:133|270:150,1,135,14|0,0:0|0:0,0:0:0:0:
113,235,142229,2,0,P|67:283|130:306,1,135,14|0,0:0|0:0,0:0:0:0:
342,272,142452,5,14,0:0:0:0:
46,139,142674,2,0,L|343:364,1,360,6|0,0:0|0:0,0:0:0:0:
224,357,143229,1,6,0:0:0:0:
434,327,143341,2,0,L|428:227,1,90,0|6,0:0|0:0,0:0:0:0:
311,239,143563,2,0,L|305:139,1,90,2|2,0:0|0:0,0:0:0:0:
65,295,143785,2,0,L|168:296,1,90.2000013763428,6|2,0:0|0:0,0:0:0:0:
250,234,144007,2,0,L|159:233,1,90,0|6,0:0|0:0,0:0:0:0:
459,234,144229,5,14,0:0:0:0:
176,78,144452,2,0,P|69:106|200:307,1,450,6|0,0:0|0:0,0:0:0:0:
419,266,145118,1,14,0:0:0:0:
238,168,145341,2,0,L|229:284,1,90,6|6,0:0|0:0,0:0:0:0:
393,244,145674,2,0,L|402:360,1,90,6|6,0:0|0:0,0:0:0:0:
173,232,145896,1,2,0:0:0:0:
364,127,146007,5,14,0:0:0:0:
166,112,146229,1,6,0:0:0:0:
477,211,146452,2,0,L|345:209,2,120,2|2|2,0:0|0:0|0:0,0:0:0:0:
155,192,146896,1,12,0:0:0:0:
344,194,147118,1,2,0:0:0:0:
284,193,147192,1,2,0:0:0:0:
224,192,147266,1,2,0:0:0:0:
164,192,147341,1,2,0:0:0:0:
362,138,147563,1,2,0:0:0:0:
35,348,147785,5,6,0:0:0:0:
143,333,147840,1,2,0:0:0:0:
33,331,147896,1,2,0:0:0:0:
143,314,147951,1,2,0:0:0:0:
270,328,148008,2,0,L|276:256,1,45,6|2,0:0|0:0,0:0:0:0:
393,296,148119,2,0,L|399:224,1,45,2|2,0:0|0:0,0:0:0:0:
164,230,148229,2,0,L|166:162,1,45,6|2,0:0|0:0,0:0:0:0:
330,183,148341,2,0,L|389:184,1,45,2|2,0:0|0:0,0:0:0:0:
147,110,148452,2,0,L|88:113,1,45,6|2,0:0|0:0,0:0:0:0:
269,71,148563,2,0,L|320:70,1,45,2|2,0:0|0:0,0:0:0:0:
481,162,148674,5,6,0:0:0:0:
436,161,148729,1,2,0:0:0:0:
391,161,148785,1,2,0:0:0:0:
346,160,148840,1,2,0:0:0:0:
123,321,148896,2,0,L|124:258,1,45,6|2,0:0|0:0,0:0:0:0:
321,253,149007,2,0,L|384:255,1,45,2|2,0:0|0:0,0:0:0:0:
217,224,149118,5,12,0:0:0:0:
104,207,149173,1,8,0:0:0:0:
219,207,149229,1,8,0:0:0:0:
106,190,149284,1,8,0:0:0:0:
251,130,149341,2,0,L|303:123,1,45.1000006881714,2|2,0:0|0:0,0:0:0:0:
436,56,149452,2,0,L|389:50,1,45.1000006881714,2|2,0:0|0:0,0:0:0:0:
173,61,149563,6,0,P|101:74|200:319,1,453.750013847352
362,238,150452,6,0,L|315:236,1,45.1000006881714,8|8,0:0|0:0,0:0:0:0:
155,116,150563,2,0,L|209:115,1,45.1000006881714,8|8,0:0|0:0,0:0:0:0:
343,220,150674,5,8,0:0:0:0:
457,204,150729,1,8,0:0:0:0:
328,127,150785,1,8,0:0:0:0:
199,158,150841,1,8,0:0:0:0:
44,172,150896,6,0,L|91:170,1,45.1000006881714,8|8,0:0|0:0,0:0:0:0:
245,65,151007,2,0,L|199:69,1,45.1000006881714,8|8,0:0|0:0,0:0:0:0:
364,65,151118,6,0,L|457:64,1,90,2|0,0:0|0:0,0:0:0:0:
281,192,151340,2,0,L|276:84,1,90
172,278,151563,2,0,L|167:170,1,90
285,345,151785,2,0,L|291:236,1,90
169,258,152007,2,0,L|270:258,1,90
69,253,152229,5,4,0:1:0:0:
267,191,152340,1,0,0:0:0:0:
64,315,152452,2,0,L|163:315,1,90
273,234,152674,2,0,L|182:234,1,90.2000013763428
368,209,152896,5,2,0:0:0:0:
175,120,153007,1,0,0:0:0:0:
474,55,153118,1,4,0:1:0:0:
394,54,153229,1,0,0:0:0:0:
313,180,153340,1,0,0:0:0:0:
229,178,153451,1,0,0:0:0:0:
12,288,153563,2,0,L|104:288,1,90,2|0,0:0|0:0,0:0:0:0:
285,210,153785,2,0,L|381:210,1,90.2000013763428
81,208,154007,5,8,0:0:0:0:
209,182,154081,1,8,0:0:0:0:
81,208,154155,1,8,0:0:0:0:
292,318,154229,5,8,0:0:0:0:
164,294,154303,1,8,0:0:0:0:
292,318,154377,1,8,0:0:0:0:
67,281,154452,1,8,0:0:0:0:
200,276,154526,1,8,0:0:0:0:
334,273,154600,1,8,0:0:0:0:
111,180,154674,2,0,P|93:161|124:63,1,135.300002064514
353,217,154896,5,6,0:0:0:0:
215,173,155340,1,6,0:0:0:0:
78,134,155785,1,6,0:0:0:0:
265,90,156229,1,6,0:0:0:0:
445,226,156674,1,6,0:0:0:0:
238,224,156896,1,2,0:0:0:0:
298,224,156970,1,2,0:0:0:0:
358,224,157044,1,2,0:0:0:0:
147,223,157118,1,12,0:0:0:0:
443,109,157340,1,0,0:0:0:0:
128,284,157563,6,0,L|130:167,1,99.0000030212403,12|8,0:0|0:0,0:0:0:0:
358,185,157785,2,0,L|457:184,1,99.0000030212403,12|8,0:0|0:0,0:0:0:0:
208,112,158007,2,0,L|312:112,1,99.0000030212403,12|8,0:0|0:0,0:0:0:0:
57,112,158229,2,0,L|51:228,1,99.0000030212403,12|8,0:0|0:0,0:0:0:0:
281,202,158452,1,12,0:0:0:0:
39,287,158563,1,8,0:0:0:0:
262,277,158674,1,12,0:0:0:0:
481,268,158785,1,8,0:0:0:0:
208,166,158896,6,0,L|91:167,1,99.0000030212403,12|8,0:0|0:0,0:0:0:0:
375,92,159118,2,0,L|492:93,1,99.0000030212403,12|8,0:0|0:0,0:0:0:0:
241,102,159340,2,0,L|185:103,1,49.4999984893799,12|2,0:0|0:0,0:0:0:0:
50,211,159452,2,0,L|108:212,1,49.4999984893799,8|2,0:0|0:0,0:0:0:0:
292,256,159563,2,0,L|182:256,1,99.0000030212403,12|8,0:0|0:0,0:0:0:0:
416,135,159785,1,12,0:0:0:0:
185,58,159896,1,8,0:0:0:0:
443,211,160007,6,0,L|380:210,1,49.5000015106202,12|2,0:0|0:0,0:0:0:0:
150,148,160118,2,0,L|213:147,1,49.5000015106202,8|2,0:0|0:0,0:0:0:0:
404,84,160229,2,0,L|381:212,1,98.9999969787599,12|8,0:0|0:0,0:0:0:0:
105,196,160452,1,12,0:0:0:0:
372,268,160563,1,8,0:0:0:0:
116,312,160674,2,0,L|54:311,1,49.5000015106202,12|2,0:0|0:0,0:0:0:0:
232,242,160785,2,0,L|294:241,1,49.5000015106202,8|2,0:0|0:0,0:0:0:0:
118,139,160896,1,12,0:0:0:0:
356,70,161007,1,8,0:0:0:0:
99,304,161118,6,0,L|105:240,1,49.4999984893799,12|2,0:0|0:0,0:0:0:0:
253,246,161229,2,0,L|261:188,1,49.4999984893799,8|2,0:0|0:0,0:0:0:0:
421,145,161340,2,0,L|357:148,1,49.4999984893799,12|2,0:0|0:0,0:0:0:0:
224,315,161452,2,0,L|276:315,1,49.4999984893799,8|2,0:0|0:0,0:0:0:0:
439,294,161563,2,0,L|435:233,1,49.4999984893799,12|2,0:0|0:0,0:0:0:0:
297,233,161674,2,0,L|291:166,1,49.4999984893799,8|2,0:0|0:0,0:0:0:0:
126,155,161785,2,0,L|210:155,1,49.5000015106202,12|2,0:0|0:0,0:0:0:0:
320,97,161896,2,0,L|380:96,1,49.5000015106202,8|2,0:0|0:0,0:0:0:0:
139,308,162007,6,0,L|145:242,1,49.5000015106202,12|2,0:0|0:0,0:0:0:0:
266,252,162118,2,0,L|272:186,1,49.5000015106202,8|2,0:0|0:0,0:0:0:0:
392,201,162229,2,0,L|398:135,1,49.5000015106202,12|2,0:0|0:0,0:0:0:0:
205,147,162340,2,0,L|147:149,1,49.5000015106202,8|2,0:0|0:0,0:0:0:0:
324,282,162452,2,0,L|261:256,1,49.4999984893799,12|2,0:0|0:0,0:0:0:0:
439,353,162563,2,0,L|432:293,1,49.4999984893799,8|2,0:0|0:0,0:0:0:0:
252,325,162674,2,0,L|303:298,1,49.4999984893799,12|2,0:0|0:0,0:0:0:0:
149,229,162785,2,0,L|88:227,1,49.5000015106202,8|2,0:0|0:0,0:0:0:0:
369,265,162896,6,0,L|367:200,3,49.5000015106202,6|2|2|2,0:0|0:0|0:0|0:0,0:0:0:0:
308,219,163118,2,0,L|303:157,1,49.5000015106202,6|2,0:0|0:0,0:0:0:0:
244,176,163229,2,0,L|239:114,1,49.5000015106202,2|2,0:0|0:0,0:0:0:0:
452,126,163340,1,6,0:0:0:0:
402,126,163395,1,2,0:0:0:0:
353,126,163451,1,2,0:0:0:0:
303,126,163506,1,2,0:0:0:0:
103,234,163563,2,0,L|168:234,1,49.5000015106202,6|2,0:0|0:0,0:0:0:0:
313,308,163674,2,0,L|378:308,1,49.5000015106202,2|2,0:0|0:0,0:0:0:0:
147,341,163785,5,14,0:0:0:0:
102,326,163840,1,2,0:0:0:0:
102,280,163896,1,2,0:0:0:0:
145,264,163951,1,2,0:0:0:0:
200,259,164007,2,0,L|201:205,1,49.5000015106202,6|2,0:0|0:0,0:0:0:0:
146,208,164118,2,0,L|93:210,1,49.5000015106202,2|2,0:0|0:0,0:0:0:0:
242,160,164229,5,12,0:0:0:0:
355,143,164284,1,8,0:0:0:0:
240,143,164340,1,8,0:0:0:0:
353,126,164395,1,8,0:0:0:0:
222,107,164452,1,6,0:0:0:0:
106,85,164507,1,2,0:0:0:0:
285,158,164563,1,2,0:0:0:0:
400,137,164618,1,2,0:0:0:0:
141,33,164674,6,0,B|79:54|79:54|257:142|257:142|168:243|168:243|398:366|398:366|338:244|338:244|97:242,1,1022.99996878052,6|0,0:0|0:0,0:0:0:0:
294,212,166452,6,0,L|310:211,1,11.2750001720429
457,229,166674,2,0,L|470:229,1,11.2750001720429
149,131,166896,2,0,L|55:132,1,90
240,280,167118,1,0,0:0:0:0:
190,225,167229,2,0,L|237:224,1,45
348,297,167342,5,2,0:0:0:0:
383,285,167397,1,0,0:0:0:0:
412,264,167453,1,0,0:0:0:0:
431,233,167508,1,0,0:0:0:0:
440,198,167564,1,0,0:0:0:0:
437,162,167619,1,0,0:0:0:0:
421,129,167675,1,0,0:0:0:0:
395,103,167730,1,0,0:0:0:0:
363,88,167786,1,0,0:0:0:0:
327,84,167842,1,0,0:0:0:0:
292,92,167897,1,0,0:0:0:0:
261,111,167953,1,0,0:0:0:0:
232,135,168009,5,0,0:0:0:0:
213,166,168065,1,0,0:0:0:0:
205,200,168120,1,0,0:0:0:0:
209,237,168176,1,0,0:0:0:0:
224,269,168230,1,0,0:0:0:0:
250,295,168286,1,0,0:0:0:0:
282,310,168342,1,0,0:0:0:0:
319,314,168397,1,0,0:0:0:0:
353,305,168453,1,0,0:0:0:0:
384,285,168508,1,0,0:0:0:0:
406,256,168564,1,0,0:0:0:0:
417,221,168619,1,0,0:0:0:0:
241,92,168675,5,2,0:0:0:0:
206,103,168730,1,0,0:0:0:0:
177,125,168786,1,0,0:0:0:0:
158,156,168841,1,0,0:0:0:0:
149,191,168897,1,0,0:0:0:0:
152,227,168952,1,0,0:0:0:0:
167,259,169008,1,0,0:0:0:0:
193,285,169063,1,0,0:0:0:0:
226,301,169119,1,0,0:0:0:0:
262,305,169175,1,0,0:0:0:0:
297,297,169230,1,0,0:0:0:0:
328,277,169286,1,0,0:0:0:0:
357,254,169342,5,0,0:0:0:0:
376,223,169398,1,0,0:0:0:0:
384,188,169453,1,0,0:0:0:0:
380,152,169509,1,0,0:0:0:0:
365,119,169565,1,0,0:0:0:0:
339,94,169620,1,0,0:0:0:0:
306,78,169676,1,0,0:0:0:0:
270,75,169731,1,0,0:0:0:0:
235,84,169787,1,0,0:0:0:0:
205,103,169842,1,0,0:0:0:0:
183,132,169898,1,0,0:0:0:0:
171,167,169953,1,0,0:0:0:0:
322,297,170008,5,2,0:0:0:0:
357,286,170063,1,0,0:0:0:0:
386,264,170119,1,0,0:0:0:0:
405,234,170174,1,0,0:0:0:0:
414,199,170230,1,0,0:0:0:0:
411,162,170285,1,0,0:0:0:0:
395,130,170341,1,0,0:0:0:0:
370,104,170396,1,0,0:0:0:0:
337,89,170452,1,0,0:0:0:0:
301,85,170508,1,0,0:0:0:0:
266,93,170563,1,0,0:0:0:0:
235,112,170619,1,0,0:0:0:0:
206,136,170675,5,0,0:0:0:0:
187,166,170731,1,0,0:0:0:0:
179,201,170786,1,0,0:0:0:0:
183,238,170842,1,0,0:0:0:0:
198,270,170898,1,0,0:0:0:0:
224,296,170953,1,0,0:0:0:0:
256,311,171009,1,0,0:0:0:0:
293,314,171064,1,0,0:0:0:0:
328,306,171120,1,0,0:0:0:0:
358,286,171175,1,0,0:0:0:0:
380,257,171231,1,0,0:0:0:0:
391,222,171286,1,0,0:0:0:0:
179,157,171342,5,2,0:0:0:0:
132,96,171397,1,0,0:0:0:0:
179,157,171453,1,0,0:0:0:0:
132,96,171508,1,0,0:0:0:0:
179,157,171564,1,0,0:0:0:0:
132,96,171619,1,0,0:0:0:0:
179,157,171675,1,0,0:0:0:0:
132,96,171730,1,0,0:0:0:0:
179,157,171786,1,0,0:0:0:0:
132,96,171841,1,0,0:0:0:0:
179,157,171897,1,0,0:0:0:0:
132,96,171952,1,0,0:0:0:0:
321,244,172008,5,2,0:0:0:0:
379,182,172063,1,0,0:0:0:0:
321,244,172119,1,0,0:0:0:0:
379,182,172174,1,0,0:0:0:0:
321,244,172230,1,0,0:0:0:0:
379,182,172285,1,0,0:0:0:0:
321,244,172341,1,0,0:0:0:0:
376,183,172396,1,0,0:0:0:0:
321,244,172453,1,0,0:0:0:0:
377,183,172508,1,0,0:0:0:0:
321,244,172564,1,0,0:0:0:0:
377,183,172619,1,0,0:0:0:0:
163,86,172675,5,2,0:0:0:0:
128,98,172730,1,0,0:0:0:0:
99,119,172786,1,0,0:0:0:0:
80,150,172841,1,0,0:0:0:0:
71,185,172897,1,0,0:0:0:0:
74,221,172952,1,0,0:0:0:0:
90,254,173008,1,0,0:0:0:0:
116,280,173063,1,0,0:0:0:0:
148,295,173119,1,0,0:0:0:0:
184,299,173175,1,0,0:0:0:0:
219,291,173230,1,0,0:0:0:0:
250,272,173286,1,0,0:0:0:0:
279,248,173342,5,0,0:0:0:0:
298,217,173398,1,0,0:0:0:0:
306,183,173453,1,0,0:0:0:0:
302,146,173509,1,0,0:0:0:0:
287,114,173565,1,0,0:0:0:0:
261,88,173620,1,0,0:0:0:0:
229,73,173676,1,0,0:0:0:0:
192,69,173731,1,0,0:0:0:0:
158,78,173787,1,0,0:0:0:0:
127,98,173842,1,0,0:0:0:0:
105,127,173898,1,0,0:0:0:0:
94,162,173953,1,0,0:0:0:0:
270,291,174008,5,2,0:0:0:0:
305,280,174063,1,0,0:0:0:0:
334,258,174119,1,0,0:0:0:0:
353,227,174174,1,0,0:0:0:0:
362,192,174230,1,0,0:0:0:0:
359,156,174285,1,0,0:0:0:0:
344,124,174341,1,0,0:0:0:0:
318,98,174396,1,0,0:0:0:0:
285,82,174452,1,0,0:0:0:0:
249,78,174508,1,0,0:0:0:0:
214,86,174563,1,0,0:0:0:0:
183,106,174619,1,0,0:0:0:0:
154,129,174675,5,0,0:0:0:0:
135,160,174731,1,0,0:0:0:0:
127,195,174786,1,0,0:0:0:0:
131,231,174842,1,0,0:0:0:0:
146,264,174898,1,0,0:0:0:0:
172,289,174953,1,0,0:0:0:0:
205,305,175009,1,0,0:0:0:0:
241,308,175064,1,0,0:0:0:0:
276,299,175120,1,0,0:0:0:0:
306,280,175175,1,0,0:0:0:0:
328,251,175231,1,0,0:0:0:0:
340,216,175286,1,0,0:0:0:0:
189,86,175342,5,2,0:0:0:0:
154,97,175396,1,0,0:0:0:0:
125,119,175452,1,0,0:0:0:0:
106,149,175507,1,0,0:0:0:0:
97,184,175563,1,0,0:0:0:0:
100,221,175618,1,0,0:0:0:0:
116,253,175674,1,0,0:0:0:0:
141,279,175729,1,0,0:0:0:0:
174,294,175785,1,0,0:0:0:0:
210,298,175841,1,0,0:0:0:0:
245,290,175896,1,0,0:0:0:0:
276,271,175952,1,0,0:0:0:0:
305,247,176008,5,0,0:0:0:0:
324,217,176064,1,0,0:0:0:0:
332,182,176119,1,0,0:0:0:0:
328,145,176175,1,0,0:0:0:0:
313,113,176231,1,0,0:0:0:0:
287,87,176286,1,0,0:0:0:0:
255,72,176342,1,0,0:0:0:0:
218,69,176397,1,0,0:0:0:0:
183,77,176453,1,0,0:0:0:0:
153,97,176508,1,0,0:0:0:0:
131,126,176564,1,0,0:0:0:0:
120,161,176619,1,0,0:0:0:0:
320,81,176675,5,2,0:0:0:0:
355,92,176730,1,0,0:0:0:0:
384,114,176786,1,0,0:0:0:0:
404,145,176841,1,0,0:0:0:0:
412,179,176897,1,0,0:0:0:0:
409,216,176952,1,0,0:0:0:0:
394,248,177008,1,0,0:0:0:0:
368,274,177063,1,0,0:0:0:0:
336,289,177119,1,0,0:0:0:0:
299,293,177175,1,0,0:0:0:0:
264,285,177230,1,0,0:0:0:0:
234,266,177286,1,0,0:0:0:0:
205,242,177342,5,0,0:0:0:0:
185,212,177398,1,0,0:0:0:0:
177,177,177453,1,0,0:0:0:0:
181,141,177509,1,0,0:0:0:0:
196,108,177565,1,0,0:0:0:0:
222,82,177620,1,0,0:0:0:0:
255,67,177676,1,0,0:0:0:0:
291,64,177731,1,0,0:0:0:0:
320,81,177786,1,0,0:0:0:0:
355,92,177841,1,0,0:0:0:0:
384,114,177897,1,0,0:0:0:0:
404,145,177952,1,0,0:0:0:0:
163,86,178008,5,2,0:0:0:0:
128,98,178063,1,0,0:0:0:0:
99,119,178119,1,0,0:0:0:0:
80,150,178174,1,0,0:0:0:0:
71,185,178230,1,0,0:0:0:0:
74,221,178285,1,0,0:0:0:0:
90,254,178341,1,0,0:0:0:0:
116,280,178396,1,0,0:0:0:0:
148,295,178452,1,0,0:0:0:0:
184,299,178508,1,0,0:0:0:0:
219,291,178563,1,0,0:0:0:0:
250,272,178619,1,0,0:0:0:0:
279,248,178675,5,0,0:0:0:0:
298,217,178731,1,0,0:0:0:0:
306,183,178786,1,0,0:0:0:0:
302,146,178842,1,0,0:0:0:0:
287,114,178898,1,0,0:0:0:0:
261,88,178953,1,0,0:0:0:0:
229,73,179009,1,0,0:0:0:0:
192,69,179064,1,0,0:0:0:0:
158,78,179120,1,0,0:0:0:0:
127,98,179175,1,0,0:0:0:0:
105,127,179231,1,0,0:0:0:0:
94,162,179286,1,0,0:0:0:0:
270,291,179342,5,2,0:0:0:0:
305,280,179396,1,0,0:0:0:0:
334,258,179452,1,0,0:0:0:0:
353,227,179507,1,0,0:0:0:0:
362,192,179563,1,0,0:0:0:0:
359,156,179618,1,0,0:0:0:0:
344,124,179674,1,0,0:0:0:0:
318,98,179729,1,0,0:0:0:0:
285,82,179785,1,0,0:0:0:0:
249,78,179841,1,0,0:0:0:0:
214,86,179896,1,0,0:0:0:0:
183,106,179952,1,0,0:0:0:0:
154,129,180008,5,0,0:0:0:0:
135,160,180064,1,0,0:0:0:0:
127,195,180119,1,0,0:0:0:0:
131,231,180175,1,0,0:0:0:0:
146,264,180231,1,0,0:0:0:0:
172,289,180286,1,0,0:0:0:0:
205,305,180342,1,0,0:0:0:0:
241,308,180397,1,0,0:0:0:0:
276,299,180453,1,0,0:0:0:0:
306,280,180508,1,0,0:0:0:0:
328,251,180564,1,0,0:0:0:0:
340,216,180619,1,0,0:0:0:0:
189,86,180675,5,2,0:0:0:0:
154,97,180729,1,0,0:0:0:0:
125,119,180786,1,0,0:0:0:0:
106,149,180842,1,0,0:0:0:0:
97,184,180897,1,0,0:0:0:0:
100,221,180953,1,0,0:0:0:0:
116,253,181008,1,0,0:0:0:0:
141,279,181064,1,0,0:0:0:0:
174,294,181119,1,0,0:0:0:0:
210,298,181175,1,0,0:0:0:0:
245,290,181230,1,0,0:0:0:0:
276,271,181286,1,0,0:0:0:0:
305,247,181342,5,0,0:0:0:0:
324,217,181397,1,0,0:0:0:0:
332,182,181453,1,0,0:0:0:0:
328,145,181508,1,0,0:0:0:0:
313,113,181564,1,0,0:0:0:0:
287,87,181619,1,0,0:0:0:0:
255,72,181675,1,0,0:0:0:0:
218,69,181730,1,0,0:0:0:0:
183,77,181786,1,0,0:0:0:0:
153,97,181842,1,0,0:0:0:0:
131,126,181897,1,0,0:0:0:0:
120,161,181953,1,0,0:0:0:0:
328,240,182008,5,2,0:0:0:0:
388,228,182064,1,0,0:0:0:0:
328,240,182119,1,0,0:0:0:0:
388,228,182175,1,0,0:0:0:0:
328,240,182230,1,0,0:0:0:0:
388,228,182286,1,0,0:0:0:0:
328,240,182342,1,0,0:0:0:0:
388,228,182397,1,0,0:0:0:0:
328,240,182453,1,0,0:0:0:0:
388,228,182508,1,0,0:0:0:0:
328,240,182564,1,0,0:0:0:0:
388,228,182619,1,0,0:0:0:0:
183,328,182675,5,2,0:0:0:0:
117,319,182730,1,0,0:0:0:0:
183,328,182786,1,0,0:0:0:0:
117,319,182842,1,0,0:0:0:0:
183,328,182897,1,0,0:0:0:0:
117,319,182953,1,0,0:0:0:0:
183,328,183008,1,0,0:0:0:0:
117,319,183064,1,0,0:0:0:0:
183,328,183119,1,0,0:0:0:0:
117,319,183175,1,0,0:0:0:0:
183,328,183230,1,0,0:0:0:0:
117,319,183286,1,0,0:0:0:0:
348,297,183341,5,2,0:0:0:0:
383,286,183397,1,0,0:0:0:0:
412,264,183453,1,0,0:0:0:0:
432,233,183508,1,0,0:0:0:0:
441,198,183564,1,0,0:0:0:0:
438,161,183619,1,0,0:0:0:0:
422,129,183675,1,0,0:0:0:0:
396,103,183730,1,0,0:0:0:0:
364,87,183786,1,0,0:0:0:0:
327,83,183841,1,0,0:0:0:0:
292,92,183897,1,0,0:0:0:0:
261,111,183953,1,0,0:0:0:0:
232,135,184008,5,0,0:0:0:0:
212,165,184064,1,0,0:0:0:0:
204,200,184119,1,0,0:0:0:0:
208,237,184175,1,0,0:0:0:0:
224,270,184230,1,0,0:0:0:0:
250,296,184286,1,0,0:0:0:0:
282,311,184341,1,0,0:0:0:0:
319,314,184397,1,0,0:0:0:0:
354,305,184453,1,0,0:0:0:0:
385,286,184508,1,0,0:0:0:0:
407,257,184564,1,0,0:0:0:0:
418,222,184619,1,0,0:0:0:0:
241,92,184675,5,2,0:0:0:0:
206,103,184730,1,0,0:0:0:0:
177,125,184786,1,0,0:0:0:0:
157,156,184841,1,0,0:0:0:0:
148,191,184896,1,0,0:0:0:0:
151,227,184953,1,0,0:0:0:0:
167,260,185008,1,0,0:0:0:0:
193,286,185064,1,0,0:0:0:0:
225,301,185119,1,0,0:0:0:0:
262,305,185175,1,0,0:0:0:0:
297,297,185230,1,0,0:0:0:0:
328,278,185286,1,0,0:0:0:0:
357,254,185341,5,0,0:0:0:0:
377,223,185397,1,0,0:0:0:0:
385,188,185453,1,0,0:0:0:0:
381,152,185508,1,0,0:0:0:0:
365,119,185564,1,0,0:0:0:0:
339,93,185619,1,0,0:0:0:0:
307,78,185675,1,0,0:0:0:0:
270,74,185730,1,0,0:0:0:0:
235,83,185786,1,0,0:0:0:0:
204,103,185841,1,0,0:0:0:0:
182,132,185897,1,0,0:0:0:0:
171,167,185952,1,0,0:0:0:0:
322,298,186007,5,2,0:0:0:0:
357,287,186064,1,0,0:0:0:0:
386,265,186119,1,0,0:0:0:0:
406,234,186175,1,0,0:0:0:0:
415,199,186230,1,0,0:0:0:0:
412,162,186286,1,0,0:0:0:0:
396,130,186341,1,0,0:0:0:0:
370,104,186397,1,0,0:0:0:0:
338,88,186453,1,0,0:0:0:0:
301,84,186508,1,0,0:0:0:0:
266,92,186564,1,0,0:0:0:0:
235,112,186619,1,0,0:0:0:0:
206,135,186675,5,0,0:0:0:0:
186,166,186730,1,0,0:0:0:0:
178,201,186786,1,0,0:0:0:0:
182,238,186841,1,0,0:0:0:0:
198,270,186897,1,0,0:0:0:0:
224,296,186952,1,0,0:0:0:0:
256,312,187008,1,0,0:0:0:0:
293,315,187063,1,0,0:0:0:0:
328,306,187119,1,0,0:0:0:0:
359,287,187174,1,0,0:0:0:0:
401,259,187230,5,0,0:0:0:0:
359,257,187286,1,0,0:0:0:0:
316,254,187341,5,0,0:0:0:0:
282,243,187396,1,0,0:0:0:0:
252,221,187452,1,0,0:0:0:0:
233,190,187507,1,0,0:0:0:0:
224,155,187563,1,0,0:0:0:0:
227,118,187618,1,0,0:0:0:0:
242,86,187674,1,0,0:0:0:0:
268,60,187729,1,0,0:0:0:0:
301,44,187785,1,0,0:0:0:0:
338,40,187841,1,0,0:0:0:0:
373,48,187897,1,0,0:0:0:0:
403,68,187953,1,0,0:0:0:0:
433,91,188008,5,0,0:0:0:0:
452,122,188064,1,0,0:0:0:0:
460,157,188119,1,0,0:0:0:0:
456,194,188175,1,0,0:0:0:0:
441,226,188230,1,0,0:0:0:0:
415,252,188286,1,0,0:0:0:0:
382,268,188341,1,0,0:0:0:0:
346,271,188397,1,0,0:0:0:0:
311,262,188453,1,0,0:0:0:0:
280,243,188508,1,0,0:0:0:0:
242,214,188564,1,0,0:0:0:0:
211,178,188619,1,0,0:0:0:0:
358,339,188675,6,0,P|435:284|147:165,1,678.149990790505,2|0,0:0|0:0,0:0:0:0:
347,289,189564,2,0,P|391:238|337:221,1,135,2|0,0:0|0:0,0:0:0:0:
160,345,189786,2,0,P|116:294|170:277,1,135,2|0,0:0|0:0,0:0:0:0:
379,343,190008,6,0,B|167:277|167:277|381:243|381:243|88:88|88:88|450:280,1,1138.50003474426,2|0,0:0|0:0,0:0:0:0:
198,338,191342,2,0,P|155:298|205:269,1,135,2|0,0:0|0:0,0:0:0:0:
260,263,191564,2,0,B|314:218|314:218|237:172,1,135
142,173,191786,2,0,B|88:128|88:128|165:82,1,135,2|0,0:0|0:0,0:0:0:0:
199,96,192008,2,0,B|253:141|253:141|176:187,1,135,2|0,0:0|0:0,0:0:0:0:
77,235,192230,2,0,P|32:272|79:307,1,135,2|0,0:0|0:0,0:0:0:0:
305,204,192453,2,0,P|351:241|304:276,1,135,2|0,0:0|0:0,0:0:0:0:
97,345,192675,6,0,B|287:267|287:267|195:305|195:305|378:230|378:230|329:250,1,544.500016616822,2|0,0:0|0:0,0:0:0:0:
136,47,193342,6,0,B|326:125|326:125|234:87|234:87|417:162|417:162|368:142,1,544.500016616822,2|0,0:0|0:0,0:0:0:0:
129,332,194008,2,0,L|133:221,1,90,2|0,0:0|0:0,0:0:0:0:
247,253,194230,2,0,L|251:142,1,90,2|0,0:0|0:0,0:0:0:0:
367,184,194453,2,0,L|371:73,1,90,2|0,0:0|0:0,0:0:0:0:
251,95,194675,2,0,L|349:94,1,90,2|0,0:0|0:0,0:0:0:0:
224,40,194897,2,0,L|322:39,1,90,2|0,0:0|0:0,0:0:0:0:
189,56,195119,2,0,L|185:167,1,90,2|0,0:0|0:0,0:0:0:0:
413,308,195341,5,2,0:0:0:0:
463,311,195396,1,0,0:0:0:0:
413,308,195452,1,0,0:0:0:0:
463,311,195507,1,0,0:0:0:0:
313,207,195564,2,0,L|305:155,1,45.1000006881714,2|0,0:0|0:0,0:0:0:0:
158,333,195675,2,0,L|162:270,1,45
286,285,195786,2,0,L|282:222,1,45.1000006881714,2|0,0:0|0:0,0:0:0:0:
231,253,195897,2,0,L|173:252,1,45
348,153,196008,6,0,L|406:152,1,45,2|0,0:0|0:0,0:0:0:0:
259,110,196119,2,0,L|190:110,1,45
66,168,196230,2,0,L|120:167,1,45.1000006881714,2|0,0:0|0:0,0:0:0:0:
247,205,196341,1,0,0:0:0:0:
374,258,196397,1,0,0:0:0:0:
146,327,196453,5,2,0:0:0:0:
96,330,196508,1,0,0:0:0:0:
146,327,196564,1,0,0:0:0:0:
96,330,196619,1,0,0:0:0:0:
356,99,196675,6,0,B|354:330|354:330|237:332|237:332|353:332|353:332|237:332|237:332|238:211|238:211|363:85|363:85,1,877.49995983124,2|0,0:0|0:0,0:0:0:0:
123,313,197564,2,0,P|78:273|146:255,1,135,2|0,0:0|0:0,0:0:0:0:
271,250,197786,2,0,L|297:94,1,135.300002064514,2|0,0:0|0:0,0:0:0:0:
458,66,198008,6,0,B|459:311|459:311|352:311|352:311|350:73|350:73|242:73|242:73|243:307|243:307|126:307|126:307|125:81|125:81|213:80,1,1345.4999384079,2|0,0:0|0:0,0:0:0:0:
418,332,199341,6,0,B|125:260|125:260|409:200|409:200|161:252,1,828,2|0,0:0|0:0,0:0:0:0:
398,343,200675,6,0,L|265:320,1,134.887501440754,2|0,0:0|0:0,0:0:0:0:
256,316,200897,2,0,L|116:292,1,134.887501440754,2|0,0:0|0:0,0:0:0:0:
114,287,201119,2,0,L|251:274,1,134.887501440754,2|0,0:0|0:0,0:0:0:0:
258,258,201341,2,0,L|119:256,1,134.887501440754,2|0,0:0|0:0,0:0:0:0:
113,210,201564,2,0,L|250:200,1,134.887501440754,2|0,0:0|0:0,0:0:0:0:
257,161,201786,2,0,L|116:164,1,134.887501440754,2|0,0:0|0:0,0:0:0:0:
113,329,202008,6,0,L|250:319,1,134.887501440754,2|0,0:0|0:0,0:0:0:0:
258,298,202230,2,0,L|421:290,1,154.68750590086,2|0,0:0|0:0,0:0:0:0:
425,256,202453,2,0,L|265:253,1,154.68750590086,2|0,0:0|0:0,0:0:0:0:
259,214,202675,2,0,L|417:207,1,154.68750590086,2|0,0:0|0:0,0:0:0:0:
425,169,202897,2,0,L|267:167,1,154.68750590086,2|0,0:0|0:0,0:0:0:0:
261,169,203119,2,0,L|391:169,1,123.750004720688,2|0,0:0|0:0,0:0:0:0:
50,289,203341,6,0,B|244:213|244:213|148:249|148:249|352:165|352:165|252:209,1,593.999981872559,2|0,0:0|0:0,0:0:0:0:
430,320,204008,6,0,B|264:193|264:193|346:254|346:254|173:117|173:117|257:187,1,593.999981872559,2|0,0:0|0:0,0:0:0:0:
385,348,204675,2,0,P|429:312|221:352,1,885.499972976686,2|0,0:0|0:0,0:0:0:0:
429,320,206008,6,0,L|424:200,1,90,2|0,0:0|0:0,0:0:0:0:
309,231,206230,2,0,L|407:231,1,90,2|0,0:0|0:0,0:0:0:0:
281,319,206453,2,0,L|276:199,1,90,2|0,0:0|0:0,0:0:0:0:
160,239,206675,2,0,L|155:119,1,90,2|0,0:0|0:0,0:0:0:0:
264,148,206897,1,2,0:0:0:0:
354,148,207008,1,0,0:0:0:0:
156,84,207119,1,2,0:0:0:0:
372,231,207230,1,0,0:0:0:0:
138,338,207341,6,0,P|90:310|366:247,1,828,2|0,0:0|0:0,0:0:0:0:
160,169,208675,2,0,B|198:356|198:356|366:193|366:193|195:361|195:361|343:301|343:301|354:118,1,974.159978297828,2|0,0:0|0:0,0:0:0:0:
256,192,210118,12,0,212007,0:0:0:0:
370,194,214530,5,0,0:0:0:0:
250,145,214580,1,0,0:0:0:0:
129,109,214630,5,0,0:0:0:0:
250,145,214680,1,0,0:0:0:0:
371,108,214730,1,0,0:0:0:0:
250,145,214780,1,0,0:0:0:0:
92,178,214830,6,0,L|61:179,2,31.9000002677155
227,197,214980,2,0,L|232:262,1,47.8500004015732
437,280,215130,5,12,0:0:0:0:
435,267,215148,1,0,0:0:0:0:
248,223,215280,1,12,0:0:0:0:
243,201,215298,1,0,0:0:0:0:
50,137,215430,2,0,L|149:138,1,95,12|0,0:0|0:0,0:0:0:0:
356,80,215730,2,0,L|303:76,1,31.6666666666667
175,79,215830,1,0,0:0:0:0:
334,221,216030,6,0,L|375:221,2,31.6666666666667
154,184,216180,1,0,0:0:0:0:
272,157,216230,1,0,0:0:0:0:
390,138,216280,1,0,0:0:0:0:
256,281,216330,2,0,L|215:281,2,31.6666666666667
436,244,216480,1,0,0:0:0:0:
307,216,216530,1,0,0:0:0:0:
178,191,216580,1,0,0:0:0:0:
321,175,216630,6,0,L|362:175,2,31.6666666666667
141,138,216780,1,0,0:0:0:0:
277,108,216830,1,0,0:0:0:0:
413,86,216880,1,0,0:0:0:0:
370,194,216930,1,0,0:0:0:0:
250,145,216980,1,0,0:0:0:0:
129,109,217030,5,0,0:0:0:0:
250,145,217080,1,0,0:0:0:0:
370,194,217130,1,0,0:0:0:0:
250,145,217180,1,0,0:0:0:0:
79,191,217230,6,0,L|42:192,2,31.9000002677155
344,269,217530,5,2,0:0:0:0:
348,237,217580,1,0,0:0:0:0:
351,205,217630,1,0,0:0:0:0:
225,204,217680,1,2,0:0:0:0:
223,172,217730,1,0,0:0:0:0:
221,140,217780,1,0,0:0:0:0:
42,137,217830,2,0,L|157:135,1,95,2|0,0:0|0:0,0:0:0:0:
209,132,218055,1,0,0:0:0:0:
434,81,218130,6,0,L|431:142,1,47.5,10|0,0:0|0:0,0:0:0:0:
285,153,218280,1,0,0:0:0:0:
432,128,218355,1,0,0:0:0:0:
260,246,218430,2,0,L|256:300,1,47.5,10|0,0:0|0:0,0:0:0:0:
107,341,218580,1,0,0:0:0:0:
257,317,218655,1,0,0:0:0:0:
433,270,218730,6,0,L|369:270,1,47.5,10|0,0:0|0:0,0:0:0:0:
223,197,218880,2,0,L|284:197,1,47.5
67,113,219030,2,0,L|62:174,1,47.5,10|0,0:0|0:0,0:0:0:0:
238,238,219180,2,0,L|184:237,1,47.5
370,194,219330,5,2,0:0:0:0:
250,145,219380,1,0,0:0:0:0:
129,109,219430,5,0,0:0:0:0:
250,145,219480,1,0,0:0:0:0:
370,194,219530,1,0,0:0:0:0:
250,145,219580,1,0,0:0:0:0:
84,181,219630,2,0,L|40:182,2,31.9000002677155
211,128,219780,2,0,L|261:125,1,47.8500004015732
62,286,219930,5,12,0:0:0:0:
50,284,219948,1,0,0:0:0:0:
237,231,220080,1,12,0:0:0:0:
251,230,220098,1,0,0:0:0:0:
462,137,220230,2,0,L|363:138,1,95,12|0,0:0|0:0,0:0:0:0:
156,80,220530,2,0,L|209:76,1,31.6666666666667
319,81,220630,1,0,0:0:0:0:
178,221,220830,6,0,L|137:221,2,31.6666666666667
358,184,220980,1,0,0:0:0:0:
240,157,221030,1,0,0:0:0:0:
122,138,221080,1,0,0:0:0:0:
256,281,221130,2,0,L|297:281,2,31.6666666666667
76,244,221280,1,0,0:0:0:0:
205,216,221330,1,0,0:0:0:0:
334,191,221380,1,0,0:0:0:0:
191,175,221430,6,0,L|150:175,2,31.6666666666667
371,138,221580,1,0,0:0:0:0:
235,108,221630,1,0,0:0:0:0:
99,86,221680,1,0,0:0:0:0:
142,194,221730,1,0,0:0:0:0:
262,145,221780,1,0,0:0:0:0:
383,109,221830,5,0,0:0:0:0:
262,145,221880,1,0,0:0:0:0:
142,194,221930,1,0,0:0:0:0:
283,219,221980,1,0,0:0:0:0:
426,173,222030,6,0,L|465:172,2,31.9000002677155
168,269,222330,5,2,0:0:0:0:
164,237,222380,1,0,0:0:0:0:
161,205,222430,1,0,0:0:0:0:
287,204,222480,1,2,0:0:0:0:
289,172,222530,1,0,0:0:0:0:
291,140,222580,1,0,0:0:0:0:
470,137,222630,2,0,L|355:135,1,95,2|0,0:0|0:0,0:0:0:0:
303,132,222855,1,0,0:0:0:0:
78,81,222930,6,0,L|81:142,1,47.5,10|0,0:0|0:0,0:0:0:0:
227,153,223080,1,0,0:0:0:0:
80,128,223155,1,0,0:0:0:0:
252,246,223230,2,0,L|256:300,1,47.5,10|0,0:0|0:0,0:0:0:0:
405,341,223380,1,0,0:0:0:0:
255,317,223455,1,0,0:0:0:0:
79,270,223530,6,0,L|143:270,1,47.5
328,216,223680,2,0,L|390:214,1,47.5
206,290,223830,2,0,L|200:351,1,47.5
31,185,223980,2,0,L|87:185,1,47.5
302,117,224130,5,4,0:0:0:0:
187,103,224180,1,0,0:0:0:0:
71,91,224230,1,0,0:0:0:0:
350,178,224430,1,0,0:0:0:0:
235,164,224480,1,0,0:0:0:0:
119,152,224530,1,0,0:0:0:0:
393,140,224730,5,4,0:0:0:0:
286,140,224880,1,0,0:0:0:0:
64,151,225030,1,0,0:0:0:0:
253,236,225330,1,12,0:0:0:0:
368,222,225380,1,0,0:0:0:0:
484,210,225430,1,0,0:0:0:0:
184,171,225630,6,0,L|190:205,1,31.6666666666667
161,219,225730,2,0,L|155:253,1,31.6666666666667
192,257,225830,2,0,L|200:299,1,31.6666666666667
339,287,225930,5,4,0:0:0:0:
467,287,226005,1,0,0:0:0:0:
335,196,226080,1,0,0:0:0:0:
201,179,226155,1,0,0:0:0:0:
346,112,226230,1,0,0:0:0:0:
194,92,226305,1,0,0:0:0:0:
359,37,226380,1,0,0:0:0:0:
180,24,226455,1,0,0:0:0:0:
388,319,226530,5,4,0:0:0:0:
258,289,226605,1,0,0:0:0:0:
129,262,226680,1,0,0:0:0:0:
273,177,226755,1,0,0:0:0:0:
443,97,226830,1,0,0:0:0:0:
253,99,226905,1,0,0:0:0:0:
420,158,226980,1,0,0:0:0:0:
260,224,227055,1,0,0:0:0:0:
98,313,227130,6,0,L|226:315,1,113.999996520996,4|0,0:0|0:0,0:0:0:0:
323,293,227430,1,0,0:0:0:0:
93,216,227730,6,0,L|97:174,1,38.4999988250733,12|0,0:0|0:0,0:0:0:0:
205,176,227830,2,0,L|208:137,1,37.9999988403321
316,137,227930,2,0,L|317:98,1,37.9999988403321
467,113,228030,2,0,L|463:155,1,37.9999988403321
313,178,228130,2,0,L|310:217,1,37.9999988403321
159,256,228230,2,0,L|158:295,1,38.4999988250733
397,304,228330,6,0,L|404:252,1,38.4999988250733,4|0,0:0|0:0,0:0:0:0:
350,260,228430,2,0,L|358:206,1,38.4999988250733
303,211,228530,2,0,L|311:156,1,38.4999988250733
260,168,228630,2,0,L|268:113,1,38.4999988250733
314,267,228730,2,0,L|322:213,1,38.4999988250733
270,215,228830,2,0,L|278:270,1,38.4999988250733
469,273,228930,5,4,0:0:0:0:
440,269,228980,1,0,0:0:0:0:
412,266,229030,1,0,0:0:0:0:
228,201,229080,2,0,L|293:194,1,56.9999982604981
88,141,229230,2,0,L|36:139,2,38.4999988250733
192,152,229380,2,0,L|199:219,1,57.7499982376099
353,327,229530,6,0,L|273:319,1,56.9999982604981,4|0,0:0|0:0,0:0:0:0:
430,192,229680,2,0,L|350:184,1,56.9999982604981
507,101,229830,2,0,L|427:93,1,56.9999982604981
276,98,229980,2,0,L|217:101,1,57.7499982376099
48,201,230130,5,12,0:0:0:0:
180,192,230180,1,0,0:0:0:0:
304,185,230230,1,0,0:0:0:0:
451,186,230280,2,0,L|383:178,1,56.9999982604981
254,301,230430,2,0,L|252:255,1,38.4999988250733
210,262,230530,2,0,L|208:220,1,38.4999988250733
254,301,230630,2,0,L|250:259,1,37.9999988403321
395,115,230730,6,0,L|330:118,1,56.9999982604981,4|0,0:0|0:0,0:0:0:0:
153,70,230880,1,0,0:0:0:0:
287,63,230955,1,0,0:0:0:0:
419,53,231030,1,0,0:0:0:0:
267,131,231105,1,0,0:0:0:0:
438,114,231180,1,0,0:0:0:0:
240,197,231255,1,0,0:0:0:0:
473,186,231330,6,0,L|385:186,1,75.9999976806641,4|0,0:0|0:0,0:0:0:0:
231,237,231530,2,0,L|307:232,1,76.9999976501466
230,182,231730,1,0,0:0:0:0:
58,360,231830,1,0,0:0:0:0:
135,342,231930,2,0,L|140:256,1,76.9999976501466,4|0,0:0|0:0,0:0:0:0:
318,229,232130,1,0,0:0:0:0:
232,223,232230,2,0,L|223:140,1,76.9999976501466
61,122,232430,1,0,0:0:0:0:
423,166,232530,6,0,L|419:208,1,37.9999988403321,12|0,0:0|0:0,0:0:0:0:
307,204,232630,2,0,L|304:243,1,37.9999988403321
413,301,232730,2,0,L|412:340,1,37.9999988403321
269,293,232830,2,0,L|265:251,1,37.9999988403321
123,214,232930,2,0,L|126:175,1,37.9999988403321
310,169,233030,2,0,L|315:129,1,38.4999988250733
179,72,233130,6,0,L|140:72,1,37.9999988403321,2|0,0:0|0:0,0:0:0:0:
309,70,233230,2,0,L|353:70,1,37.9999988403321
148,135,233330,2,0,L|109:135,1,37.9999988403321
339,139,233430,2,0,L|383:139,1,37.9999988403321
123,202,233530,2,0,L|84:202,1,37.9999988403321
367,206,233630,2,0,L|411:206,1,37.9999988403321
38,284,233730,2,8,B|260:289|260:289|27:270,1,440,0|8,0:0|0:0,0:0:0:0:
401,243,234330,6,0,L|63:168,2,330.000012588501,0|0|8,0:0|0:0|0:0,0:0:0:0:
350,265,234705,1,0,0:0:0:0:
141,277,234780,1,0,0:0:0:0:
353,190,234930,6,0,L|372:176,1,17.8749991817475,8|0,0:0|0:0,0:0:0:0:
323,83,235230,2,0,L|329:61,1,17.8749991817475
285,145,235530,2,0,L|278:122,1,17.8749991817475
237,238,235830,2,0,L|212:218,1,17.8749991817475
32,50,236130,6,0,L|38:105,1,47.5000018119813,12|0,0:0|0:0,0:0:0:0:
178,114,236230,2,0,L|184:171,1,47.5000018119813,8|0,0:0|0:0,0:0:0:0:
334,237,236330,2,0,L|324:186,1,47.6666644846599,8|0,0:0|0:0,0:0:0:0:
87,109,236430,6,0,L|93:164,1,47.5000018119813,10|0,0:0|0:0,0:0:0:0:
249,172,236530,2,0,L|255:229,1,47.5000018119813,8|0,0:0|0:0,0:0:0:0:
422,300,236630,2,0,L|386:258,1,47.6666644846599,8|0,0:0|0:0,0:0:0:0:
117,109,236730,6,0,L|123:164,1,47.5000018119813,10|0,0:0|0:0,0:0:0:0:
280,174,236830,2,0,L|286:231,1,47.5000018119813,8|0,0:0|0:0,0:0:0:0:
486,302,236930,2,0,L|445:268,1,47.6666644846599,8|0,0:0|0:0,0:0:0:0:
289,284,237030,5,10,0:0:0:0:
115,265,237080,1,0,0:0:0:0:
272,194,237130,1,8,0:0:0:0:
430,153,237180,1,0,0:0:0:0:
254,95,237230,1,8,0:0:0:0:
96,52,237280,1,0,0:0:0:0:
307,242,237330,6,0,L|364:230,1,47.6666644846599,10|0,0:0|0:0,0:0:0:0:
201,209,237430,2,0,L|196:154,1,47.5000018119813,8|0,0:0|0:0,0:0:0:0:
75,154,237530,2,0,L|31:124,1,47.6666644846599,8|0,0:0|0:0,0:0:0:0:
336,296,237630,6,0,L|391:283,1,47.6666644846599,10|0,0:0|0:0,0:0:0:0:
216,260,237730,2,0,L|211:205,1,47.5000018119813,8|0,0:0|0:0,0:0:0:0:
77,215,237830,2,0,L|39:160,1,47.5000018119813,8|0,0:0|0:0,0:0:0:0:
407,255,237930,6,0,L|467:238,1,47.6666644846599,10|0,0:0|0:0,0:0:0:0:
251,207,238030,2,0,L|246:152,1,47.5000018119813,8|0,0:0|0:0,0:0:0:0:
86,137,238130,2,0,L|75:83,1,47.6666644846599,8|0,0:0|0:0,0:0:0:0:
229,285,238230,5,10,0:0:0:0:
387,268,238280,1,0,0:0:0:0:
245,204,238330,1,8,0:0:0:0:
102,167,238380,1,0,0:0:0:0:
261,114,238430,1,8,0:0:0:0:
418,66,238480,1,0,0:0:0:0:
175,84,238530,6,0,L|92:192,1,113.999996520996,4|0,0:0|0:0,0:0:0:0:
375,271,238830,2,0,L|299:267,1,56.9999982604981,8|0,0:0|0:0,0:0:0:0:
138,260,238980,1,0,0:0:0:0:
386,99,239130,2,0,B|157:106|157:106|124:231,1,341.999989562989,10|0,0:0|0:0,0:0:0:0:
361,188,239430,2,0,L|298:185,1,56.9999982604981,10|0,0:0|0:0,0:0:0:0:
98,160,239580,1,0,0:0:0:0:
375,80,239730,6,0,L|459:80,1,76.9999976501466,10|0,0:0|0:0,0:0:0:0:
265,74,239930,1,0,0:0:0:0:
100,211,240030,2,0,L|67:138,1,75.9999976806641,10|0,0:0|0:0,0:0:0:0:
257,159,240230,1,0,0:0:0:0:
72,56,240330,5,10,0:0:0:0:
268,235,240430,2,0,L|163:236,1,76.9999976501466
428,312,240630,2,0,L|329:304,2,76.9999976501466,10|0|0,0:0|0:0|0:0,0:0:0:0:
161,288,240930,5,0,0:0:0:0:
328,183,241030,1,0,0:0:0:0:
161,288,241130,1,0,0:0:0:0:
369,139,241230,1,0,0:0:0:0:
293,133,241330,1,0,0:0:0:0:
217,128,241430,1,0,0:0:0:0:
45,59,241530,6,0,L|50:98,1,37.9999988403321,4|0,0:0|0:0,0:0:0:0:
193,129,241630,2,0,L|198:168,1,37.9999988403321
336,262,241730,2,0,L|377:261,2,37.9999988403321,0|0|2,0:0|0:0|0:0,0:0:0:0:
219,261,241880,1,0,0:0:0:0:
111,220,241930,2,0,L|154:220,1,37.9999988403321
291,172,242030,2,0,L|336:172,1,37.9999988403321
479,104,242130,6,0,L|423:105,1,37.9999988403321,10|0,0:0|0:0,0:0:0:0:
289,236,242230,2,0,L|237:233,1,37.9999988403321
142,301,242330,1,0,0:0:0:0:
111,280,242380,1,0,0:0:0:0:
111,244,242430,1,2,0:0:0:0:
141,223,242480,1,0,0:0:0:0:
280,147,242530,2,0,L|325:150,1,37.9999988403321
115,346,242630,2,0,L|70:349,1,37.9999988403321
224,294,242730,5,8,0:0:0:0:
334,268,242780,1,8,0:0:0:0:
444,243,242830,1,8,0:0:0:0:
319,197,242880,1,8,0:0:0:0:
209,172,242930,1,8,0:0:0:0:
83,105,242980,1,8,0:0:0:0:
217,63,243030,5,8,0:0:0:0:
355,27,243080,1,8,0:0:0:0:
232,129,243130,1,8,0:0:0:0:
108,175,243180,1,8,0:0:0:0:
248,203,243230,1,8,0:0:0:0:
392,149,243280,1,8,0:0:0:0:
151,230,243330,6,0,L|31:230,1,115.49999647522,4|0,0:0|0:0,0:0:0:0:
400,77,243630,2,0,L|324:81,1,56.9999982604981,10|0,0:0|0:0,0:0:0:0:
163,88,243780,1,0,0:0:0:0:
431,214,243930,2,0,B|202:207|202:207|168:83,1,346.49998942566,10|0,0:0|0:0,0:0:0:0:
397,81,244230,1,10,0:0:0:0:
263,72,244305,1,0,0:0:0:0:
125,59,244380,1,0,0:0:0:0:
422,180,244530,6,0,L|309:176,2,76.9999976501466,10|0|0,0:0|0:0|0:0,0:0:0:0:
179,254,244830,1,10,0:0:0:0:
349,128,244930,1,0,0:0:0:0:
173,89,245030,1,0,0:0:0:0:
407,37,245130,6,0,L|494:37,2,76.9999976501466,10|0|0,0:0|0:0|0:0,0:0:0:0:
245,219,245430,1,10,0:0:0:0:
64,133,245530,1,0,0:0:0:0:
256,76,245630,1,0,0:0:0:0:
475,321,245730,6,0,L|469:266,1,47.5000018119813,12|0,0:0|0:0,0:0:0:0:
329,257,245830,2,0,L|323:200,1,47.5000018119813,8|0,0:0|0:0,0:0:0:0:
173,134,245930,2,0,L|184:189,1,47.6666644846599,8|0,0:0|0:0,0:0:0:0:
420,262,246030,6,0,L|414:207,1,47.5000018119813,10|0,0:0|0:0,0:0:0:0:
258,199,246130,2,0,L|252:142,1,47.5000018119813,8|0,0:0|0:0,0:0:0:0:
85,71,246230,2,0,L|111:122,1,47.6666644846599,8|0,0:0|0:0,0:0:0:0:
390,262,246330,6,0,L|384:207,1,47.5000018119813,10|0,0:0|0:0,0:0:0:0:
231,197,246430,2,0,L|225:140,1,47.5000018119813,8|0,0:0|0:0,0:0:0:0:
21,69,246530,2,0,L|52:110,1,47.6666644846599,8|0,0:0|0:0,0:0:0:0:
218,87,246630,5,10,0:0:0:0:
392,106,246680,1,0,0:0:0:0:
235,177,246730,1,8,0:0:0:0:
77,218,246780,1,0,0:0:0:0:
253,276,246830,1,8,0:0:0:0:
411,319,246880,1,0,0:0:0:0:
200,129,246930,6,0,L|141:120,1,47.5000018119813,10|0,0:0|0:0,0:0:0:0:
306,162,247030,2,0,L|311:217,1,47.5000018119813,8|0,0:0|0:0,0:0:0:0:
432,217,247130,2,0,L|444:277,1,47.5000018119813,8|0,0:0|0:0,0:0:0:0:
171,75,247230,6,0,L|112:66,1,47.5000018119813,10|0,0:0|0:0,0:0:0:0:
295,111,247330,2,0,L|300:166,1,47.5000018119813,8|0,0:0|0:0,0:0:0:0:
430,156,247430,2,0,L|468:208,1,47.6666644846599,8|0,0:0|0:0,0:0:0:0:
100,116,247530,6,0,L|41:107,1,47.5000018119813,10|0,0:0|0:0,0:0:0:0:
256,164,247630,2,0,L|261:219,1,47.5000018119813,8|0,0:0|0:0,0:0:0:0:
420,234,247730,2,0,L|463:268,1,47.6666644846599,8|0,0:0|0:0,0:0:0:0:
278,86,247830,5,10,0:0:0:0:
120,103,247880,1,0,0:0:0:0:
262,167,247930,1,8,0:0:0:0:
405,204,247980,1,0,0:0:0:0:
246,257,248030,1,8,0:0:0:0:
89,305,248080,1,0,0:0:0:0:
326,300,248130,6,0,L|409:192,1,113.999996520996,12|0,0:0|0:0,0:0:0:0:
126,271,248430,2,0,L|202:267,1,56.9999982604981,10|0,0:0|0:0,0:0:0:0:
363,260,248580,1,0,0:0:0:0:
115,99,248730,2,0,B|344:106|344:106|376:235,1,346.49998942566,10|0,0:0|0:0,0:0:0:0:
140,188,249030,2,0,L|203:185,1,56.9999982604981,10|0,0:0|0:0,0:0:0:0:
403,160,249180,1,0,0:0:0:0:
126,80,249330,6,0,L|136:161,1,75.9999976806641,10|0,0:0|0:0,0:0:0:0:
217,194,249530,1,0,0:0:0:0:
401,211,249630,2,0,L|434:138,1,75.9999976806641,10|0,0:0|0:0,0:0:0:0:
349,106,249830,1,0,0:0:0:0:
181,225,249930,1,10,0:0:0:0:
257,221,250030,1,0,0:0:0:0:
333,217,250130,1,0,0:0:0:0:
117,306,250230,2,0,L|216:298,2,76.9999976501466,10|0|0,0:0|0:0|0:0,0:0:0:0:
340,288,250530,5,0,0:0:0:0:
147,190,250630,1,0,0:0:0:0:
340,288,250730,1,0,0:0:0:0:
100,124,250830,1,0,0:0:0:0:
176,118,250930,1,0,0:0:0:0:
252,113,251030,1,0,0:0:0:0:
456,59,251130,6,0,L|451:98,1,37.9999988403321,4|0,0:0|0:0,0:0:0:0:
308,129,251230,2,0,L|303:168,1,37.9999988403321
165,262,251330,2,0,L|124:261,2,37.9999988403321,0|0|2,0:0|0:0|0:0,0:0:0:0:
282,261,251480,1,0,0:0:0:0:
390,220,251530,2,0,L|347:220,1,37.9999988403321
210,172,251630,2,0,L|165:172,1,37.9999988403321
18,107,251730,6,0,L|74:108,1,37.9999988403321,10|0,0:0|0:0,0:0:0:0:
212,236,251830,2,0,L|264:233,1,37.9999988403321
359,301,251930,1,0,0:0:0:0:
390,280,251980,1,0,0:0:0:0:
390,244,252030,1,2,0:0:0:0:
360,223,252080,1,0,0:0:0:0:
221,147,252130,2,0,L|176:150,1,37.9999988403321
386,346,252230,2,0,L|431:349,1,37.9999988403321
285,300,252330,5,10,0:0:0:0:
175,274,252380,1,8,0:0:0:0:
65,249,252430,1,8,0:0:0:0:
190,203,252480,1,8,0:0:0:0:
300,178,252530,1,8,0:0:0:0:
426,111,252580,1,8,0:0:0:0:
292,69,252630,5,8,0:0:0:0:
154,33,252680,1,8,0:0:0:0:
277,135,252730,1,8,0:0:0:0:
401,181,252780,1,8,0:0:0:0:
258,206,252830,1,8,0:0:0:0:
117,155,252880,1,8,0:0:0:0:
302,40,252930,5,0,0:0:0:0:
435,86,253005,1,0,0:0:0:0:
255,171,253080,2,0,L|244:237,1,56.9999982604981,8|0,0:0|0:0,0:0:0:0:
75,267,253230,1,0,0:0:0:0:
208,313,253305,1,0,0:0:0:0:
380,268,253380,2,0,L|299:264,1,56.9999982604981,8|0,0:0|0:0,0:0:0:0:
86,321,253530,6,0,L|93:260,1,56.9999982604981,8|0,0:0|0:0,0:0:0:0:
236,256,253680,2,0,L|244:196,1,56.9999982604981,8|0,0:0|0:0,0:0:0:0:
432,151,253830,2,0,L|369:146,1,57.7499982376099,12|0,0:0|0:0,0:0:0:0:
133,106,253980,2,0,L|67:104,1,56.9999982604981,8|0,0:0|0:0,0:0:0:0:
373,268,254130,1,0,0:0:0:0:
240,314,254205,1,0,0:0:0:0:
111,248,254280,2,0,L|183:248,1,57.7499982376099,8|0,0:0|0:0,0:0:0:0:
387,33,254430,2,0,L|379:105,1,56.9999982604981,8|0,0:0|0:0,0:0:0:0:
205,117,254580,2,0,L|269:118,1,57.7499982376099,8|0,0:0|0:0,0:0:0:0:
472,196,254730,6,0,L|414:195,1,56.9999982604981,8|0,0:0|0:0,0:0:0:0:
256,262,254880,2,0,L|315:262,1,56.9999982604981,8|0,0:0|0:0,0:0:0:0:
153,191,255030,2,0,L|94:191,1,56.9999982604981,8|0,0:0|0:0,0:0:0:0:
308,118,255180,2,0,L|367:117,1,56.9999982604981,8|0,0:0|0:0,0:0:0:0:
78,78,255330,6,0,L|81:197,1,115.49999647522,6|0,0:0|0:0,0:0:0:0:
317,204,255630,1,0,0:0:0:0:
67,265,255780,1,0,0:0:0:0:
337,305,255930,5,10,0:0:0:0:
265,330,256030,1,0,0:0:0:0:
194,356,256130,1,0,0:0:0:0:
392,212,256230,2,0,L|297:201,2,76.9999976501466
112,201,256530,6,0,L|153:196,1,37.9999988403321,2|0,0:0|0:0,0:0:0:0:
267,154,256630,2,0,L|306:149,1,37.9999988403321
465,94,256730,2,0,L|410:93,1,37.9999988403321
262,60,256830,1,2,0:0:0:0:
224,62,256880,1,0,0:0:0:0:
199,89,256930,1,0,0:0:0:0:
198,126,256980,1,0,0:0:0:0:
223,153,257030,1,0,0:0:0:0:
260,157,257080,1,0,0:0:0:0:
457,224,257130,6,0,L|407:220,1,37.9999988403321,10|0,0:0|0:0,0:0:0:0:
301,247,257230,2,0,L|253:243,1,37.9999988403321
147,292,257330,2,0,L|99:288,1,37.9999988403321
270,167,257430,2,0,L|318:163,1,37.9999988403321
136,351,257530,2,0,L|88:347,1,37.9999988403321
283,109,257630,2,0,L|331:105,1,37.9999988403321
164,54,257730,5,0,0:0:0:0:
31,100,257805,1,0,0:0:0:0:
211,185,257880,2,0,L|222:251,1,56.9999982604981,8|0,0:0|0:0,0:0:0:0:
400,271,258030,1,0,0:0:0:0:
267,317,258105,1,0,0:0:0:0:
84,273,258180,2,0,L|165:269,1,56.9999982604981,8|0,0:0|0:0,0:0:0:0:
389,325,258330,6,0,L|382:264,1,56.9999982604981,8|0,0:0|0:0,0:0:0:0:
239,260,258480,2,0,L|231:200,1,56.9999982604981,8|0,0:0|0:0,0:0:0:0:
38,154,258630,2,0,L|101:149,1,57.7499982376099,12|0,0:0|0:0,0:0:0:0:
342,110,258780,2,0,L|408:108,1,56.9999982604981,8|0,0:0|0:0,0:0:0:0:
102,272,258930,1,0,0:0:0:0:
235,318,259005,1,0,0:0:0:0:
364,252,259080,2,0,L|296:255,1,57.7499982376099,8|0,0:0|0:0,0:0:0:0:
88,37,259230,2,0,L|96:109,1,56.9999982604981,8|0,0:0|0:0,0:0:0:0:
302,117,259380,2,0,L|238:118,1,57.7499982376099,8|0,0:0|0:0,0:0:0:0:
3,200,259530,6,0,L|61:199,1,56.9999982604981,8|0,0:0|0:0,0:0:0:0:
248,256,259680,2,0,L|189:256,1,56.9999982604981,8|0,0:0|0:0,0:0:0:0:
357,185,259830,2,0,L|416:185,1,56.9999982604981,8|0,0:0|0:0,0:0:0:0:
138,121,259980,2,0,L|79:120,1,56.9999982604981,8|0,0:0|0:0,0:0:0:0:
430,307,260130,6,0,L|415:188,1,113.999996520996,4|0,0:0|0:0,0:0:0:0:
191,181,260430,1,0,0:0:0:0:
441,120,260580,1,0,0:0:0:0:
171,80,260730,5,10,0:0:0:0:
243,55,260830,1,0,0:0:0:0:
314,29,260930,1,0,0:0:0:0:
116,173,261030,2,0,L|215:183,2,76.9999976501466
396,184,261330,6,0,L|355:189,1,37.9999988403321,2|0,0:0|0:0,0:0:0:0:
241,231,261430,2,0,L|202:236,1,37.9999988403321
43,291,261530,2,0,L|98:292,1,37.9999988403321
246,325,261630,1,0,0:0:0:0:
283,322,261680,1,0,0:0:0:0:
308,295,261730,1,0,0:0:0:0:
309,258,261780,1,0,0:0:0:0:
284,231,261830,1,0,0:0:0:0:
247,227,261880,1,0,0:0:0:0:
51,161,261930,6,0,L|101:165,1,37.9999988403321,10|0,0:0|0:0,0:0:0:0:
207,138,262030,2,0,L|255:142,1,37.9999988403321
361,93,262130,2,0,L|409:97,1,37.9999988403321
225,290,262230,1,0,0:0:0:0:
188,287,262280,1,0,0:0:0:0:
163,260,262330,1,0,0:0:0:0:
162,223,262380,1,0,0:0:0:0:
187,196,262430,1,0,0:0:0:0:
224,192,262480,1,0,0:0:0:0:
430,115,262530,6,0,L|404:117,1,14.4374995594025,10|0,0:0|0:0,0:0:0:0:
282,96,262605,2,0,L|265:97,1,14.4374995594025,8|0,0:0|0:0,0:0:0:0:
124,92,262680,2,0,L|127:74,1,14.4374995594025,8|0,0:0|0:0,0:0:0:0:
272,197,262755,2,0,L|292:195,1,14.4374995594025,8|0,0:0|0:0,0:0:0:0:
417,216,262830,2,0,L|438:216,1,14.4374995594025,10|0,0:0|0:0,0:0:0:0:
211,252,262905,2,0,L|193:253,1,14.4374995594025,8|0,0:0|0:0,0:0:0:0:
370,268,262980,2,0,L|390:268,1,14.4374995594025,8|0,0:0|0:0,0:0:0:0:
133,322,263055,2,0,L|135:303,1,14.4374995594025,8|0,0:0|0:0,0:0:0:0:
267,303,263130,6,0,L|282:302,1,14.4374995594025,10|0,0:0|0:0,0:0:0:0:
422,268,263205,2,0,L|442:267,1,14.4374995594025,8|0,0:0|0:0,0:0:0:0:
256,226,263280,2,0,L|241:225,1,14.4374995594025,8|0,0:0|0:0,0:0:0:0:
68,174,263355,2,0,L|73:152,1,14.4374995594025,8|0,0:0|0:0,0:0:0:0:
209,124,263430,2,0,L|223:124,1,14.4374995594025,10|0,0:0|0:0,0:0:0:0:
367,137,263505,2,0,L|353:137,1,14.4374995594025,8|0,0:0|0:0,0:0:0:0:
240,78,263580,2,0,L|255:77,1,14.4374995594025,8|0,0:0|0:0,0:0:0:0:
398,78,263655,2,0,L|383:79,1,14.4374995594025,8|0,0:0|0:0,0:0:0:0:
258,48,263730,6,0,L|188:47,1,56.9999982604981,2|0,0:0|0:0,0:0:0:0:
341,118,263880,2,0,L|405:117,1,57.7499982376099
191,112,264030,1,0,0:0:0:0:
335,198,264105,1,0,0:0:0:0:
157,230,264180,6,0,P|297:232|157:233,1,434.280005831397,8|0,0:0|0:0,0:0:0:0:
234,192,265380,1,0,0:0:0:0:
463,128,265530,2,0,L|408:123,1,47.5,8|8,0:0|0:0,0:0:0:0:
175,71,265680,1,0,0:0:0:0:
336,219,266130,6,0,L|403:211,1,63.3333333333333,4|0,0:0|0:0,0:0:0:0:
305,182,266330,2,0,L|376:175,1,63.3333333333333
185,127,266530,2,0,L|173:205,1,63.3333333333333
272,126,266730,2,0,P|334:183|277:257,1,191.400001606293
64,323,267330,6,0,L|260:311,1,191.400001606293,12|0,0:0|0:0,0:0:0:0:
399,217,268530,6,0,L|320:208,1,63.3333333333333,4|0,0:0|0:0,0:0:0:0:
409,204,268730,2,0,L|330:195,1,63.3333333333333
146,127,268930,2,0,L|202:172,1,63.3333333333333
373,295,269130,6,0,L|297:295,1,63.3333333333333,2|2,0:0|0:0,0:0:0:0:
476,221,269330,1,0,0:0:0:0:
261,220,269430,1,2,0:0:0:0:
428,112,269530,2,0,L|357:112,1,63.3333333333333,2|0,0:0|0:0,0:0:0:0:
66,65,269730,2,0,L|72:134,1,63.3333333333333,12|0,0:0|0:0,0:0:0:0:
239,143,269930,1,0,0:0:0:0:
86,195,270030,2,0,L|165:199,1,63.3333333333333
318,197,270230,1,0,0:0:0:0:
424,277,270630,5,0,0:0:0:0:
279,293,270705,1,0,0:0:0:0:
416,198,270780,1,0,0:0:0:0:
271,205,270855,1,0,0:0:0:0:
68,167,270930,6,0,L|149:168,1,63.3333333333333,4|0,0:0|0:0,0:0:0:0:
201,171,271130,1,0,0:0:0:0:
394,87,271230,2,0,L|327:87,2,63.3333333333333
163,72,272130,2,0,P|78:113|171:312,1,370.837503112192,12|0,0:0|0:0,0:0:0:0:
183,312,272730,2,0,P|150:287|188:313,1,322.987502710619
87,303,273330,6,0,L|166:312,1,63.3333333333333,4|0,0:0|0:0,0:0:0:0:
77,316,273530,2,0,L|156:325,1,63.3333333333333
464,249,273730,2,0,L|408:204,1,63.3333333333333
190,80,273930,6,0,L|266:80,1,63.3333333333333
88,154,274130,1,0,0:0:0:0:
289,155,274230,1,0,0:0:0:0:
122,263,274330,2,0,L|193:263,1,63.3333333333333
484,310,274530,6,0,L|478:241,1,63.3333333333333,12|0,0:0|0:0,0:0:0:0:
305,236,274730,1,0,0:0:0:0:
464,180,274830,2,0,L|385:176,1,63.3333333333333
225,171,275030,1,0,0:0:0:0:
399,77,275130,6,0,L|392:135,1,47.5
324,144,275280,2,0,L|317:194,1,47.5
175,244,275430,1,2,0:0:0:0:
321,138,275505,1,2,0:0:0:0:
152,152,275580,1,2,0:0:0:0:
348,154,275655,1,2,0:0:0:0:
137,66,275730,6,0,L|49:64,2,63.3333333333333,4|0|0,0:0|0:0|0:0,0:0:0:0:
301,213,276030,1,0,0:0:0:0:
237,209,276130,1,0,0:0:0:0:
174,205,276230,1,0,0:0:0:0:
354,310,276330,5,2,0:0:0:0:
384,305,276380,1,0,0:0:0:0:
404,282,276430,1,0,0:0:0:0:
404,251,276480,1,0,0:0:0:0:
384,227,276530,1,0,0:0:0:0:
353,223,276580,1,0,0:0:0:0:
246,183,276630,6,0,L|192:180,1,40.333334564209,2|0,0:0|0:0,0:0:0:0:
77,150,276730,2,0,L|119:152,1,40.333334564209
239,94,276830,2,0,L|279:95,1,40.333334564209
465,50,276930,6,0,B|244:51|244:51|464:50,1,440,12|0,0:0|0:0,0:0:0:0:
399,217,278130,6,0,L|320:208,1,63.3333333333333,4|0,0:0|0:0,0:0:0:0:
426,131,278330,2,0,L|347:122,1,63.3333333333333
146,127,278530,2,0,L|202:172,1,63.3333333333333
387,296,278730,6,0,L|338:297,1,40.333334564209
231,299,278830,1,0,0:0:0:0:
105,300,278880,1,0,0:0:0:0:
242,225,278930,6,0,L|283:226,1,40.333334564209
431,213,279030,1,0,0:0:0:0:
300,189,279080,1,0,0:0:0:0:
147,198,279130,6,0,L|189:196,1,40.333334564209
319,291,279230,1,0,0:0:0:0:
442,291,279280,1,0,0:0:0:0:
180,70,279330,6,0,L|186:139,1,63.3333333333333,12|0,0:0|0:0,0:0:0:0:
353,148,279530,1,0,0:0:0:0:
200,200,279630,2,0,L|279:204,1,63.3333333333333
432,202,279830,1,0,0:0:0:0:
165,234,279930,6,0,L|168:292,1,56.9999982604981
233,319,280080,2,0,L|172:317,1,56.9999982604981
45,312,280230,5,2,0:0:0:0:
183,211,280305,1,2,0:0:0:0:
23,225,280380,1,2,0:0:0:0:
195,135,280455,1,2,0:0:0:0:
382,126,280530,5,4,0:0:0:0:
318,123,280630,1,0,0:0:0:0:
255,121,280730,1,0,0:0:0:0:
58,230,280830,2,0,L|124:227,2,63.3333333333333
368,346,281730,6,0,P|426:303|306:99,1,370.837503112192,12|0,0:0|0:0,0:0:0:0:
291,269,282330,2,0,B|281:53|281:53|409:98|409:98|291:268,1,554.124974634172
267,344,282930,2,0,L|341:342,1,63.3333333333333,4|0,0:0|0:0,0:0:0:0:
244,297,283130,2,0,L|318:295,1,63.3333333333333
152,183,283330,2,0,L|145:265,1,63.3333333333333
381,87,283530,6,0,L|333:88,1,40.333334564209,2|0,0:0|0:0,0:0:0:0:
235,84,283630,1,0,0:0:0:0:
107,84,283680,1,0,0:0:0:0:
240,166,283730,6,0,L|280:166,1,40.333334564209
422,168,283830,1,2,0:0:0:0:
287,177,283880,1,0,0:0:0:0:
145,184,283930,6,0,L|185:185,1,40.333334564209
313,100,284030,1,0,0:0:0:0:
438,93,284080,1,0,0:0:0:0:
135,276,284130,6,0,L|65:275,2,63.3333333333333,12|0|0,0:0|0:0|0:0,0:0:0:0:
351,324,284430,2,0,L|241:312,2,63.3333333333333
172,194,285030,5,8,0:0:0:0:
334,192,285105,1,0,0:0:0:0:
149,114,285180,1,8,0:0:0:0:
355,114,285255,1,0,0:0:0:0:
171,323,285330,6,0,P|49:195|172:323,1,765.600006425171,2|8,0:0|0:0,0:0:0:0:
296,307,286680,1,8,0:0:0:0:
171,323,286830,1,0,0:0:0:0:
330,123,287430,1,0,0:0:0:0:
219,138,287580,1,0,0:0:0:0:
96,152,287730,5,0,0:0:0:0:
103,182,287780,1,0,0:0:0:0:
126,203,287830,1,0,0:0:0:0:
157,207,287880,1,0,0:0:0:0:
185,194,287930,1,0,0:0:0:0:
201,167,287980,1,0,0:0:0:0:
200,136,288030,5,0,0:0:0:0:
181,111,288080,1,0,0:0:0:0:
152,101,288130,1,0,0:0:0:0:
122,108,288180,1,0,0:0:0:0:
345,127,288330,6,0,P|403:140|337:233,1,226.875006923676
326,179,288630,6,0,P|382:189|316:288,1,226.875006923676
307,170,288930,6,0,P|363:181|298:279,1,226.875006923676,8|0,0:0|0:0,0:0:0:0:
288,222,289230,6,0,P|343:229|279:330,1,226.875006923676
270,313,289530,6,0,L|32:239,1,242.000007385254
17,216,289880,1,0,0:0:0:0:
18,166,289930,1,0,0:0:0:0:
46,133,289980,1,0,0:0:0:0:
243,197,290030,2,0,L|288:192,1,36.6666666666667
68,110,290130,6,0,L|48:222,1,105.555555555556,4|0,0:0|0:0,0:0:0:0:
141,211,290430,2,0,L|150:324,1,105.555555555556,4|0,0:0|0:0,0:0:0:0:
249,349,290730,2,0,P|275:340|241:232,1,176.000004296875,4|0,0:0|0:0,0:0:0:0:
235,231,291030,2,0,L|120:217,1,116.462496712408,2|0,0:0|0:0,0:0:0:0:
110,218,291180,2,0,L|178:222,1,66.5499981213761,2|0,0:0|0:0,0:0:0:0:
438,259,291330,2,0,P|193:179|439:256,1,798.599977456513,8|2,0:0|0:0,0:0:0:0:
158,123,292380,1,2,0:0:0:0:
385,316,292530,5,0,0:0:0:0:
424,310,292580,1,0,0:0:0:0:
450,279,292630,1,0,0:0:0:0:
448,238,292680,1,0,0:0:0:0:
419,210,292730,1,0,0:0:0:0:
379,209,292780,1,0,0:0:0:0:
269,190,292830,6,0,L|224:189,1,41.1666647822063
91,130,292930,2,0,L|151:127,1,41.1666647822063
258,93,293030,2,0,L|300:93,1,41.1666647822063
118,47,293130,6,0,L|104:91,1,41.1666647822063
148,103,293230,2,0,L|134:147,1,41.1666647822063
178,206,293330,2,0,L|164:162,1,41.1666647822063
208,150,293430,6,0,L|194:106,1,41.1666647822063
52,110,293530,2,0,L|96:110,1,41.1666647822063
232,66,293630,2,0,L|275:65,1,41.1666647822063
445,109,293730,5,8,0:0:0:0:
250,138,294030,2,0,L|225:294,1,137.222215940688,8|0,0:0|0:0,0:0:0:0:
340,308,294330,2,0,B|204:323|204:323|321:253|321:253|173:284,1,409.19998376587,2|0,0:0|0:0,0:0:0:0:
464,263,294930,6,0,L|462:186,1,61.7499971733095,4|0,0:0|0:0,0:0:0:0:
300,184,295080,2,0,L|370:189,1,61.7499971733095
195,134,295230,2,0,L|126:134,1,61.7499971733095,8|8,0:0|0:0,0:0:0:0:
341,75,295380,2,0,L|335:143,1,61.7499971733095,8|8,0:0|0:0,0:0:0:0:
147,220,295530,5,0,0:0:0:0:
276,250,295680,1,0,0:0:0:0:
129,158,295830,1,0,0:0:0:0:
290,164,295980,1,0,0:0:0:0:
42,99,296130,6,0,B|70:355|70:355|149:147|149:147|240:365|259:89,1,755.700016143494,8|0,0:0|0:0,0:0:0:0:
18,62,297180,1,0,0:0:0:0:
273,181,297330,2,0,L|282:83,1,82.3333295644126
194,144,297530,2,0,L|209:244,1,82.3333295644126
287,225,297730,2,0,L|303:320,1,82.3333295644126
190,316,297930,6,0,L|177:266,1,41.1666647822063
222,314,298030,2,0,L|209:264,1,41.1666647822063
254,75,298130,2,0,L|241:125,1,41.1666647822063
286,77,298230,2,0,L|273:127,1,41.1666647822063
133,266,298330,2,0,L|91:266,1,41.1666647822063
258,217,298430,2,0,L|303:217,1,41.1666647822063
102,156,298530,6,0,L|146:154,1,41.1666647822063,10|0,0:0|0:0,0:0:0:0:
258,139,298630,1,0,0:0:0:0:
374,134,298680,1,0,0:0:0:0:
149,244,298830,2,0,L|193:242,1,41.1666647822063,2|0,0:0|0:0,0:0:0:0:
305,241,298930,1,0,0:0:0:0:
421,236,298980,1,0,0:0:0:0:
190,332,299130,5,2,0:0:0:0:
152,316,299180,1,0,0:0:0:0:
131,282,299230,1,0,0:0:0:0:
134,242,299280,1,0,0:0:0:0:
160,211,299330,1,0,0:0:0:0:
200,202,299380,1,0,0:0:0:0:
361,166,299430,2,0,L|307:163,1,41.1666647822063
195,130,299530,2,0,L|142:127,1,41.1666647822063
348,72,299630,2,0,L|394:68,1,41.1666647822063
68,110,299730,6,0,L|49:223,1,95,4|0,0:0|0:0,0:0:0:0:
153,210,300030,2,0,L|162:331,1,95,4|0,0:0|0:0,0:0:0:0:
259,348,300330,2,0,P|285:339|247:230,1,179.437501505899,4|0,0:0|0:0,0:0:0:0:
245,230,300630,2,0,L|130:215,1,116.462496712408,2|0,0:0|0:0,0:0:0:0:
114,216,300780,2,0,L|181:220,1,66.5499981213761,2|0,0:0|0:0,0:0:0:0:
451,97,300930,6,0,P|194:103|451:100,1,798.599977456513,8|8,0:0|0:0,0:0:0:0:
110,67,301980,1,8,0:0:0:0:
376,162,302130,6,0,L|328:162,1,31.6666666666667
208,167,302230,2,0,L|160:167,1,31.6666666666667
364,225,302330,2,0,L|401:224,1,31.6666666666667
197,258,302430,6,0,L|104:253,1,63.3333333333333
264,159,302580,2,0,L|269:238,1,63.3333333333333
423,271,302730,2,0,L|351:268,1,63.3333333333333
190,317,302880,2,0,L|104:311,1,63.3333333333333
311,116,303030,2,0,L|374:115,2,63.3333333333333,0|2|2,0:0|0:0|0:0,0:0:0:0:
89,59,303330,6,0,L|96:147,1,63.3333333333333
232,148,303480,2,0,L|239:236,1,63.3333333333333
386,279,303630,2,0,L|306:273,1,63.3333333333333
149,204,303780,2,0,L|329:204,1,158.333333333333
145,105,304080,6,0,L|77:104,1,63.3333333333333
289,120,304230,2,0,P|335:163|282:232,1,158.333333333333
92,280,304530,5,0,0:0:0:0:
155,278,304630,1,0,0:0:0:0:
218,276,304730,1,0,0:0:0:0:
291,339,304830,2,0,L|205:336,2,63.3333333333333
98,204,305130,6,0,L|174:207,1,47.5
349,146,305280,2,0,L|301:144,1,47.5
106,70,305430,2,0,L|111:127,1,47.5
243,160,305580,2,0,L|249:224,1,47.5
407,284,305730,6,0,L|418:172,1,95,12|0,0:0|0:0,0:0:0:0:
156,214,306030,2,0,L|89:119,1,95,12|0,0:0|0:0,0:0:0:0:
158,170,306255,1,0,0:0:0:0:
346,228,306330,6,0,L|448:211,1,95,12|0,0:0|0:0,0:0:0:0:
227,313,306630,2,0,L|99:309,1,95,12|0,0:0|0:0,0:0:0:0:
190,265,306855,1,0,0:0:0:0:
392,255,306930,6,0,L|333:254,1,47.5,10|0,0:0|0:0,0:0:0:0:
198,194,307080,2,0,L|163:145,1,47.5
365,135,307230,2,0,L|304:132,1,47.5,10|0,0:0|0:0,0:0:0:0:
118,69,307380,2,0,L|170:68,1,47.5
383,203,307530,6,0,L|450:199,2,63.3333333333333,8|0|0,0:0|0:0|0:0,0:0:0:0:
279,309,307830,2,0,L|346:305,2,63.3333333333333
81,273,308130,2,0,L|129:271,1,31.6666666666667,2|0,0:0|0:0,0:0:0:0:
236,238,308230,2,0,L|276:239,1,31.6666666666667
383,203,308330,2,0,L|414:203,1,31.6666666666667
166,266,308430,5,0,0:0:0:0:
266,115,308580,1,0,0:0:0:0:
143,333,308730,1,0,0:0:0:0:
288,333,308880,2,0,L|177:334,1,95,0|2,0:0|0:2,0:0:0:0:
381,218,309330,6,0,L|440:219,1,47.5,8|8,0:1|0:1,0:0:0:0:
257,140,309480,2,0,L|251:194,1,47.5,8|8,0:1|0:1,0:0:0:0:
94,223,309630,1,8,0:1:0:0:
141,222,309705,1,8,0:1:0:0:
188,222,309780,1,8,0:1:0:0:
236,222,309855,1,8,0:1:0:0:
433,284,309930,6,0,L|379:283,1,47.5,10|8,0:1|0:1,0:1:0:0:
235,274,310080,2,0,L|179:270,1,47.5,10|8,0:1|0:1,0:1:0:0:
352,208,310230,2,0,L|408:206,1,47.5,8|8,0:1|0:1,0:0:0:0:
332,155,310380,2,0,L|393:153,1,47.5,10|8,0:1|0:1,0:0:0:0:
144,102,310530,6,0,L|150:146,1,31.6666666666667,10|0,0:1|0:0,0:0:0:0:
258,162,310630,2,0,L|262:198,1,31.6666666666667,0|8,0:0|0:1,0:0:0:0:
382,242,310730,2,0,L|387:285,1,31.6666666666667
250,287,310830,6,0,L|211:289,1,31.6666666666667,10|0,0:1|0:0,0:0:0:0:
352,218,310930,2,0,L|401:216,1,31.6666666666667,0|8,0:0|0:1,0:0:0:0:
223,173,311030,2,0,L|183:173,1,31.6666666666667
35,121,311130,5,12,0:1:0:0:
250,51,311280,1,12,0:1:0:0:
340,283,311730,6,0,L|154:175,1,191.400001606293,4|0,0:0|0:0,0:0:0:0:
354,101,312330,2,0,P|414:155|332:225,1,191.400001606293
295,303,312730,2,0,L|370:307,1,63.3333333333333
137,137,312930,2,0,L|116:260,1,95.7000008031464,10|0,0:0|0:0,0:0:0:0:
373,168,313230,6,0,P|420:126|360:76,1,158.333333333333
233,100,313530,2,0,L|210:282,1,158.333333333333
78,286,313830,2,0,L|94:147,1,126.666666666667
326,244,314080,6,0,L|166:237,1,158.333333333333
61,198,314380,2,0,P|28:240|114:338,1,191.400001606293
264,307,314730,2,0,L|456:290,1,191.400001606293,4|0,0:0|0:0,0:0:0:0:
37,96,315330,6,0,L|97:93,1,31.9000002677155,8|0,0:0|0:0,0:0:0:0:
258,99,315430,1,0,0:0:0:0:
138,187,315630,2,0,L|188:192,1,31.6666666666667
332,192,315730,1,0,0:0:0:0:
210,167,315930,6,0,L|260:162,1,31.6666666666667,2|0,0:0|0:0,0:0:0:0:
404,162,316030,1,0,0:0:0:0:
284,74,316230,2,0,L|334:69,1,31.6666666666667
478,69,316330,1,0,0:0:0:0:
340,239,316530,2,0,L|302:238,1,31.6666666666667,4|0,0:0|0:0,0:0:0:0:
149,236,316630,1,0,0:0:0:0:
251,151,316830,5,4,0:0:0:0:
132,148,316880,1,0,0:0:0:0:
13,147,316930,1,0,0:0:0:0:
285,290,317130,1,0,0:0:0:0:
313,277,317180,1,0,0:0:0:0:
329,250,317230,1,0,0:0:0:0:
327,219,317280,1,0,0:0:0:0:
307,194,317330,1,0,0:0:0:0:
277,186,317380,1,0,0:0:0:0:
121,173,317430,6,0,L|163:173,1,31.6666666666667
275,133,317530,2,0,L|312:133,1,31.6666666666667
463,85,317630,2,0,L|422:82,1,31.6666666666667
174,49,317730,6,0,L|205:212,1,158.333333333333,12|0,0:0|0:0,0:0:0:0:
427,258,318030,2,0,L|343:249,1,63.3333333333333
223,264,318180,2,0,L|139:255,1,63.3333333333333
289,284,318330,2,0,L|300:373,1,63.8000005354309
427,178,318480,2,0,L|438:267,1,63.8000005354309
186,95,318630,2,0,P|141:130|198:198,1,159.500001338577,2|0,0:2|0:0,0:0:0:0:
403,158,318930,6,0,L|327:157,1,47.5,8|8,0:1|0:1,0:0:0:0:
212,221,319080,1,8,0:1:0:0:
370,85,319155,1,8,0:1:0:0:
205,83,319230,6,0,L|139:126,1,47.5,8|8,0:1|0:1,0:0:0:0:
342,129,319380,1,8,0:1:0:0:
149,173,319455,1,8,0:1:0:0:
349,192,319530,6,8,L|363:120,1,47.5,10|8,0:1|0:1,0:1:0:0:
190,134,319680,1,10,0:1:0:0:
378,71,319755,1,8,0:1:0:0:
141,49,319830,6,0,L|151:123,1,47.8500004015732,8|8,0:1|0:1,0:0:0:0:
215,122,319980,2,0,L|224:187,1,47.5,8|8,0:1|0:1,0:0:0:0:
449,286,320130,2,0,L|409:282,1,31.6666666666667,10|0,0:1|0:0,0:0:0:0:
277,270,320230,2,0,L|236:269,1,31.6666666666667,0|8,0:0|0:1,0:0:0:0:
79,205,320330,2,0,L|120:202,1,31.6666666666667
292,180,320430,2,0,L|324:179,1,31.6666666666667,10|0,0:1|0:0,0:0:0:0:
172,102,320530,2,0,L|138:101,1,31.6666666666667,0|8,0:0|0:1,0:0:0:0:
367,65,320630,2,0,L|409:65,1,31.6666666666667
121,130,320730,6,8,L|386:121,1,242.000007385254,12|12,0:1|0:1,0:1:0:0:
106,72,321330,6,0,L|208:200,1,142.5,4|0,0:0|0:0,0:0:0:0:
403,87,321630,2,0,B|310:285|310:285|254:155,1,350.90000294487
220,137,322230,5,0,0:0:0:0:
257,163,322280,1,0,0:0:0:0:
431,186,322330,2,0,L|397:182,1,31.6666666666667
280,256,322430,2,0,L|245:250,1,31.6666666666667
87,324,322530,6,0,L|252:306,1,159.500001338577,12|0,0:0|0:0,0:0:0:0:
404,251,322830,1,0,0:0:0:0:
292,233,322880,1,0,0:0:0:0:
179,217,322930,1,0,0:0:0:0:
476,146,323130,1,0,0:0:0:0:
364,128,323180,1,0,0:0:0:0:
251,112,323230,1,0,0:0:0:0:
60,124,323730,6,0,B|189:81|189:81|101:217|101:217|231:179|231:179|132:308,1,571.999973815919,4|0,0:0|0:0,0:0:0:0:
63,274,324430,1,0,0:0:0:0:
234,230,324530,1,0,0:0:0:0:
405,189,324630,1,0,0:0:0:0:
326,136,324730,1,0,0:0:0:0:
247,83,324830,1,0,0:0:0:0:
472,56,324930,6,0,L|429:54,1,35.9333330043538,12|8,0:1|0:1,0:0:0:0:
317,86,325030,1,8,0:1:0:0:
191,169,325080,2,0,L|233:168,1,35.9333330043538,8|8,0:1|0:1,0:0:0:0:
395,148,325180,2,0,L|440:146,2,35.9333330043538,8|10|8,0:1|0:1|0:1,0:0:0:0:
248,240,325330,1,8,0:1:0:0:
78,220,325380,2,0,L|121:217,1,35.9333330043538,8|8,0:1|0:1,0:0:0:0:
254,147,325480,1,8,0:1:0:0:
400,232,325530,5,10,0:1:0:0:
264,300,325580,1,8,0:1:0:0:
135,320,325630,1,8,0:1:0:0:
264,300,325680,1,8,0:1:0:0:
389,318,325730,1,8,0:1:0:0:
251,366,325780,1,8,0:1:0:0:
112,251,325830,6,0,L|150:251,1,35.9333330043538,10|8,0:1|0:1,0:0:0:0:
304,190,325930,2,0,L|351:188,1,35.9333330043538,8|8,0:1|0:1,0:0:0:0:
188,146,326030,1,8,0:1:0:0:
41,231,326080,1,8,0:1:0:0:
176,300,326130,5,10,0:1:0:0:
307,319,326180,1,8,0:1:0:0:
176,300,326230,1,8,0:1:0:0:
51,317,326280,1,8,0:1:0:0:
190,365,326330,1,8,0:1:0:0:
329,250,326380,6,0,L|292:251,1,35.9333330043538,8|10,0:1|0:1,0:0:0:0:
120,190,326480,2,0,L|163:189,1,35.9333330043538,8|8,0:1|0:1,0:0:0:0:
297,150,326580,1,8,0:1:0:0:
433,131,326630,1,8,0:1:0:0:
297,150,326680,1,8,0:1:0:0:
150,73,326730,6,0,L|371:67,1,220,2|0,0:0|0:0,0:0:0:0:
307,70,326955,1,0,0:0:0:0:
104,228,327030,1,0,0:0:0:0:
156,226,327105,1,0,0:0:0:0:
208,224,327180,1,0,0:0:0:0:
260,224,327255,1,0,0:0:0:0:
430,171,327330,5,8,0:0:0:0:
289,139,327405,1,8,0:0:0:0:
149,107,327480,2,0,L|219:103,1,53.8999995065308
361,247,327630,2,0,L|355:181,1,53.8999995065308
196,300,327780,2,0,L|262:297,1,53.8999995065308,12|8,0:1|0:1,0:0:0:0:
70,222,327930,6,0,L|145:218,1,53.8999995065308,10|8,0:1|0:1,0:0:0:0:
271,177,328080,1,8,0:1:0:0:
420,136,328155,1,8,0:1:0:0:
271,203,328230,1,10,0:1:0:0:
110,266,328305,1,8,0:1:0:0:
256,139,328380,1,8,0:1:0:0:
401,115,328455,1,8,0:1:0:0:
235,74,328530,6,0,L|171:76,1,53.8999995065308,10|8,0:1|0:1,0:0:0:0:
405,162,328680,2,0,L|338:163,1,53.8999995065308,8|8,0:1|0:1,0:0:0:0:
213,272,328830,1,10,0:1:0:0:
74,323,328905,1,8,0:1:0:0:
213,214,328980,1,8,0:1:0:0:
74,323,329055,1,8,0:1:0:0:
270,322,329130,6,0,L|344:321,2,71.8666660087077
170,253,329430,2,0,L|156:153,1,71.8666660087077
234,155,329630,1,0,0:0:0:0:
430,194,329730,5,4,0:0:0:0:
395,189,329780,1,0,0:0:0:0:
360,185,329830,1,0,0:0:0:0:
254,243,329880,1,0,0:0:0:0:
147,299,329930,2,0,L|200:299,1,34.8333343963623
305,264,330030,1,2,0:0:0:0:
440,282,330080,2,0,L|405:281,1,34.8333343963623
278,184,330180,5,0,0:0:0:0:
153,213,330230,1,0,0:0:0:0:
278,184,330280,1,0,0:0:0:0:
415,225,330330,1,10,0:0:0:0:
448,232,330380,1,0,0:0:0:0:
468,260,330430,1,0,0:0:0:0:
467,294,330480,1,0,0:0:0:0:
445,319,330530,1,0,0:0:0:0:
411,325,330580,1,0,0:0:0:0:
280,295,330630,5,2,0:0:0:0:
148,267,330680,1,0,0:0:0:0:
280,87,330730,1,0,0:0:0:0:
412,63,330780,1,0,0:0:0:0:
275,194,330830,1,0,0:0:0:0:
143,170,330880,1,0,0:0:0:0:
277,132,330930,5,2,0:0:0:0:
305,152,330980,1,0,0:0:0:0:
322,184,331030,1,0,0:0:0:0:
322,220,331080,1,0,0:0:0:0:
307,252,331130,1,0,0:0:0:0:
278,273,331180,1,0,0:0:0:0:
81,318,331230,5,2,0:0:0:0:
213,320,331280,1,0,0:0:0:0:
345,306,331330,1,0,0:0:0:0:
213,320,331380,1,0,0:0:0:0:
81,293,331430,1,0,0:0:0:0:
213,282,331480,1,0,0:0:0:0:
380,233,331530,6,0,L|267:222,1,107.799999013062,2|0,0:0|0:0,0:0:0:0:
128,146,331755,1,0,0:0:0:0:
275,83,331830,1,0,0:0:0:0:
120,218,331905,1,0,0:0:0:0:
285,158,331980,1,0,0:0:0:0:
450,130,332055,1,0,0:0:0:0:
275,83,332130,1,8,0:0:0:0:
100,52,332205,1,8,0:0:0:0:
303,204,332280,2,0,L|361:204,1,53.8999995065308
126,294,332430,2,0,L|66:293,1,53.8999995065308
309,278,332580,5,4,0:0:0:0:
372,121,332655,1,0,0:0:0:0:
435,224,332730,1,0,0:0:0:0:
236,193,332805,1,0,0:0:0:0:
445,305,332880,1,0,0:0:0:0:
392,302,332955,1,0,0:0:0:0:
340,299,333030,1,0,0:0:0:0:
175,285,333105,1,0,0:0:0:0:
340,299,333180,1,0,0:0:0:0:
187,234,333255,1,0,0:0:0:0:
33,278,333330,5,10,0:0:0:0:
230,30,333405,1,0,0:0:0:0:
293,133,333480,1,0,0:0:0:0:
94,102,333555,1,0,0:0:0:0:
303,214,333630,1,2,0:0:0:0:
250,211,333705,1,0,0:0:0:0:
198,208,333780,1,0,0:0:0:0:
33,194,333855,1,0,0:0:0:0:
205,143,333930,5,0,0:0:0:0:
379,100,333980,1,0,0:0:0:0:
343,112,334030,1,0,0:0:0:0:
201,164,334080,5,0,0:0:0:0:
333,166,334130,1,0,0:0:0:0:
465,152,334180,1,0,0:0:0:0:
333,166,334230,1,0,0:0:0:0:
181,90,334280,2,0,L|237:91,1,34.8333343963623
349,54,334380,1,0,0:0:0:0:
206,73,334430,1,0,0:0:0:0:
63,129,334480,1,0,0:0:0:0:
281,178,334530,6,0,L|309:263,1,69.6666687927247,4|0,0:0|0:0,0:0:0:0:
102,197,334730,1,0,0:0:0:0:
301,212,334830,6,0,L|231:261,1,69.6666687927247,2|0,0:0|0:0,0:0:0:0:
41,286,335030,1,0,0:0:0:0:
327,256,335130,6,0,L|250:256,1,69.6666687927247,10|0,0:0|0:0,0:0:0:0:
55,200,335330,1,0,0:0:0:0:
251,142,335430,2,0,L|278:219,1,69.6666687927247,2|0,0:0|0:0,0:0:0:0:
469,156,335630,1,0,0:0:0:0:
223,91,335730,6,0,L|291:132,1,69.6666687927247,4|0,0:0|0:0,0:0:0:0:
495,231,335930,1,0,0:0:0:0:
190,204,336030,2,0,L|121:182,1,69.6666687927247,2|0,0:0|0:0,0:0:0:0:
421,196,336230,5,0,0:0:0:0:
178,106,336330,2,0,L|132:55,1,69.6666687927247,10|0,0:0|0:0,0:0:0:0:
375,110,336530,5,0,0:0:0:0:
143,133,336630,2,0,L|74:135,1,69.6666687927247,2|0,0:0|0:0,0:0:0:0:
286,178,336830,1,0,0:0:0:0:
100,254,336930,5,4,0:0:0:0:
216,276,336980,1,0,0:0:0:0:
332,299,337030,1,0,0:0:0:0:
448,326,337080,1,0,0:0:0:0:
413,320,337130,1,0,0:0:0:0:
379,314,337180,1,0,0:0:0:0:
185,244,337230,5,0,0:0:0:0:
154,229,337280,1,0,0:0:0:0:
143,197,337330,1,0,0:0:0:0:
159,167,337380,1,0,0:0:0:0:
191,158,337430,1,0,0:0:0:0:
298,159,337480,1,0,0:0:0:0:
433,119,337530,5,8,0:0:0:0:
322,100,337580,1,0,0:0:0:0:
187,63,337630,2,0,L|230:59,1,34.8333343963623
344,154,337730,5,0,0:0:0:0:
233,135,337780,1,0,0:0:0:0:
98,98,337830,2,0,L|141:94,1,34.8333343963623
268,201,337930,5,0,0:0:0:0:
157,182,337980,1,0,0:0:0:0:
22,145,338030,2,0,L|65:141,1,34.8333343963623
412,130,338130,5,4,0:0:0:0:
296,108,338180,1,0,0:0:0:0:
180,85,338230,1,0,0:0:0:0:
64,58,338280,1,0,0:0:0:0:
99,64,338330,1,0,0:0:0:0:
133,70,338380,1,0,0:0:0:0:
327,140,338430,5,0,0:0:0:0:
358,155,338480,1,0,0:0:0:0:
369,187,338530,1,0,0:0:0:0:
353,217,338580,1,0,0:0:0:0:
321,226,338630,1,0,0:0:0:0:
214,225,338680,1,0,0:0:0:0:
79,265,338730,5,8,0:0:0:0:
190,284,338780,1,0,0:0:0:0:
325,321,338830,2,0,L|282:325,1,34.8333343963623
168,230,338930,5,0,0:0:0:0:
279,249,338980,1,0,0:0:0:0:
414,286,339030,2,0,L|371:290,1,34.8333343963623
244,183,339130,5,0,0:0:0:0:
355,202,339180,1,0,0:0:0:0:
490,239,339230,2,0,L|447:243,1,34.8333343963623
204,258,339330,6,0,L|173:132,1,104.500003189087,4|0,0:0|0:0,0:0:0:0:
324,200,339530,2,0,L|221:143,1,104.500003189087
421,113,339730,2,0,L|201:121,1,218.500004167557
47,253,339930,6,0,L|298:241,1,218.500004167557
138,146,340130,2,0,L|1:137,1,107.799999013062,12|0,0:0|0:0,0:0:0:0:
260,62,340330,2,0,L|306:183,1,107.799999013062
108,182,340530,6,0,L|235:175,1,107.799999013062,2|0,0:0|0:0,0:0:0:0:
390,274,340730,2,0,L|410:153,1,107.799999013062
189,119,340930,6,0,L|291:115,2,71.8666660087077
432,63,341230,2,0,L|435:153,1,71.8666660087077
340,220,341430,1,0,0:0:0:0:
51,285,341530,2,0,L|139:278,1,71.8666660087077
316,217,341730,6,0,L|209:212,1,69.6666687927247,10|8,0:0|0:0,0:0:0:0:
450,146,341930,1,8,0:0:0:0:
216,100,342030,1,10,0:0:0:0:
420,202,342130,1,8,0:0:0:0:
115,136,342230,1,8,0:0:0:0:
359,285,342330,6,0,L|473:265,1,70.4000017187501,10|8,0:0|0:0,0:0:0:0:
131,215,342530,1,8,0:0:0:0:
358,156,342630,1,10,0:0:0:0:
180,152,342730,1,8,0:0:0:0:
486,89,342830,1,8,0:0:0:0:
145,40,342930,5,2,0:0:0:0:
460,79,343030,2,0,L|371:138,1,69.6666687927247,0|2,0:0|0:2,0:0:0:0:
167,200,343230,1,2,0:0:0:0:
403,230,343330,2,0,L|487:218,1,69.6666687927247
37,56,343530,6,0,L|80:54,1,35.9333330043538,12|8,0:1|0:1,0:0:0:0:
194,87,343630,1,8,0:1:0:0:
319,169,343680,2,0,L|277:168,1,35.9333330043538,8|8,0:1|0:1,0:0:0:0:
115,148,343780,2,0,L|78:148,2,35.9333330043538,8|10|8,0:1|0:1|0:1,0:0:0:0:
263,242,343930,1,8,0:1:0:0:
433,221,343980,2,0,L|390:218,1,35.9333330043538,8|8,0:1|0:1,0:0:0:0:
257,147,344080,1,8,0:1:0:0:
110,234,344130,5,10,0:1:0:0:
246,302,344180,1,8,0:1:0:0:
376,322,344230,1,8,0:1:0:0:
246,302,344280,1,8,0:1:0:0:
120,320,344330,1,8,0:1:0:0:
260,368,344380,1,8,0:1:0:0:
398,252,344430,6,0,L|361:252,1,35.9333330043538,10|8,0:1|0:1,0:0:0:0:
205,190,344530,2,0,L|159:188,1,35.9333330043538,8|8,0:1|0:1,0:0:0:0:
323,146,344630,1,8,0:1:0:0:
470,232,344680,1,8,0:1:0:0:
334,301,344730,5,10,0:1:0:0:
203,321,344780,1,8,0:1:0:0:
334,301,344830,1,8,0:1:0:0:
460,319,344880,1,8,0:1:0:0:
321,367,344930,1,8,0:1:0:0:
181,251,344980,6,0,L|219:252,1,35.9333330043538,8|10,0:1|0:1,0:0:0:0:
391,190,345080,2,0,L|348:189,1,35.9333330043538,8|8,0:1|0:1,0:0:0:0:
212,151,345180,1,8,0:1:0:0:
76,132,345230,1,8,0:1:0:0:
212,151,345280,1,8,0:1:0:0:
389,58,345330,6,0,L|143:48,1,242.000007385254,2|0,0:0|0:0,0:0:0:0:
232,55,345555,1,0,0:0:0:0:
408,228,345630,1,0,0:0:0:0:
356,226,345705,1,0,0:0:0:0:
304,224,345780,1,0,0:0:0:0:
252,224,345855,1,0,0:0:0:0:
82,171,345930,5,8,0:0:0:0:
223,139,346005,1,8,0:0:0:0:
363,107,346080,2,0,L|293:104,1,52.2500015945435
151,247,346230,2,0,L|157:185,1,52.2500015945435
316,300,346380,2,0,L|251:297,1,52.2500015945435,12|8,0:1|0:1,0:0:0:0:
442,222,346530,6,0,L|368:219,1,52.2500015945435,10|8,0:1|0:1,0:0:0:0:
241,177,346680,1,8,0:1:0:0:
92,136,346755,1,8,0:1:0:0:
241,203,346830,1,10,0:1:0:0:
402,266,346905,1,8,0:1:0:0:
256,139,346980,1,8,0:1:0:0:
111,115,347055,1,8,0:1:0:0:
277,74,347130,6,0,L|336:77,1,52.2500015945435,10|8,0:1|0:1,0:0:0:0:
107,162,347280,2,0,L|171:164,1,52.2500015945435,8|8,0:1|0:1,0:0:0:0:
299,272,347430,1,10,0:1:0:0:
438,323,347505,1,8,0:1:0:0:
299,214,347580,1,8,0:1:0:0:
438,323,347655,1,8,0:1:0:0:
242,322,347730,6,0,L|166:323,2,70.4000017187501
342,253,348030,2,0,L|357:155,1,70.4000017187501
278,155,348230,1,0,0:0:0:0:
82,194,348330,5,4,0:0:0:0:
117,189,348380,1,0,0:0:0:0:
152,185,348430,1,0,0:0:0:0:
258,243,348480,1,0,0:0:0:0:
365,299,348530,2,0,L|312:299,1,34.8333343963623
207,264,348630,1,0,0:0:0:0:
72,282,348680,2,0,L|107:281,1,34.8333343963623
234,184,348780,5,0,0:0:0:0:
359,213,348830,1,0,0:0:0:0:
234,184,348880,1,0,0:0:0:0:
97,225,348930,1,8,0:0:0:0:
64,232,348980,1,0,0:0:0:0:
44,260,349030,1,0,0:0:0:0:
45,294,349080,1,0,0:0:0:0:
67,319,349130,1,0,0:0:0:0:
101,325,349180,1,0,0:0:0:0:
232,295,349230,5,0,0:0:0:0:
364,267,349280,1,0,0:0:0:0:
232,87,349330,1,0,0:0:0:0:
100,63,349380,1,0,0:0:0:0:
237,194,349430,1,0,0:0:0:0:
369,170,349480,1,0,0:0:0:0:
235,132,349530,5,2,0:0:0:0:
206,152,349580,1,0,0:0:0:0:
189,184,349630,1,0,0:0:0:0:
189,220,349680,1,0,0:0:0:0:
204,252,349730,1,0,0:0:0:0:
233,273,349780,1,0,0:0:0:0:
431,318,349830,5,2,0:0:0:0:
299,320,349880,1,0,0:0:0:0:
167,306,349930,1,0,0:0:0:0:
299,320,349980,1,0,0:0:0:0:
431,293,350030,1,0,0:0:0:0:
299,282,350080,1,0,0:0:0:0:
132,233,350130,6,0,L|244:222,1,104.500003189087,2|0,0:0|0:0,0:0:0:0:
384,146,350355,1,0,0:0:0:0:
237,83,350430,1,0,0:0:0:0:
392,218,350505,1,0,0:0:0:0:
227,158,350580,1,0,0:0:0:0:
62,130,350655,1,0,0:0:0:0:
237,83,350730,1,8,0:0:0:0:
412,52,350805,1,8,0:0:0:0:
209,204,350880,2,0,L|152:205,1,52.2500015945435
386,294,351030,2,0,L|444:294,1,52.2500015945435
203,278,351180,5,4,0:0:0:0:
140,121,351255,1,0,0:0:0:0:
77,224,351330,1,2,0:0:0:0:
276,193,351405,1,0,0:0:0:0:
67,305,351480,1,0,0:0:0:0:
120,302,351555,1,0,0:0:0:0:
172,299,351630,1,2,0:0:0:0:
337,285,351705,1,0,0:0:0:0:
172,299,351780,1,0,0:0:0:0:
324,218,351855,1,0,0:0:0:0:
476,283,351930,5,10,0:0:0:0:
282,30,352005,1,0,0:0:0:0:
219,133,352080,1,0,0:0:0:0:
418,102,352155,1,0,0:0:0:0:
209,214,352230,1,2,0:0:0:0:
262,211,352305,1,0,0:0:0:0:
314,208,352380,1,0,0:0:0:0:
479,194,352455,1,0,0:0:0:0:
307,143,352530,5,0,0:0:0:0:
133,100,352580,1,0,0:0:0:0:
169,112,352630,1,0,0:0:0:0:
311,164,352680,5,0,0:0:0:0:
179,166,352730,1,0,0:0:0:0:
47,152,352780,1,0,0:0:0:0:
179,166,352830,1,0,0:0:0:0:
331,90,352880,2,0,L|275:91,1,34.8333343963623
163,54,352980,1,0,0:0:0:0:
306,73,353030,1,0,0:0:0:0:
449,129,353080,1,0,0:0:0:0:
231,178,353130,6,0,L|203:263,1,69.6666687927247,4|0,0:0|0:0,0:0:0:0:
410,197,353330,1,0,0:0:0:0:
211,212,353430,6,0,L|281:261,1,69.6666687927247,2|0,0:0|0:0,0:0:0:0:
471,286,353630,1,0,0:0:0:0:
185,256,353730,6,0,L|262:256,1,69.6666687927247,10|0,0:0|0:0,0:0:0:0:
457,200,353930,1,0,0:0:0:0:
256,136,354030,2,0,L|231:207,1,70.4000017187501,2|0,0:0|0:0,0:0:0:0:
43,156,354230,1,0,0:0:0:0:
289,91,354330,6,0,L|206:92,1,70.4000017187501,2|0,0:0|0:0,0:0:0:0:
17,231,354530,1,0,0:0:0:0:
322,180,354630,2,0,L|379:131,1,70.4000017187501,2|0,0:0|0:0,0:0:0:0:
91,188,354830,5,0,0:0:0:0:
334,277,354930,2,0,L|402:308,1,70.4000017187501,10|0,0:0|0:0,0:0:0:0:
137,274,355130,5,0,0:0:0:0:
369,250,355230,2,0,L|438:249,1,69.6666687927247,2|0,0:0|0:0,0:0:0:0:
226,206,355430,1,0,0:0:0:0:
414,254,355530,5,4,0:0:0:0:
298,276,355580,1,0,0:0:0:0:
182,299,355630,1,0,0:0:0:0:
66,326,355680,1,0,0:0:0:0:
101,320,355730,1,0,0:0:0:0:
135,314,355780,1,0,0:0:0:0:
329,244,355830,5,0,0:0:0:0:
360,229,355880,1,0,0:0:0:0:
371,197,355930,1,0,0:0:0:0:
355,167,355980,1,0,0:0:0:0:
323,158,356030,1,0,0:0:0:0:
216,159,356080,1,0,0:0:0:0:
81,119,356130,5,8,0:0:0:0:
192,100,356180,1,0,0:0:0:0:
327,63,356230,2,0,L|284:59,1,34.8333343963623
170,154,356330,5,0,0:0:0:0:
281,135,356380,1,0,0:0:0:0:
416,98,356430,2,0,L|373:94,1,34.8333343963623
246,201,356530,5,0,0:0:0:0:
357,182,356580,1,0,0:0:0:0:
492,145,356630,2,0,L|449:141,1,34.8333343963623
102,130,356730,5,4,0:0:0:0:
218,108,356780,1,0,0:0:0:0:
334,85,356830,1,0,0:0:0:0:
450,58,356880,1,0,0:0:0:0:
415,64,356930,1,0,0:0:0:0:
381,70,356980,1,0,0:0:0:0:
187,140,357030,5,0,0:0:0:0:
156,155,357080,1,0,0:0:0:0:
145,187,357130,1,0,0:0:0:0:
161,217,357180,1,0,0:0:0:0:
193,226,357230,1,0,0:0:0:0:
300,225,357280,1,0,0:0:0:0:
435,265,357330,5,8,0:0:0:0:
324,284,357380,1,0,0:0:0:0:
189,321,357430,2,0,L|232:325,1,34.8333343963623
346,230,357530,5,0,0:0:0:0:
235,249,357580,1,0,0:0:0:0:
100,286,357630,2,0,L|143:290,1,34.8333343963623
270,183,357730,5,0,0:0:0:0:
159,202,357780,1,0,0:0:0:0:
24,239,357830,2,0,L|67:243,1,34.8333343963623
308,258,357930,6,0,L|339:132,1,104.500003189087,4|0,0:0|0:0,0:0:0:0:
185,193,358130,2,0,L|288:136,1,105.600002578125
91,113,358330,2,0,L|311:121,1,218.500004167557
465,253,358530,6,0,L|214:241,1,218.500004167557
372,149,358730,2,0,L|505:139,1,105.600002578125,12|0,0:0|0:0,0:0:0:0:
252,62,358930,2,0,L|206:178,1,105.600002578125
404,182,359130,6,0,L|278:173,1,105.600002578125,2|0,0:0|0:0,0:0:0:0:
122,274,359330,2,0,L|101:158,1,105.600002578125
323,119,359530,6,0,L|220:115,2,70.4000017187501
80,63,359830,2,0,L|77:148,1,70.4000017187501
172,220,360030,1,0,0:0:0:0:
461,285,360130,2,0,L|372:277,1,70.4000017187501
196,217,360330,6,0,L|303:212,1,69.6666687927247,10|8,0:0|0:0,0:0:0:0:
62,238,360530,1,8,0:0:0:0:
296,284,360630,1,10,0:0:0:0:
92,182,360730,1,8,0:0:0:0:
398,237,360830,1,8,0:0:0:0:
147,114,360930,6,0,L|31:134,1,69.6666687927247,10|8,0:0|0:0,0:0:0:0:
381,169,361130,1,8,0:0:0:0:
154,228,361230,1,10,0:0:0:0:
332,232,361330,1,8,0:0:0:0:
26,295,361430,1,8,0:0:0:0:
367,344,361530,5,2,0:0:0:0:
51,342,361630,2,0,L|140:283,1,69.6666687927247,0|2,0:0|0:2,0:0:0:0:
366,204,361830,1,2,0:0:0:0:
136,164,361930,2,0,L|52:176,1,69.6666687927247,2|0,0:2|0:0,0:0:0:0:
421,337,362130,6,0,P|469:280|317:34,1,412.5
99,43,363330,6,0,L|104:111,1,52.2500015945435,12|0,0:0|0:0,0:0:0:0:
235,128,363480,2,0,L|263:181,1,52.2500015945435,8|0,0:0|0:0,0:0:0:0:
405,242,363630,2,0,L|473:247,1,52.2500015945435,8|0,0:0|0:0,0:0:0:0:
224,263,363780,2,0,L|146:273,1,52.2500015945435,8|0,0:0|0:0,0:0:0:0:
360,321,363930,2,0,L|287:329,1,52.2500015945435,8|0,0:0|0:0,0:0:0:0:
494,365,364080,2,0,L|417:371,1,52.2500015945435,8|0,0:0|0:0,0:0:0:0:
245,343,364230,5,10,0:0:0:0:
117,325,364305,1,0,0:0:0:0:
280,260,364380,2,0,L|288:184,1,52.2500015945435,8|0,0:0|0:0,0:0:0:0:
454,358,364530,6,0,L|449:290,1,52.2500015945435,8|0,0:0|0:0,0:0:0:0:
318,273,364680,2,0,L|290:220,1,52.2500015945435,8|0,0:0|0:0,0:0:0:0:
148,159,364830,2,0,L|80:154,1,52.2500015945435,8|0,0:0|0:0,0:0:0:0:
329,138,364980,2,0,L|407:128,1,52.2500015945435,8|0,0:0|0:0,0:0:0:0:
210,103,365130,5,10,0:0:0:0:
82,91,365205,1,0,0:0:0:0:
236,185,365280,2,0,L|239:246,1,52.2500015945435,0|10,0:0|0:0,0:0:0:0:
403,187,365430,5,0,0:0:0:0:
275,205,365505,1,0,0:0:0:0:
137,239,365580,2,0,L|69:303,1,52.2500015945435,10|0,0:0|0:0,0:0:0:0:
328,332,365730,2,0,L|337:261,1,52.2500015945435
281,321,365880,2,0,L|290:250,1,52.2500015945435
139,199,366030,6,0,L|76:195,1,52.8000012890625,8|8,0:0|0:0,0:0:0:0:
305,149,366180,1,8,0:0:0:0:
173,138,366255,1,8,0:0:0:0:
328,66,366330,2,8,L|384:66,1,52.8000012890625
159,268,366480,2,0,L|95:263,1,52.2500015945435,2|0,0:0|0:0,0:0:0:0:
282,346,366630,2,0,L|289:287,1,52.2500015945435
197,229,366780,2,0,L|190:170,1,52.2500015945435
455,366,366930,6,0,L|449:292,1,52.2500015945435,12|0,0:0|0:0,0:0:0:0:
286,263,367080,2,0,L|255:205,1,52.2500015945435,8|0,0:0|0:0,0:0:0:0:
122,150,367230,2,0,L|48:144,1,52.2500015945435,8|0,0:0|0:0,0:0:0:0:
340,127,367380,2,0,L|424:116,1,52.2500015945435,8|0,0:0|0:0,0:0:0:0:
178,64,367530,2,0,L|257:55,1,52.2500015945435,8|0,0:0|0:0,0:0:0:0:
26,16,367680,2,0,L|109:9,1,52.2500015945435,8|0,0:0|0:0,0:0:0:0:
296,40,367830,5,10,0:0:0:0:
435,60,367905,1,0,0:0:0:0:
258,130,367980,2,0,L|249:212,1,52.2500015945435,8|0,0:0|0:0,0:0:0:0:
69,24,368130,6,0,L|74:97,1,52.2500015945435,8|0,0:0|0:0,0:0:0:0:
235,122,368280,2,0,L|265:179,1,52.2500015945435,8|0,0:0|0:0,0:0:0:0:
421,238,368430,2,0,L|494:243,1,52.2500015945435,8|0,0:0|0:0,0:0:0:0:
188,262,368580,2,0,L|103:272,1,52.2500015945435,8|0,0:0|0:0,0:0:0:0:
326,300,368730,5,10,0:0:0:0:
473,313,368805,1,0,0:0:0:0:
306,211,368880,2,0,L|302:144,1,52.2500015945435,0|10,0:0|0:0,0:0:0:0:
125,209,369030,5,0,0:0:0:0:
283,190,369105,1,0,0:0:0:0:
413,153,369180,2,0,L|486:83,1,52.2500015945435,8|0,0:0|0:0,0:0:0:0:
206,52,369330,2,0,L|196:129,1,52.2500015945435,10|0,0:0|0:0,0:0:0:0:
257,64,369480,2,0,L|247:141,1,52.2500015945435,8|0,0:0|0:0,0:0:0:0:
414,186,369630,5,10,0:0:0:0:
255,164,369705,1,0,0:0:0:0:
388,273,369780,1,8,0:0:0:0:
229,246,369855,1,0,0:0:0:0:
361,364,369930,1,8,0:0:0:0:
200,332,370005,1,0,0:0:0:0:
389,121,370080,6,0,L|458:126,1,52.2500015945435
256,37,370230,2,0,L|248:101,1,52.2500015945435
338,167,370380,2,0,L|345:231,1,52.2500015945435
154,258,370530,5,0,0:0:0:0:
368,250,370680,1,0,0:0:0:0:
175,127,370980,1,0,0:0:0:0:
456,276,371280,5,0,0:0:0:0:
242,268,371430,1,0,0:0:0:0:
342,194,371580,1,0,0:0:0:0:
128,186,371730,1,0,0:0:0:0:
373,71,371880,1,0,0:0:0:0:
178,252,372180,1,0,0:0:0:0:
409,332,372330,6,0,L|425:215,1,104.500003189087,4|0,0:0|0:0,0:0:0:0:
221,116,372780,2,0,P|155:181|236:253,1,211.20000515625,4|0,0:0|0:0,0:0:0:0:
447,334,373230,2,0,L|368:242,1,105.600002578125,12|0,0:0|0:0,0:0:0:0:
138,271,373530,2,0,L|254:268,2,105.600002578125,0|4|0,0:0|0:0|0:0,0:0:0:0:
277,187,373980,1,0,0:0:0:0:
484,121,374130,6,0,L|367:113,1,105.600002578125,4|0,0:0|0:0,0:0:0:0:
170,92,374580,1,4,0:0:0:0:
385,218,374880,1,0,0:0:0:0:
153,250,375030,5,12,0:0:0:0:
16,241,375105,1,0,0:0:0:0:
185,107,375180,2,0,L|191:183,1,52.2500015945435
342,231,375330,2,0,L|283:228,1,52.2500015945435
80,185,375480,2,0,L|200:182,1,104.500003189087,4|0,0:0|0:0,0:0:0:0:
300,171,375780,1,0,0:0:0:0:
33,286,375930,5,4,0:0:0:0:
184,267,376230,1,0,0:0:0:0:
336,249,376530,1,0,0:0:0:0:
211,171,376680,2,0,L|268:170,1,52.2500015945435
458,113,376830,5,10,0:0:0:0:
187,85,376980,2,0,L|300:85,1,104.500003189087
77,192,377280,1,10,0:0:0:0:
313,258,377430,2,0,L|170:256,1,104.500003189087
454,338,377730,6,0,L|460:274,1,52.2500015945435
375,283,377880,2,0,L|370:225,1,52.2500015945435
200,198,378030,2,0,L|257:197,1,52.2500015945435
457,132,378180,2,0,L|311:123,2,104.500003189087,10|0|0,0:0|0:0|0:0,0:0:0:0:
117,239,378630,6,0,L|234:238,1,104.500003189087,4|0,0:0|0:0,0:0:0:0:
332,206,378930,1,0,0:0:0:0:
94,85,379080,1,4,0:0:0:0:
293,132,379380,1,0,0:0:0:0:
41,195,379530,2,0,L|151:193,1,104.500003189087,12|0,0:0|0:0,0:0:0:0:
262,182,379830,1,0,0:0:0:0:
47,63,379980,5,4,0:0:0:0:
213,100,380280,1,0,0:0:0:0:
427,206,380430,2,0,L|309:204,2,104.500003189087,4|0|0,0:0|0:0|0:0,0:0:0:0:
308,108,380880,2,0,L|290:250,1,104.500003189087,4|0,0:0|0:0,0:0:0:0:
180,247,381180,1,0,0:0:0:0:
429,308,381330,6,0,L|289:304,1,104.500003189087,12|0,0:0|0:0,0:0:0:0:
194,287,381630,1,0,0:0:0:0:
334,153,381780,1,4,0:0:0:0:
181,147,381930,2,0,L|307:145,1,104.500003189087
36,89,382230,2,0,L|102:90,1,52.2500015945435,4|0,0:0|0:0,0:0:0:0:
262,251,382380,2,0,L|272:140,1,104.500003189087
167,317,382680,2,0,L|156:196,1,104.500003189087,4|0,0:0|0:0,0:0:0:0:
53,325,382980,1,0,0:0:0:0:
307,280,383130,5,12,0:0:0:0:
444,271,383205,1,0,0:0:0:0:
275,137,383280,2,0,L|269:213,1,52.2500015945435
118,261,383430,2,0,L|177:258,1,52.2500015945435
345,319,383580,2,0,L|215:314,1,104.500003189087,4|0,0:0|0:0,0:0:0:0:
123,305,383880,1,0,0:0:0:0:
347,243,384030,6,0,L|344:182,1,52.2500015945435
279,237,384180,2,0,L|224:239,1,52.2500015945435
368,354,384330,2,0,L|363:289,1,52.2500015945435
297,337,384480,2,0,L|242:338,1,52.2500015945435
81,284,384630,1,0,0:0:0:0:
133,282,384705,1,0,0:0:0:0:
185,280,384780,1,0,0:0:0:0:
237,278,384855,1,0,0:0:0:0:
34,107,384930,5,10,0:0:0:0:
305,79,385080,2,0,L|192:79,1,104.500003189087
415,186,385380,1,10,0:0:0:0:
179,252,385530,2,0,L|322:250,1,104.500003189087
38,332,385830,6,0,L|32:268,1,52.2500015945435
117,277,385980,2,0,L|122:219,1,52.2500015945435
292,192,386130,2,0,L|235:191,1,52.2500015945435
35,126,386280,2,0,L|181:117,2,104.500003189087,10|0|0,0:0|0:0|0:0,0:0:0:0:
308,298,386730,6,0,L|316:233,1,52.2500015945435,2|0,0:0|0:0,0:0:0:0:
251,247,386880,2,0,L|245:191,1,52.2500015945435
311,193,387030,1,0,0:0:0:0:
354,170,387105,1,0,0:0:0:0:
350,121,387180,1,2,0:0:0:0:
303,106,387255,1,0,0:0:0:0:
128,93,387330,2,0,L|186:96,1,52.2500015945435
322,179,387480,2,0,L|384:184,1,52.2500015945435
141,314,387630,6,0,L|129:251,1,52.2500015945435,10|0,0:0|0:0,0:0:0:0:
186,247,387780,2,0,L|174:184,1,52.2500015945435
230,306,387930,1,0,0:0:0:0:
275,286,388005,1,0,0:0:0:0:
275,236,388080,1,2,0:0:0:0:
230,216,388155,1,0,0:0:0:0:
71,177,388230,2,0,L|148:173,1,52.2500015945435
305,101,388380,2,0,L|251:97,1,52.2500015945435
97,69,388530,6,0,L|103:126,1,52.2500015945435,2|0,0:0|0:0,0:0:0:0:
166,133,388680,2,0,L|174:191,1,52.2500015945435
231,228,388830,2,0,L|291:224,1,52.2500015945435
226,287,388980,2,0,L|168:288,1,52.2500015945435,2|0,0:0|0:0,0:0:0:0:
332,338,389130,2,0,L|342:271,1,52.2500015945435
267,284,389280,2,0,L|265:222,1,52.2500015945435
196,228,389430,6,0,L|252:228,1,52.2500015945435,10|0,0:0|0:0,0:0:0:0:
399,222,389580,2,0,L|468:222,1,52.2500015945435
254,124,389730,2,0,L|249:208,1,52.2500015945435
85,232,389880,1,2,0:0:0:0:
137,229,389956,1,0,0:0:0:0:
189,226,390031,1,0,0:0:0:0:
241,223,390106,1,0,0:0:0:0:
81,309,390180,2,0,L|24:308,1,52.2500015945435
257,325,390330,6,0,L|255:268,1,52.2500015945435,2|0,0:0|0:0,0:0:0:0:
202,342,390480,1,0,0:0:0:0:
158,317,390555,1,0,0:0:0:0:
156,268,390630,1,0,0:0:0:0:
198,241,390705,1,0,0:0:0:0:
366,213,390780,2,0,L|301:209,1,52.2500015945435,2|0,0:0|0:0,0:0:0:0:
137,178,390930,2,0,L|146:108,1,52.2500015945435
351,118,391080,2,0,L|407:115,1,52.2500015945435
201,61,391230,5,10,0:0:0:0:
70,74,391305,1,8,0:0:0:0:
226,146,391380,2,0,L|288:145,1,52.2500015945435,8|0,0:0|0:0,0:0:0:0:
428,268,391530,2,0,L|422:197,1,52.2500015945435
245,221,391680,1,8,0:0:0:0:
416,139,391755,1,8,0:0:0:0:
247,75,391830,2,0,L|239:150,1,52.2500015945435
42,203,391980,2,0,L|137:202,1,52.2500015945435
395,304,392130,6,0,L|438:164,1,104.500003189087,4|0,0:0|0:0,0:0:0:0:
89,292,392430,2,0,L|46:172,1,104.500003189087,2|0,0:0|0:0,0:0:0:0:
312,316,392730,1,4,0:0:0:0:
105,299,392880,1,0,0:0:0:0:
391,106,393030,6,0,L|269:105,1,104.500003189087,10|0,0:0|0:0,0:0:0:0:
171,97,393330,1,0,0:0:0:0:
432,179,393480,2,0,L|310:178,1,104.500003189087,10|0,0:0|0:0,0:0:0:0:
212,170,393780,1,0,0:0:0:0:
473,262,393930,5,10,0:0:0:0:
176,251,394080,1,2,0:2:0:0:
436,341,394230,2,0,L|533:343,1,52.2500015945435
276,281,394380,1,10,0:0:0:0:
51,192,394530,2,0,L|175:192,1,104.500003189087
397,131,394830,6,0,L|326:130,1,52.2500015945435,4|0,0:0|0:0,0:0:0:0:
120,112,394980,1,0,0:0:0:0:
311,256,395280,1,0,0:0:0:0:
90,253,395580,1,0,0:0:0:0:
360,152,395730,6,0,L|241:152,2,104.500003189087,12|0|0,0:0|0:0|0:0,0:0:0:0:
124,88,396180,1,0,0:0:0:0:
317,189,396480,1,0,0:0:0:0:
64,230,396630,2,0,L|179:244,1,104.500003189087,4|0,0:0|0:0,0:0:0:0:
360,272,397080,1,0,0:0:0:0:
169,327,397380,1,0,0:0:0:0:
431,149,397530,6,0,L|301:143,1,104.500003189087,12|0,0:0|0:0,0:0:0:0:
98,96,397830,2,0,L|212:103,2,104.500003189087
480,304,398430,6,0,L|366:298,1,104.500003189087,4|0,0:0|0:0,0:0:0:0:
177,227,398880,1,0,0:0:0:0:
375,190,399180,1,0,0:0:0:0:
109,101,399330,6,0,L|184:98,1,52.2500015945435,12|0,0:0|0:0,0:0:0:0:
340,127,399480,2,0,L|282:128,1,52.2500015945435
71,223,399630,1,0,0:0:0:0:
123,222,399705,1,0,0:0:0:0:
175,221,399780,1,0,0:0:0:0:
227,221,399855,1,0,0:0:0:0:
399,289,399930,1,0,0:0:0:0:
150,289,400080,1,0,0:0:0:0:
430,125,400230,6,0,L|360:124,1,52.2500015945435,10|8,0:1|0:1,0:0:0:0:
177,119,400380,1,8,0:1:0:0:
321,119,400455,1,0,0:0:0:0:
163,199,400530,2,0,L|96:199,1,52.2500015945435,10|8,0:1|0:1,0:0:0:0:
262,137,400680,1,8,0:1:0:0:
394,157,400755,1,0,0:0:0:0:
152,273,400830,2,0,L|91:270,1,52.2500015945435,10|8,0:1|0:1,0:0:0:0:
244,225,400980,1,8,0:1:0:0:
376,211,401055,1,0,0:0:0:0:
188,332,401130,6,0,L|181:260,1,52.2500015945435,2|0,0:0|0:0,0:0:0:0:
267,279,401280,2,0,L|271:211,1,52.2500015945435
342,333,401430,2,0,L|348:262,1,52.2500015945435
268,344,401580,2,0,L|329:342,1,52.2500015945435
481,272,401730,2,0,L|427:273,1,52.2500015945435
295,182,401880,2,0,L|287:254,1,52.2500015945435
97,250,402030,5,2,0:0:0:0:
294,328,402330,2,0,L|357:324,1,52.2500015945435
113,279,402480,2,0,L|91:171,1,104.500003189087,10|0,0:0|0:0,0:0:0:0:
205,160,402780,1,0,0:0:0:0:
322,261,402930,6,0,L|316:202,1,52.2500015945435
237,205,403080,2,0,L|232:149,1,52.2500015945435
91,143,403230,1,8,0:0:0:0:
255,256,403305,1,8,0:0:0:0:
125,88,403380,1,8,0:0:0:0:
289,201,403455,1,8,0:0:0:0:
57,207,403530,6,0,L|123:207,1,52.2500015945435
258,310,403680,2,0,L|192:308,1,52.2500015945435
369,189,403830,1,8,0:0:0:0:
205,76,403905,1,8,0:0:0:0:
335,244,403980,1,8,0:0:0:0:
171,131,404055,1,8,0:0:0:0:
381,106,404130,6,0,L|406:288,1,156.750004783631,4|0,0:0|0:0,0:0:0:0:
127,287,404430,6,0,L|170:286,1,34.8333343963623,10|8,0:1|0:1,0:0:0:0:
280,275,404530,1,8,0:1:0:0:
387,263,404580,1,8,0:1:0:0:
198,190,404630,2,0,L|167:166,1,34.8333343963623,8|8,0:1|0:1,0:0:0:0:
303,179,404730,1,10,0:1:0:0:
410,167,404780,1,8,0:1:0:0:
253,110,404830,2,0,L|248:67,1,34.8333343963623,8|8,0:1|0:1,0:0:0:0:
381,93,404930,1,8,0:1:0:0:
488,80,404980,1,8,0:1:0:0:
266,27,405030,6,0,B|37:28|37:28|64:149,1,346.49998942566,10|0,0:3|0:0,0:0:0:0:
420,81,405330,6,0,L|380:81,1,34.8333343963623,10|8,0:1|0:1,0:0:0:0:
267,91,405430,1,8,0:1:0:0:
143,107,405480,1,8,0:1:0:0:
284,169,405530,1,8,0:1:0:0:
410,211,405580,1,8,0:1:0:0:
261,256,405630,6,0,L|219:258,1,34.8333343963623,10|8,0:1|0:1,0:0:0:0:
65,301,405730,2,0,L|112:302,1,34.8333343963623,8|8,0:1|0:1,0:0:0:0:
243,199,405830,1,8,0:1:0:0:
388,214,405880,1,8,0:1:0:0:
247,275,405930,5,10,0:1:0:0:
122,317,405980,1,8,0:1:0:0:
279,325,406030,2,0,L|330:327,1,34.8333343963623,8|8,0:1|0:1,0:0:0:0:
116,212,406130,2,0,L|80:213,1,34.8333343963623,8|8,0:1|0:1,0:0:0:0:
243,139,406230,5,10,0:1:0:0:
399,158,406280,1,8,0:1:0:0:
258,220,406330,1,8,0:1:0:0:
133,262,406380,1,8,0:1:0:0:
286,284,406430,2,0,L|333:278,1,34.8333343963623,8|8,0:1|0:1,0:0:0:0:
467,206,406530,2,0,L|417:205,1,34.8333343963623,10|8,0:1|0:1,0:0:0:0:
260,181,406630,2,0,L|211:179,1,34.8333343963623,8|8,0:1|0:1,0:0:0:0:
404,87,406730,2,0,L|453:85,1,34.8333343963623,8|8,0:1|0:1,0:0:0:0:
141,86,406830,6,0,L|122:216,1,104.500003189087
231,188,407130,2,0,L|212:318,1,104.500003189087,2|0,0:0|0:0,0:0:0:0:
447,321,407430,6,0,L|444:274,1,34.8333343963623
297,276,407530,2,0,L|295:230,1,34.8333343963623
154,232,407630,2,0,L|150:187,1,34.8333343963623
337,131,407730,1,8,0:0:0:0:
369,143,407780,1,0,0:0:0:0:
388,171,407830,1,0,0:0:0:0:
387,205,407880,1,0,0:0:0:0:
368,233,407930,1,0,0:0:0:0:
335,245,407980,1,0,0:0:0:0:
143,325,408030,6,0,L|128:209,1,104.500003189087,4|0,0:0|0:0,0:0:0:0:
396,319,408330,6,0,L|393:272,1,34.8333343963623,4|0,0:0|0:0,0:0:0:0:
246,274,408430,2,0,L|244:228,1,34.8333343963623
103,230,408530,2,0,L|99:185,1,34.8333343963623
292,168,408630,2,0,L|337:168,1,34.8333343963623
135,113,408730,2,0,L|95:115,1,34.8333343963623
341,83,408830,2,0,L|385:85,1,34.8333343963623
119,35,408930,1,8,0:0:0:0:
85,43,408980,1,0,0:0:0:0:
64,69,409030,1,0,0:0:0:0:
62,103,409080,1,0,0:0:0:0:
82,131,409130,1,0,0:0:0:0:
115,142,409180,1,0,0:0:0:0:
250,199,409230,2,0,L|290:199,1,35.200000859375
423,151,409330,2,0,L|464:152,1,35.200000859375
277,321,409430,2,0,L|232:317,1,34.8333343963623
75,274,409530,6,0,L|81:210,1,52.2500015945435
160,218,409680,2,0,L|165:162,1,52.2500015945435
306,255,409830,1,8,0:0:0:0:
152,260,409905,1,8,0:0:0:0:
304,187,409980,1,8,0:0:0:0:
148,197,410055,1,8,0:0:0:0:
340,220,410130,6,0,L|274:220,1,52.2500015945435
139,323,410280,2,0,L|205:321,1,52.2500015945435
39,228,410430,1,8,0:0:0:0:
193,233,410505,1,8,0:0:0:0:
41,160,410580,1,8,0:0:0:0:
197,170,410655,1,8,0:0:0:0:
374,274,410730,2,0,L|208:269,1,158.400003867188,4|0,0:0|0:0,0:0:0:0:
385,287,411030,6,0,L|342:286,1,34.8333343963623,2|0,0:0|0:0,0:0:0:0:
240,277,411130,1,0,0:0:0:0:
132,265,411180,1,0,0:0:0:0:
314,190,411230,2,0,L|345:166,1,34.8333343963623
185,174,411330,1,10,0:0:0:0:
77,161,411380,1,0,0:0:0:0:
259,110,411430,2,0,L|264:67,1,34.8333343963623
153,94,411530,1,0,0:0:0:0:
45,82,411580,1,0,0:0:0:0:
246,27,411630,6,0,B|475:28|475:28|447:152,1,346.49998942566,2|0,0:0|0:0,0:0:0:0:
92,81,411930,6,0,L|132:81,1,34.8333343963623
245,91,412030,1,0,0:0:0:0:
369,107,412080,1,0,0:0:0:0:
228,169,412130,1,0,0:0:0:0:
102,211,412180,1,0,0:0:0:0:
251,256,412230,6,0,L|293:258,1,34.8333343963623
447,301,412330,2,0,L|400:302,1,34.8333343963623,0|2,0:0|0:0,0:0:0:0:
269,199,412430,1,0,0:0:0:0:
124,214,412480,1,0,0:0:0:0:
265,275,412530,5,0,0:0:0:0:
390,317,412580,1,0,0:0:0:0:
233,325,412630,2,0,L|182:327,1,34.8333343963623
396,212,412730,2,0,L|432:213,1,34.8333343963623
269,139,412830,5,10,0:0:0:0:
113,158,412880,1,0,0:0:0:0:
254,220,412930,1,0,0:0:0:0:
379,262,412980,1,0,0:0:0:0:
226,284,413030,2,0,L|179:278,1,34.8333343963623
45,206,413130,2,0,L|95:205,1,34.8333343963623
252,181,413230,2,0,L|301:179,1,34.8333343963623,0|2,0:0|0:0,0:0:0:0:
108,87,413330,2,0,L|59:85,1,34.8333343963623
312,37,413430,6,0,L|332:36,1,13.0625003986359
76,184,413580,2,0,L|60:184,1,13.0625003986359,2|0,0:2|0:0,0:0:0:0:
328,213,413730,2,0,L|451:209,1,104.500003189087,2|0,0:0|0:0,0:0:0:0:
121,323,414030,5,10,0:1:0:0:
228,305,414080,1,8,0:1:0:0:
335,286,414130,1,8,0:1:0:0:
442,266,414180,1,8,0:1:0:0:
271,213,414230,1,8,0:1:0:0:
124,175,414280,1,8,0:1:0:0:
231,126,414330,5,10,0:1:0:0:
338,88,414380,1,8,0:1:0:0:
445,58,414430,1,8,0:1:0:0:
338,156,414480,1,8,0:1:0:0:
231,126,414530,1,8,0:1:0:0:
124,82,414580,1,8,0:1:0:0:
299,72,414630,2,0,P|354:122|290:179,1,176.000004296875,2|0,0:0|0:0,0:0:0:0:
9,33,414930,6,0,L|55:30,1,34.8333343963623,10|8,0:1|0:1,0:0:0:0:
179,66,415030,1,8,0:1:0:0:
315,156,415080,2,0,L|269:154,1,34.8333343963623,8|8,0:1|0:1,0:0:0:0:
93,133,415180,2,0,L|45:131,2,34.8333343963623,8|10|8,0:1|0:1|0:1,0:0:0:0:
254,235,415330,1,8,0:1:0:0:
439,212,415380,2,0,L|392:208,1,34.8333343963623,8|8,0:1|0:1,0:0:0:0:
247,132,415480,1,8,0:1:0:0:
87,225,415530,5,10,0:1:0:0:
236,300,415580,1,8,0:1:0:0:
377,321,415630,1,8,0:1:0:0:
236,300,415680,1,8,0:1:0:0:
99,319,415730,1,8,0:1:0:0:
251,372,415780,1,8,0:1:0:0:
401,246,415830,6,0,L|359:246,1,34.8333343963623,10|8,0:1|0:1,0:0:0:0:
191,179,415930,2,0,L|140:176,1,34.8333343963623,8|8,0:1|0:1,0:0:0:0:
319,131,416030,1,8,0:1:0:0:
479,224,416080,1,8,0:1:0:0:
160,54,416130,6,0,P|100:100|177:183,1,211.20000515625,10|0,0:1|0:0,0:0:0:0:
219,77,420166,6,0,P|283:133|208:189,1,197.99999395752
64,178,420915,1,0,0:0:0:0:
184,299,421165,2,0,P|297:196|178:292,1,461.999985900879
409,117,422164,6,0,L|414:187,1,65.9999979858399,2|0,0:0|0:0,0:0:0:0:
285,169,422414,2,0,L|298:237,1,65.9999979858399
408,236,422663,2,0,L|401:302,1,65.9999979858399
192,170,422913,2,0,L|258:165,1,65.9999979858399
40,302,423163,6,0,L|35:232,1,65.9999979858399,2|0,0:0|0:0,0:0:0:0:
181,241,423413,2,0,L|168:173,1,65.9999979858399
41,183,423662,2,0,L|48:117,1,65.9999979858399
257,249,423912,2,0,L|191:254,1,65.9999979858399
384,189,424162,6,0,L|450:167,3,65.9999979858399,2|0|0|0,0:0|0:0|0:0|0:0,0:0:0:0:
310,164,424662,2,0,L|304:241,1,65.9999979858399
81,248,424912,2,0,L|156:248,1,65.9999979858399
353,220,425161,6,0,L|420:221,3,65.9999979858399,2|0|0|0,0:0|0:0|0:0|0:0,0:0:0:0:
231,164,425661,2,0,L|307:164,1,65.9999979858399
88,265,425911,2,0,L|83:191,1,65.9999979858399
275,313,426161,6,0,P|307:288|268:315,1,379.49998841858,2|0,0:0|0:0,0:0:0:0:
282,294,426910,2,0,P|333:251|212:27,1,379.49998841858,2|0,0:0|0:0,0:0:0:0:
202,29,427659,2,0,B|-7:192|-7:192|228:109,1,511.499984390259,2|0,0:0|0:0,0:0:0:0:
242,109,428658,6,0,P|173:132|244:191,1,192.5,2|0,0:0|0:0,0:0:0:0:
205,203,428908,2,0,P|136:226|207:285,1,192.5,2|0,0:0|0:0,0:0:0:0:
168,262,429158,2,0,P|99:239|170:180,1,192.5,2|0,0:0|0:0,0:0:0:0:
131,168,429408,2,0,P|62:145|133:86,1,192.5,2|0,0:0|0:0,0:0:0:0:
149,113,429658,2,0,P|80:136|151:195,1,192.5,2|0,0:0|0:0,0:0:0:0:
112,207,429907,2,0,P|76:232|116:283,1,110,2|0,0:0|0:0,0:0:0:0:
335,304,430157,6,0,L|142:287,1,192.5,2|0,0:0|0:0,0:0:0:0:
126,287,430407,2,0,L|323:253,1,192.5,2|0,0:0|0:0,0:0:0:0:
333,255,430657,2,0,L|136:221,1,192.5,2|0,0:0|0:0,0:0:0:0:
126,214,430907,2,0,P|96:233|174:320,1,192.5,2|0,0:0|0:0,0:0:0:0:
184,319,431156,6,0,L|371:255,1,192.5,2|0,0:0|0:0,0:0:0:0:
381,256,431406,2,0,L|194:192,1,192.5,2|0,0:0|0:0,0:0:0:0:
179,184,431656,2,0,L|366:248,1,192.5,2|0,0:0|0:0,0:0:0:0:
381,249,431906,2,0,L|184:266,1,192.5,2|0,0:0|0:0,0:0:0:0:
161,268,432156,6,0,P|87:223|228:15,1,412.5,2|0,0:0|0:0,0:0:0:0:
246,294,432655,2,0,L|439:277,1,192.5,2|0,0:0|0:0,0:0:0:0:
455,277,432905,2,0,L|258:243,1,192.5,2|0,0:0|0:0,0:0:0:0:
248,245,433155,6,0,L|445:211,1,192.5,2|0,0:0|0:0,0:0:0:0:
455,204,433405,2,0,P|485:223|407:310,1,192.5,2|0,0:0|0:0,0:0:0:0:
397,309,433654,2,0,L|210:245,1,192.5,2|0,0:0|0:0,0:0:0:0:
200,246,433904,2,0,L|387:182,1,192.5,2|0,0:0|0:0,0:0:0:0:
408,178,434154,6,0,B|214:171|214:171|416:80|416:80|198:61,1,632.5,2|0,0:0|0:0,0:0:0:0:
179,85,434903,2,0,B|282:-31|373:92|373:92|190:181|190:181|385:188,1,632.5,2|0,0:0|0:0,0:0:0:0:
412,260,435653,2,0,B|309:376|218:253|218:253|401:164|401:164|206:157,1,632.5,2|0,0:0|0:0,0:0:0:0:
181,135,436402,6,0,P|250:158|179:217,1,192.5,2|0,0:0|0:0,0:0:0:0:
163,215,436652,2,0,P|94:238|165:297,1,192.5,2|0,0:0|0:0,0:0:0:0:
182,317,436902,2,0,P|251:294|180:235,1,192.5,2|0,0:0|0:0,0:0:0:0:
218,336,437151,6,0,P|287:313|216:254,1,192.5,2|0,0:0|0:0,0:0:0:0:
198,119,437402,2,0,P|129:142|200:201,1,192.5,2|0,0:0|0:0,0:0:0:0:
216,188,437651,2,0,P|285:211|214:270,1,192.5,2|0,0:0|0:0,0:0:0:0:
254,204,437901,2,0,P|323:227|252:286,1,192.5,2|0,0:0|0:0,0:0:0:0:
233,207,438151,6,0,B|427:200|427:200|225:109|225:109|443:90,1,632.5,2|0,0:0|0:0,0:0:0:0:
462,114,438900,2,0,B|359:-2|268:121|268:121|451:210|451:210|256:217,1,632.5,2|0,0:0|0:0,0:0:0:0:
231,219,439649,2,0,L|422:274,1,192.5,2|0,0:0|0:0,0:0:0:0:
442,274,439899,2,0,L|251:329,1,192.5,2|0,0:0|0:0,0:0:0:0:
230,189,440149,6,0,L|427:220,1,192.5,2|0,0:0|0:0,0:0:0:0:
447,243,440399,2,0,L|254:265,1,192.5,2|0,0:0|0:0,0:0:0:0:
228,205,440648,2,0,L|423:205,1,192.5,2|0,0:0|0:0,0:0:0:0:
448,209,440898,2,0,L|247:208,1,192.5,2|0,0:0|0:0,0:0:0:0:
228,162,441148,6,0,L|425:163,1,192.5,2|0,0:0|0:0,0:0:0:0:
448,172,441398,2,0,P|454:235|447:170,1,550,2|0,0:0|0:0,0:0:0:0:
106,199,442147,6,0,B|300:206|300:206|98:297|98:297|316:316,1,632.5,2|0,0:0|0:0,0:0:0:0:
335,292,442896,2,0,B|232:408|141:285|141:285|324:196|324:196|129:189,1,632.5,2|0,0:0|0:0,0:0:0:0:
102,117,443646,2,0,B|205:1|296:124|296:124|113:213|113:213|308:220,1,632.5,2|0,0:0|0:0,0:0:0:0:
333,242,444395,2,0,P|264:219|335:160,1,192.5,2|0,0:0|0:0,0:0:0:0:
351,162,444645,2,0,P|420:139|349:80,1,192.5,2|0,0:0|0:0,0:0:0:0:
332,60,444895,2,0,P|263:83|334:142,1,192.5,2|0,0:0|0:0,0:0:0:0:
296,41,445144,6,0,P|227:64|298:123,1,192.5,2|0,0:0|0:0,0:0:0:0:
316,258,445395,2,0,P|385:235|314:176,1,192.5,2|0,0:0|0:0,0:0:0:0:
298,189,445644,2,0,P|229:166|300:107,1,192.5,2|0,0:0|0:0,0:0:0:0:
260,173,445894,2,0,P|224:138|272:98,1,110,2|0,0:0|0:0,0:0:0:0:
374,318,446144,6,0,P|426:280|367:320,1,632.5,2|0,0:0|0:0,0:0:0:0:
332,329,446893,2,0,P|268:288|402:62,1,412.5,2|0,0:0|0:0,0:0:0:0:
420,103,447393,2,0,L|229:158,1,192.5,2|0,0:0|0:0,0:0:0:0:
209,158,447643,2,0,L|400:213,1,192.5,2|0,0:0|0:0,0:0:0:0:
421,73,447892,2,0,L|221:103,1,192.5,2|0,0:0|0:0,0:0:0:0:
204,127,448142,6,0,L|397:149,1,192.5,2|0,0:0|0:0,0:0:0:0:
423,89,448392,2,0,L|228:89,1,192.5,2|0,0:0|0:0,0:0:0:0:
203,93,448642,2,0,L|404:92,1,192.5,2|0,0:0|0:0,0:0:0:0:
423,46,448892,2,0,L|226:47,1,192.5,2|0,0:0|0:0,0:0:0:0:
203,161,449141,6,0,P|134:138|205:79,1,192.5,2|0,0:0|0:0,0:0:0:0:
222,73,449391,2,0,L|418:79,1,192.5,2|0,0:0|0:0,0:0:0:0:
445,92,449641,2,0,L|249:98,1,192.5,2|0,0:0|0:0,0:0:0:0:
221,99,449891,2,0,P|187:128|216:189,1,110,2|0,0:0|0:0,0:0:0:0:
403,295,450141,6,0,P|262:260|483:190,1,632.5,2|0,0:0|0:0,0:0:0:0:
456,171,450890,2,0,P|235:283|313:39,1,632.5,2|0,0:0|0:0,0:0:0:0:
328,124,451639,2,0,L|133:124,1,192.5,2|0,0:0|0:0,0:0:0:0:
108,128,451889,2,0,L|309:127,1,192.5,2|0,0:0|0:0,0:0:0:0:
328,81,452139,6,0,L|131:82,1,192.5,2|0,0:0|0:0,0:0:0:0:
104,92,452389,2,0,L|299:92,1,192.5,2|0,0:0|0:0,0:0:0:0:
324,96,452639,2,0,L|123:95,1,192.5,2|0,0:0|0:0,0:0:0:0:
104,49,452888,2,0,L|232:46,1,110,2|0,0:0|0:0,0:0:0:0:
416,161,453138,6,0,L|221:161,1,192.5,2|0,0:0|0:0,0:0:0:0:
196,165,453388,2,0,L|315:168,1,110,2|0,0:0|0:0,0:0:0:0:
489,335,453638,1,6,0:0:0:0:
256,192,453887,12,0,458383,0:0:0:0:
