osu file format v14

[General]
AudioFilename: audio.mp3
AudioLeadIn: 0
PreviewTime: 1378919
Countdown: 1
SampleSet: Normal
StackLeniency: 0.2
Mode: 0
LetterboxInBreaks: 0
WidescreenStoryboard: 0

[Editor]
Bookmarks: 10466,244911,452022,638804,990909,1236107,1429427,1706074,1921367,2224865
DistanceSpacing: 0.3
BeatDivisor: 4
GridSize: 32
TimelineZoom: 3.099999

[Metadata]
Title:Songs Compilation
TitleUnicode:Songs Compilation
Artist:Rings of Saturn
ArtistUnicode:Rings of Saturn
Creator:Superostap
Version:Death Marathon
Source:
Tags:Death marathon rsi metal satan hell nightmare warning help please despaire agony stream deathstream 320bpm unreal
BeatmapID:1102598
BeatmapSetID:518962

[Difficulty]
HPDrainRate:3.4
CircleSize:3.7
OverallDifficulty:9.7
ApproachRate:10
SliderMultiplier:1.6
SliderTickRate:1

[Events]
//Background and Video events
0,0,"tmb_116403_1423.jpg",0,0
//Break Periods
2,242220,251152
2,251802,252930
2,253580,254708
2,255358,256263
2,450690,451655
//Storyboard Layer 0 (Background)
//Storyboard Layer 1 (Fail)
//Storyboard Layer 2 (Pass)
//Storyboard Layer 3 (Foreground)
//Storyboard Layer 4 (Overlay)
//Storyboard Sound Samples

[TimingPoints]
10467,222.222222222222,4,1,1,60,1,0
49578,-200,4,1,1,60,0,0
50022,-100,4,1,1,60,0,0
87355,-200,4,1,1,60,0,0
87578,-100,4,1,1,60,0,0
94466,-200,4,1,1,60,0,0
108689,444.444444444444,4,1,1,100,1,0
108689,-200,4,1,1,100,0,0
114911,222.222222222222,4,1,1,100,1,0
115355,444.444444444444,4,1,1,100,1,0
115355,-200,4,1,1,100,0,0
115799,222.222222222222,4,1,1,100,1,0
144243,-100,4,1,1,100,0,0
154910,-100,4,1,1,100,0,0
191354,-100,4,1,1,100,0,1
198465,-100,4,1,1,100,0,0
199354,-100,4,1,1,100,0,1
227798,-66.6666666666667,4,1,1,100,0,0
244936,222.222222222222,4,1,1,60,1,0
265824,-100,4,1,1,60,0,0
287158,-100,4,1,1,60,0,0
289824,-200,4,1,1,60,0,0
290713,-100,4,1,1,60,0,0
293380,-200,4,1,1,60,0,0
294269,-100,4,1,1,60,0,0
315824,-100,4,1,1,60,0,1
329935,-100,4,1,1,60,0,0
344047,-100,4,1,1,60,0,0
372491,-100,4,1,1,60,0,0
386713,-100,4,1,1,60,0,0
403602,-100,4,1,1,60,0,0
452105,240,4,1,1,60,1,0
640405,272.727272727273,4,1,1,60,1,0
900041,428.571428571429,4,1,1,60,1,0
990898,222.222222222222,4,1,1,60,1,0
1153575,213.523131672598,4,1,1,60,1,0
1164675,240,4,1,1,60,1,0
1196342,222.222222222222,4,1,1,60,1,0
1236119,240,4,1,1,60,1,0
1377719,240,4,1,1,60,1,0
1429402,222.222222222222,4,1,1,60,1,0
1475603,272.727272727273,4,1,1,100,1,0
1493057,222.222222222222,4,1,1,100,1,0
1706074,222.222222222222,4,1,1,60,1,0
1921330,517.241379310345,4,1,1,60,1,0
1938075,200,4,1,1,60,1,0
1976475,260.869565217391,4,1,1,100,1,0
2014316,375,4,1,1,100,1,0
2045816,187.5,4,1,1,100,1,0
2224865,260.869565217391,4,1,1,60,1,0

[HitObjects]
256,192,5133,12,0,10244,0:0:0:0:
88,56,10466,6,0,B|88:124|88:124|104:228,1,160
184,312,10911,2,0,L|192:267,1,40
184,140,11133,2,0,L|196:189,1,40
344,288,11355,5,0,0:0:0:0:
352,280,11411,1,0,0:0:0:0:
356,272,11466,1,0,0:0:0:0:
360,264,11522,1,0,0:0:0:0:
364,256,11578,1,0,0:0:0:0:
368,248,11633,5,0,0:0:0:0:
372,240,11689,1,0,0:0:0:0:
376,232,11744,1,0,0:0:0:0:
379,224,11800,2,0,B|377:153|377:153|303:77,1,160
165,75,12244,5,0,0:0:0:0:
165,75,12355,1,0,0:0:0:0:
99,180,12466,1,0,0:0:0:0:
99,180,12578,1,0,0:0:0:0:
145,291,12689,5,0,0:0:0:0:
145,291,12800,1,0,0:0:0:0:
145,291,12911,2,0,B|214:322|214:322|312:322,1,160
316,312,13244,1,0,0:0:0:0:
336,296,13355,2,0,B|357:200|357:200|430:158,1,160
410,169,13689,1,0,0:0:0:0:
356,73,13800,5,0,0:0:0:0:
356,73,13911,1,0,0:0:0:0:
146,88,14022,5,0,0:0:0:0:
187,338,14244,1,0,0:0:0:0:
247,64,14466,5,0,0:0:0:0:
241,74,14522,1,0,0:0:0:0:
236,85,14578,1,0,0:0:0:0:
234,96,14633,1,0,0:0:0:0:
236,107,14689,1,0,0:0:0:0:
241,117,14744,5,0,0:0:0:0:
248,126,14800,1,0,0:0:0:0:
255,134,14855,1,0,0:0:0:0:
264,141,14911,2,0,B|326:200|326:200|310:302,1,160
187,338,15355,5,0,0:0:0:0:
187,338,15466,1,0,0:0:0:0:
42,227,15578,1,0,0:0:0:0:
42,227,15689,1,0,0:0:0:0:
104,113,15800,5,0,0:0:0:0:
104,113,15911,1,0,0:0:0:0:
165,258,16022,1,0,0:0:0:0:
165,258,16133,1,0,0:0:0:0:
232,138,16244,5,0,0:0:0:0:
232,138,16355,1,0,0:0:0:0:
280,306,16466,1,0,0:0:0:0:
280,306,16578,1,0,0:0:0:0:
341,171,16689,5,0,0:0:0:0:
341,171,16800,1,0,0:0:0:0:
459,71,16911,1,0,0:0:0:0:
459,71,17022,1,0,0:0:0:0:
466,241,17133,5,0,0:0:0:0:
466,241,17244,1,0,0:0:0:0:
360,338,17355,1,0,0:0:0:0:
360,338,17466,1,0,0:0:0:0:
169,222,17578,5,0,0:0:0:0:
169,222,17689,1,0,0:0:0:0:
169,222,17800,2,0,B|119:184|121:162|121:162|170:119|206:85,1,160
181,108,18133,1,0,0:0:0:0:
295,172,18244,5,0,0:0:0:0:
295,172,18355,1,0,0:0:0:0:
423,82,18466,5,0,0:0:0:0:
312,258,18689,1,0,0:0:0:0:
316,33,18911,5,0,0:0:0:0:
368,304,19133,1,0,0:0:0:0:
201,109,19355,1,0,0:0:0:0:
191,101,19411,5,0,0:0:0:0:
179,100,19466,1,0,0:0:0:0:
166,101,19522,1,0,0:0:0:0:
154,104,19578,1,0,0:0:0:0:
144,110,19633,5,0,0:0:0:0:
136,119,19689,1,0,0:0:0:0:
129,129,19744,1,0,0:0:0:0:
124,140,19800,2,0,B|95:229|95:229|113:315,1,160
229,320,20244,5,0,0:0:0:0:
229,320,20355,1,0,0:0:0:0:
367,296,20466,1,0,0:0:0:0:
367,296,20578,1,0,0:0:0:0:
455,195,20689,5,0,0:0:0:0:
455,195,20800,1,0,0:0:0:0:
455,195,20911,2,0,B|351:179|351:179|298:135,1,160
308,144,21244,1,0,0:0:0:0:
308,144,21355,2,0,B|224:210|224:210|208:293,1,160
213,262,21689,1,0,0:0:0:0:
327,297,21800,5,0,0:0:0:0:
327,297,21911,1,0,0:0:0:0:
144,149,22022,5,0,0:0:0:0:
405,268,22244,1,0,0:0:0:0:
250,71,22466,1,0,0:0:0:0:
238,68,22522,1,0,0:0:0:0:
225,68,22578,1,0,0:0:0:0:
213,70,22633,5,0,0:0:0:0:
201,67,22689,1,0,0:0:0:0:
189,69,22744,1,0,0:0:0:0:
177,64,22800,1,0,0:0:0:0:
165,68,22855,1,0,0:0:0:0:
153,64,22911,2,0,B|57:56|57:56|74:138,1,160
85,237,23355,5,0,0:0:0:0:
85,237,23466,1,0,0:0:0:0:
161,324,23578,1,0,0:0:0:0:
161,324,23689,1,0,0:0:0:0:
187,166,23800,5,0,0:0:0:0:
187,166,23911,1,0,0:0:0:0:
263,258,24022,1,0,0:0:0:0:
263,258,24133,1,0,0:0:0:0:
282,90,24244,5,0,0:0:0:0:
282,90,24355,1,0,0:0:0:0:
365,191,24466,1,0,0:0:0:0:
365,191,24578,1,0,0:0:0:0:
440,289,24689,5,0,0:0:0:0:
440,289,24800,1,0,0:0:0:0:
305,351,24911,1,0,0:0:0:0:
305,351,25022,1,0,0:0:0:0:
226,242,25133,5,0,0:0:0:0:
226,242,25244,1,0,0:0:0:0:
157,129,25355,1,0,0:0:0:0:
157,129,25466,1,0,0:0:0:0:
33,208,25578,5,0,0:0:0:0:
33,208,25689,1,0,0:0:0:0:
33,208,25800,2,0,B|68:297|68:297|157:334,1,160
127,321,26133,1,0,0:0:0:0:
263,334,26244,1,0,0:0:0:0:
263,334,26355,1,0,0:0:0:0:
375,245,26466,5,0,0:0:0:0:
375,241,26522,1,0,0:0:0:0:
375,237,26578,1,0,0:0:0:0:
374,233,26633,1,0,0:0:0:0:
372,225,26689,1,0,0:0:0:0:
369,217,26744,5,0,0:0:0:0:
365,209,26800,1,0,0:0:0:0:
362,201,26855,1,0,0:0:0:0:
358,193,26911,1,0,0:0:0:0:
354,185,26966,5,0,0:0:0:0:
350,177,27022,1,0,0:0:0:0:
347,169,27078,1,0,0:0:0:0:
346,165,27133,1,0,0:0:0:0:
345,161,27189,1,0,0:0:0:0:
344,157,27244,5,0,0:0:0:0:
340,149,27300,1,0,0:0:0:0:
335,142,27355,1,0,0:0:0:0:
330,135,27411,1,0,0:0:0:0:
325,128,27466,1,0,0:0:0:0:
318,123,27522,5,0,0:0:0:0:
310,119,27578,1,0,0:0:0:0:
302,118,27633,1,0,0:0:0:0:
293,117,27689,1,0,0:0:0:0:
285,118,27744,1,0,0:0:0:0:
277,121,27800,5,0,0:0:0:0:
270,125,27855,1,0,0:0:0:0:
263,130,27911,1,0,0:0:0:0:
257,135,27966,1,0,0:0:0:0:
253,142,28022,5,0,0:0:0:0:
251,149,28078,1,0,0:0:0:0:
249,156,28133,1,0,0:0:0:0:
248,164,28189,1,0,0:0:0:0:
247,171,28244,1,0,0:0:0:0:
246,179,28300,5,0,0:0:0:0:
243,186,28355,1,0,0:0:0:0:
240,193,28411,1,0,0:0:0:0:
237,200,28466,1,0,0:0:0:0:
231,206,28522,5,0,0:0:0:0:
225,211,28578,1,0,0:0:0:0:
218,215,28633,1,0,0:0:0:0:
210,218,28689,1,0,0:0:0:0:
202,220,28744,1,0,0:0:0:0:
193,223,28800,1,0,0:0:0:0:
184,229,28855,5,0,0:0:0:0:
172,232,28911,2,0,B|84:217|84:217|53:147,1,160
48,136,29189,1,0,0:0:0:0:
52,144,29244,1,0,0:0:0:0:
44,128,29300,1,0,0:0:0:0:
40,120,29355,2,0,B|30:35|30:35|120:56,1,160
117,56,29633,5,0,0:0:0:0:
127,64,29689,1,0,0:0:0:0:
139,69,29744,1,0,0:0:0:0:
152,72,29800,5,0,0:0:0:0:
162,72,29855,1,0,0:0:0:0:
169,70,29911,1,0,0:0:0:0:
176,68,29966,1,0,0:0:0:0:
183,66,30022,5,0,0:0:0:0:
190,64,30078,1,0,0:0:0:0:
197,63,30133,1,0,0:0:0:0:
204,66,30189,5,0,0:0:0:0:
211,69,30244,1,0,0:0:0:0:
218,72,30300,1,0,0:0:0:0:
225,74,30355,1,0,0:0:0:0:
232,77,30411,1,0,0:0:0:0:
239,74,30466,5,0,0:0:0:0:
246,72,30522,1,0,0:0:0:0:
253,70,30578,1,0,0:0:0:0:
260,68,30633,1,0,0:0:0:0:
267,66,30689,1,0,0:0:0:0:
274,67,30744,5,0,0:0:0:0:
281,68,30800,1,0,0:0:0:0:
288,69,30855,1,0,0:0:0:0:
295,70,30911,1,0,0:0:0:0:
302,73,30966,5,0,0:0:0:0:
308,77,31022,1,0,0:0:0:0:
314,81,31078,1,0,0:0:0:0:
320,85,31133,1,0,0:0:0:0:
326,89,31189,1,0,0:0:0:0:
332,93,31244,1,0,0:0:0:0:
338,97,31300,1,0,0:0:0:0:
344,100,31355,1,0,0:0:0:0:
349,105,31411,5,0,0:0:0:0:
353,111,31466,1,0,0:0:0:0:
357,117,31522,1,0,0:0:0:0:
359,124,31578,5,0,0:0:0:0:
361,131,31633,1,0,0:0:0:0:
363,138,31689,1,0,0:0:0:0:
365,145,31744,1,0,0:0:0:0:
367,152,31800,5,0,0:0:0:0:
369,159,31855,1,0,0:0:0:0:
371,166,31911,1,0,0:0:0:0:
373,173,31966,1,0,0:0:0:0:
375,180,32022,1,0,0:0:0:0:
374,189,32078,5,0,0:0:0:0:
371,196,32133,1,0,0:0:0:0:
366,202,32189,1,0,0:0:0:0:
361,208,32244,1,0,0:0:0:0:
355,213,32300,1,0,0:0:0:0:
348,217,32355,1,0,0:0:0:0:
341,221,32411,1,0,0:0:0:0:
334,225,32466,5,0,0:0:0:0:
326,228,32522,1,0,0:0:0:0:
318,231,32578,1,0,0:0:0:0:
311,235,32633,1,0,0:0:0:0:
305,241,32689,5,0,0:0:0:0:
301,248,32744,1,0,0:0:0:0:
297,255,32800,1,0,0:0:0:0:
294,262,32855,1,0,0:0:0:0:
292,269,32911,1,0,0:0:0:0:
294,276,32966,5,0,0:0:0:0:
298,282,33022,1,0,0:0:0:0:
303,288,33078,1,0,0:0:0:0:
309,292,33133,1,0,0:0:0:0:
316,295,33189,1,0,0:0:0:0:
323,296,33244,5,0,0:0:0:0:
331,295,33300,1,0,0:0:0:0:
338,293,33355,1,0,0:0:0:0:
346,292,33411,1,0,0:0:0:0:
353,288,33466,1,0,0:0:0:0:
358,282,33522,1,0,0:0:0:0:
363,276,33578,5,0,0:0:0:0:
368,270,33633,1,0,0:0:0:0:
373,264,33689,1,0,0:0:0:0:
377,257,33744,1,0,0:0:0:0:
378,249,33800,1,0,0:0:0:0:
379,241,33855,5,0,0:0:0:0:
379,232,33911,1,0,0:0:0:0:
377,224,33966,1,0,0:0:0:0:
373,216,34022,1,0,0:0:0:0:
368,209,34078,5,0,0:0:0:0:
362,202,34133,1,0,0:0:0:0:
356,196,34189,1,0,0:0:0:0:
350,190,34244,1,0,0:0:0:0:
343,185,34300,1,0,0:0:0:0:
336,180,34355,1,0,0:0:0:0:
329,175,34411,1,0,0:0:0:0:
322,170,34466,1,0,0:0:0:0:
314,166,34522,5,0,0:0:0:0:
306,162,34578,1,0,0:0:0:0:
298,159,34633,1,0,0:0:0:0:
290,157,34689,1,0,0:0:0:0:
282,155,34744,1,0,0:0:0:0:
274,153,34800,1,0,0:0:0:0:
266,152,34855,5,0,0:0:0:0:
257,151,34911,1,0,0:0:0:0:
249,151,34966,1,0,0:0:0:0:
241,152,35022,1,0,0:0:0:0:
233,155,35078,1,0,0:0:0:0:
226,159,35133,1,0,0:0:0:0:
219,163,35189,1,0,0:0:0:0:
214,169,35244,1,0,0:0:0:0:
209,175,35300,5,0,0:0:0:0:
204,181,35355,1,0,0:0:0:0:
198,186,35411,1,0,0:0:0:0:
192,191,35466,1,0,0:0:0:0:
186,196,35522,1,0,0:0:0:0:
179,201,35578,5,0,0:0:0:0:
171,203,35633,1,0,0:0:0:0:
162,203,35689,1,0,0:0:0:0:
154,201,35744,1,0,0:0:0:0:
146,197,35800,1,0,0:0:0:0:
139,193,35855,1,0,0:0:0:0:
133,187,35911,1,0,0:0:0:0:
127,180,35966,5,0,0:0:0:0:
122,173,36022,1,0,0:0:0:0:
117,166,36078,1,0,0:0:0:0:
113,158,36133,1,0,0:0:0:0:
109,150,36189,1,0,0:0:0:0:
106,142,36244,1,0,0:0:0:0:
105,133,36300,5,0,0:0:0:0:
110,127,36355,1,0,0:0:0:0:
115,121,36411,1,0,0:0:0:0:
120,115,36466,1,0,0:0:0:0:
125,109,36522,1,0,0:0:0:0:
130,103,36578,5,0,0:0:0:0:
135,97,36633,1,0,0:0:0:0:
140,91,36689,1,0,0:0:0:0:
145,85,36744,1,0,0:0:0:0:
153,84,36800,5,0,0:0:0:0:
160,83,36855,1,0,0:0:0:0:
168,83,36911,6,0,B|274:83|274:83|321:132,1,160
321,134,37189,1,0,0:0:0:0:
321,134,37244,1,0,0:0:0:0:
321,134,37300,1,0,0:0:0:0:
321,134,37355,2,0,B|391:212|391:212|357:279,1,160
357,274,37633,5,0,0:0:0:0:
349,277,37689,1,0,0:0:0:0:
341,280,37744,1,0,0:0:0:0:
333,283,37800,1,0,0:0:0:0:
325,286,37855,1,0,0:0:0:0:
317,289,37911,1,0,0:0:0:0:
309,292,37966,1,0,0:0:0:0:
301,295,38022,5,0,0:0:0:0:
295,289,38078,1,0,0:0:0:0:
291,282,38133,1,0,0:0:0:0:
286,274,38189,1,0,0:0:0:0:
282,267,38244,1,0,0:0:0:0:
278,259,38300,1,0,0:0:0:0:
274,252,38355,1,0,0:0:0:0:
269,245,38411,5,0,0:0:0:0:
265,238,38466,1,0,0:0:0:0:
261,230,38522,1,0,0:0:0:0:
257,222,38578,1,0,0:0:0:0:
257,214,38633,1,0,0:0:0:0:
257,205,38689,5,0,0:0:0:0:
258,197,38744,1,0,0:0:0:0:
259,189,38800,1,0,0:0:0:0:
260,181,38855,1,0,0:0:0:0:
254,174,38911,5,0,0:0:0:0:
249,167,38966,1,0,0:0:0:0:
243,160,39022,1,0,0:0:0:0:
237,154,39078,1,0,0:0:0:0:
231,148,39133,1,0,0:0:0:0:
223,145,39189,5,0,0:0:0:0:
215,142,39244,1,0,0:0:0:0:
207,139,39300,1,0,0:0:0:0:
203,132,39355,1,0,0:0:0:0:
198,125,39411,1,0,0:0:0:0:
194,118,39466,1,0,0:0:0:0:
193,109,39522,5,0,0:0:0:0:
192,100,39578,1,0,0:0:0:0:
191,92,39633,1,0,0:0:0:0:
195,85,39689,1,0,0:0:0:0:
199,78,39744,5,0,0:0:0:0:
203,71,39800,1,0,0:0:0:0:
207,64,39855,1,0,0:0:0:0:
214,60,39911,1,0,0:0:0:0:
221,57,39966,1,0,0:0:0:0:
229,56,40022,5,0,0:0:0:0:
237,55,40078,1,0,0:0:0:0:
244,54,40133,1,0,0:0:0:0:
252,53,40189,1,0,0:0:0:0:
259,52,40244,1,0,0:0:0:0:
266,55,40300,5,0,0:0:0:0:
273,58,40355,1,0,0:0:0:0:
280,61,40411,1,0,0:0:0:0:
287,64,40466,1,0,0:0:0:0:
294,67,40522,5,0,0:0:0:0:
297,74,40578,1,0,0:0:0:0:
300,81,40633,1,0,0:0:0:0:
303,88,40689,1,0,0:0:0:0:
306,95,40744,5,0,0:0:0:0:
308,102,40800,1,0,0:0:0:0:
310,109,40855,1,0,0:0:0:0:
312,116,40911,1,0,0:0:0:0:
314,123,40966,1,0,0:0:0:0:
315,130,41022,5,0,0:0:0:0:
315,138,41078,1,0,0:0:0:0:
315,145,41133,1,0,0:0:0:0:
315,153,41189,1,0,0:0:0:0:
311,160,41244,5,0,0:0:0:0:
308,167,41300,1,0,0:0:0:0:
305,174,41355,1,0,0:0:0:0:
305,182,41411,1,0,0:0:0:0:
305,189,41466,1,0,0:0:0:0:
305,197,41522,5,0,0:0:0:0:
305,205,41578,1,0,0:0:0:0:
309,211,41633,1,0,0:0:0:0:
311,218,41689,1,0,0:0:0:0:
314,225,41744,1,0,0:0:0:0:
308,230,41800,5,0,0:0:0:0:
302,235,41855,1,0,0:0:0:0:
296,240,41911,1,0,0:0:0:0:
289,244,41966,1,0,0:0:0:0:
282,248,42022,1,0,0:0:0:0:
274,251,42078,5,0,0:0:0:0:
267,255,42133,1,0,0:0:0:0:
260,259,42189,1,0,0:0:0:0:
253,262,42244,2,0,L|168:324,1,80
35,222,42466,6,0,B|82:193|82:193|86:134,1,80
279,50,42689,2,0,B|235:75|235:75|222:140,1,80
434,253,42911,2,0,B|403:226|403:229|403:229|407:164,1,80
148,335,43133,2,0,B|208:277|208:277|177:191,1,160
113,91,43466,6,0,B|119:45|119:45|165:39,1,80
174,40,43633,1,0,0:0:0:0:
198,40,43689,1,0,0:0:0:0:
221,40,43744,1,0,0:0:0:0:
245,40,43800,1,0,0:0:0:0:
268,41,43855,5,0,0:0:0:0:
291,46,43911,1,0,0:0:0:0:
312,56,43966,1,0,0:0:0:0:
329,73,44022,1,0,0:0:0:0:
341,93,44078,5,0,0:0:0:0:
345,116,44133,1,0,0:0:0:0:
347,140,44189,1,0,0:0:0:0:
346,163,44244,2,0,P|321:230|239:273,1,160
271,138,45133,6,0,B|352:144|352:144|370:93|440:95|467:122|467:164|467:164|458:262,2,320
246,135,46078,1,0,0:0:0:0:
222,137,46133,1,0,0:0:0:0:
197,139,46189,5,0,0:0:0:0:
175,148,46244,1,0,0:0:0:0:
155,162,46300,1,0,0:0:0:0:
138,179,46355,1,0,0:0:0:0:
125,199,46411,1,0,0:0:0:0:
115,215,46466,6,0,B|90:255|90:255|86:323,1,80
304,322,46689,2,0,B|261:320|261:320|203:303,1,80
221,308,46855,1,0,0:0:0:0:
217,306,46911,1,0,0:0:0:0:
213,304,46966,1,0,0:0:0:0:
209,302,47022,1,0,0:0:0:0:
204,300,47078,1,0,0:0:0:0:
200,300,47133,1,0,0:0:0:0:
407,84,47355,6,0,B|377:118|377:118|382:181,1,80
190,52,47578,2,0,B|222:70|222:70|208:126,1,80
314,260,47800,2,0,B|273:248|273:248|264:190,1,80
267,207,47966,1,0,0:0:0:0:
266,202,48022,1,0,0:0:0:0:
198,276,48244,5,0,0:0:0:0:
197,271,48300,1,0,0:0:0:0:
196,267,48355,1,0,0:0:0:0:
130,199,48466,5,0,0:0:0:0:
130,194,48522,1,0,0:0:0:0:
130,190,48578,1,0,0:0:0:0:
57,118,48689,5,0,0:0:0:0:
55,111,48744,1,0,0:0:0:0:
55,104,48800,1,0,0:0:0:0:
54,97,48855,1,0,0:0:0:0:
53,91,48911,1,0,0:0:0:0:
275,57,49133,5,0,0:0:0:0:
270,72,49189,1,0,0:0:0:0:
265,87,49244,1,0,0:0:0:0:
263,103,49300,1,0,0:0:0:0:
264,118,49355,5,0,0:0:0:0:
266,134,49411,1,0,0:0:0:0:
270,149,49466,1,0,0:0:0:0:
274,164,49522,1,0,0:0:0:0:
277,179,49578,6,0,B|306:282|306:282|273:323,1,160
266,327,50078,1,0,0:0:0:0:
259,330,50133,1,0,0:0:0:0:
184,248,50244,5,0,0:0:0:0:
184,252,50300,1,0,0:0:0:0:
183,255,50355,1,0,0:0:0:0:
104,323,50466,5,0,0:0:0:0:
101,320,50522,1,0,0:0:0:0:
98,316,50578,1,0,0:0:0:0:
96,312,50633,1,0,0:0:0:0:
96,308,50689,1,0,0:0:0:0:
133,140,50911,5,0,0:0:0:0:
133,140,50966,1,0,0:0:0:0:
133,140,51022,1,0,0:0:0:0:
136,141,51078,1,0,0:0:0:0:
139,142,51133,5,0,0:0:0:0:
142,143,51189,1,0,0:0:0:0:
145,143,51244,1,0,0:0:0:0:
149,143,51300,1,0,0:0:0:0:
152,143,51355,5,0,0:0:0:0:
155,143,51411,1,0,0:0:0:0:
158,142,51466,1,0,0:0:0:0:
161,141,51522,1,0,0:0:0:0:
164,140,51578,1,0,0:0:0:0:
326,208,51800,5,0,0:0:0:0:
323,211,51855,1,0,0:0:0:0:
321,214,51911,1,0,0:0:0:0:
223,228,52022,5,0,0:0:0:0:
219,230,52078,1,0,0:0:0:0:
216,232,52133,1,0,0:0:0:0:
308,310,52244,5,0,0:0:0:0:
311,311,52300,1,0,0:0:0:0:
314,312,52355,1,0,0:0:0:0:
316,308,52411,1,0,0:0:0:0:
320,304,52466,1,0,0:0:0:0:
79,122,52689,5,0,0:0:0:0:
79,125,52744,1,0,0:0:0:0:
79,129,52800,1,0,0:0:0:0:
80,132,52855,1,0,0:0:0:0:
80,135,52911,1,0,0:0:0:0:
81,138,52966,5,0,0:0:0:0:
82,141,53022,1,0,0:0:0:0:
84,144,53078,1,0,0:0:0:0:
86,147,53133,5,0,0:0:0:0:
97,168,53189,1,0,0:0:0:0:
112,186,53244,1,0,0:0:0:0:
129,202,53300,1,0,0:0:0:0:
149,214,53355,5,0,0:0:0:0:
170,224,53411,1,0,0:0:0:0:
204,232,53466,1,0,0:0:0:0:
239,238,53522,1,0,0:0:0:0:
279,235,53578,6,0,L|301:193,2,40
415,100,53800,2,0,L|377:127,2,40
242,71,54022,2,0,L|276:109,4,40
86,217,54466,6,0,L|18:181,2,40
214,210,54689,2,0,L|262:176,2,40
155,280,54911,2,0,L|158:330,4,40
191,93,55355,5,0,0:0:0:0:
193,90,55411,1,0,0:0:0:0:
196,88,55466,1,0,0:0:0:0:
286,158,55578,5,0,0:0:0:0:
289,160,55633,1,0,0:0:0:0:
292,162,55689,1,0,0:0:0:0:
424,100,55800,5,0,0:0:0:0:
426,96,55855,1,0,0:0:0:0:
428,92,55911,1,0,0:0:0:0:
432,88,55966,1,0,0:0:0:0:
432,84,56022,1,0,0:0:0:0:
424,256,56244,5,0,0:0:0:0:
421,259,56300,1,0,0:0:0:0:
418,262,56355,1,0,0:0:0:0:
414,264,56411,1,0,0:0:0:0:
410,265,56466,1,0,0:0:0:0:
406,266,56522,5,0,0:0:0:0:
402,268,56578,1,0,0:0:0:0:
398,269,56633,1,0,0:0:0:0:
393,269,56689,1,0,0:0:0:0:
284,301,56800,5,0,0:0:0:0:
57,221,57022,1,0,0:0:0:0:
136,76,57133,6,0,B|152:164|152:164|252:176,1,160
368,76,57466,1,0,0:0:0:0:
240,76,57578,1,0,0:0:0:0:
372,180,57689,1,0,0:0:0:0:
232,184,57800,1,0,0:0:0:0:
420,324,58022,6,0,B|328:292|328:292|266:313,1,160
44,295,58466,2,0,B|152:291|152:291|204:226,1,160
128,80,58800,1,0,0:0:0:0:
128,80,58911,2,0,B|180:168|180:168|100:204,1,160
439,82,59355,6,0,B|359:134|359:134|358:217,1,160
274,337,59689,1,0,0:0:0:0:
274,337,59800,2,0,B|199:257|199:257|243:204,1,160
155,46,60244,6,0,L|87:112,1,80
97,248,60466,2,0,L|143:182,1,80
264,73,60689,2,0,L|270:169,1,80
388,303,60911,2,0,L|311:238,3,80
265,71,61355,1,0,0:0:0:0:
245,330,61578,6,0,L|250:238,2,80
104,324,61911,1,0,0:0:0:0:
104,324,62022,2,0,L|157:253,1,80
151,259,62244,1,0,0:0:0:0:
473,187,62466,6,0,L|369:189,1,80
286,61,62689,2,0,L|346:154,1,80
247,273,62911,2,0,L|317:187,1,80
434,65,63133,1,0,0:0:0:0:
434,65,63244,1,0,0:0:0:0:
187,110,63355,1,0,0:0:0:0:
187,110,63466,2,0,L|86:140,1,80
254,211,63800,6,0,L|367:225,1,80
482,256,64022,2,0,L|453:351,2,80
155,283,64355,2,0,L|91:220,1,80
380,87,64689,6,0,L|302:170,1,80
51,117,64911,2,0,L|126:153,1,80
309,306,65133,2,0,L|252:232,1,80
205,58,65355,2,0,L|171:159,1,80
117,308,65578,2,0,L|154:213,1,80
203,60,65800,1,0,0:0:0:0:
203,60,65911,1,0,0:0:0:0:
422,251,66022,6,0,P|379:193|343:179,1,80
92,158,66244,1,0,0:0:0:0:
283,111,66355,1,0,0:0:0:0:
173,222,66466,1,0,0:0:0:0:
207,91,66578,1,0,0:0:0:0:
250,242,66689,1,0,0:0:0:0:
265,44,66800,1,0,0:0:0:0:
195,291,66911,1,0,0:0:0:0:
106,170,67022,1,0,0:0:0:0:
106,170,67133,2,0,B|56:170|54:186|52:315,1,160
60,306,67411,5,0,0:0:0:0:
65,316,67466,1,0,0:0:0:0:
75,322,67522,1,0,0:0:0:0:
85,327,67578,1,0,0:0:0:0:
96,329,67633,1,0,0:0:0:0:
107,331,67689,5,0,0:0:0:0:
118,331,67744,1,0,0:0:0:0:
130,331,67800,5,0,0:0:0:0:
131,333,67911,1,0,0:0:0:0:
325,312,68022,5,0,0:0:0:0:
325,312,68133,1,0,0:0:0:0:
181,177,68244,5,0,0:0:0:0:
181,177,68355,1,0,0:0:0:0:
388,134,68466,5,0,0:0:0:0:
388,134,68578,1,0,0:0:0:0:
160,39,68689,5,0,0:0:0:0:
160,39,68800,1,0,0:0:0:0:
29,175,68911,5,0,0:0:0:0:
29,175,69022,1,0,0:0:0:0:
282,238,69133,5,0,0:0:0:0:
282,238,69244,1,0,0:0:0:0:
397,42,69355,5,0,0:0:0:0:
397,42,69466,1,0,0:0:0:0:
435,199,69578,5,0,0:0:0:0:
435,210,69633,1,0,0:0:0:0:
433,221,69689,1,0,0:0:0:0:
427,231,69744,1,0,0:0:0:0:
419,240,69800,1,0,0:0:0:0:
411,249,69855,1,0,0:0:0:0:
402,257,69911,1,0,0:0:0:0:
390,258,69966,1,0,0:0:0:0:
381,249,70022,5,0,0:0:0:0:
376,237,70078,1,0,0:0:0:0:
373,225,70133,1,0,0:0:0:0:
372,212,70189,1,0,0:0:0:0:
373,200,70244,1,0,0:0:0:0:
373,187,70300,1,0,0:0:0:0:
375,175,70355,1,0,0:0:0:0:
380,164,70411,1,0,0:0:0:0:
387,154,70466,2,0,P|384:84|361:64,1,80
128,75,70689,5,0,0:0:0:0:
128,75,70800,1,0,0:0:0:0:
221,237,70911,5,0,0:0:0:0:
221,237,71022,1,0,0:0:0:0:
15,148,71133,5,0,0:0:0:0:
15,148,71244,1,0,0:0:0:0:
291,95,71355,5,0,0:0:0:0:
291,95,71466,1,0,0:0:0:0:
420,156,71578,5,0,0:0:0:0:
361,276,71689,1,0,0:0:0:0:
241,172,71800,5,0,0:0:0:0:
160,298,71911,1,0,0:0:0:0:
70,190,72022,5,0,0:0:0:0:
0,312,72133,1,0,0:0:0:0:
169,244,72244,6,0,P|181:186|192:148,1,80
399,91,72466,2,0,P|359:131|348:158,1,80
36,68,72689,2,0,P|108:59|145:80,1,80
289,118,72911,1,0,0:0:0:0:
289,118,73022,1,0,0:0:0:0:
328,287,73133,5,0,0:0:0:0:
328,287,73244,1,0,0:0:0:0:
115,193,73355,5,0,0:0:0:0:
115,193,73466,1,0,0:0:0:0:
420,178,73578,5,0,0:0:0:0:
420,178,73689,1,0,0:0:0:0:
225,326,73800,5,0,0:0:0:0:
199,323,73855,1,0,0:0:0:0:
184,313,73911,1,0,0:0:0:0:
182,301,73966,1,0,0:0:0:0:
181,287,74022,1,0,0:0:0:0:
187,271,74078,1,0,0:0:0:0:
186,256,74133,1,0,0:0:0:0:
189,241,74189,1,0,0:0:0:0:
188,225,74244,2,0,P|194:129|199:120,1,80
336,58,74466,5,0,0:0:0:0:
167,118,74578,1,0,0:0:0:0:
332,168,74689,5,0,0:0:0:0:
253,51,74800,1,0,0:0:0:0:
253,231,74911,5,0,0:0:0:0:
300,89,75022,1,0,0:0:0:0:
129,218,75133,1,0,0:0:0:0:
334,220,75244,1,0,0:0:0:0:
65,91,75355,5,0,0:0:0:0:
192,283,75466,1,0,0:0:0:0:
235,39,75578,5,0,0:0:0:0:
39,256,75689,1,0,0:0:0:0:
271,193,75800,5,0,0:0:0:0:
111,40,75911,1,0,0:0:0:0:
135,297,76022,5,0,0:0:0:0:
196,60,76133,1,0,0:0:0:0:
45,186,76244,5,0,0:0:0:0:
286,82,76355,1,0,0:0:0:0:
63,87,76466,5,0,0:0:0:0:
334,247,76578,2,0,B|368:292|414:288|420:265|425:236|350:197,1,160
358,203,76855,5,0,0:0:0:0:
342,198,76911,1,0,0:0:0:0:
326,200,76966,1,0,0:0:0:0:
310,202,77022,1,0,0:0:0:0:
293,201,77078,1,0,0:0:0:0:
277,196,77133,1,0,0:0:0:0:
261,190,77189,1,0,0:0:0:0:
247,181,77244,1,0,0:0:0:0:
234,170,77300,1,0,0:0:0:0:
217,138,77355,5,0,0:0:0:0:
235,107,77411,1,0,0:0:0:0:
268,95,77466,1,0,0:0:0:0:
304,93,77522,1,0,0:0:0:0:
340,96,77578,1,0,0:0:0:0:
355,100,77633,1,0,0:0:0:0:
370,104,77689,1,0,0:0:0:0:
381,114,77744,1,0,0:0:0:0:
390,131,77800,5,0,0:0:0:0:
397,149,77855,1,0,0:0:0:0:
403,167,77911,1,0,0:0:0:0:
409,189,77966,1,0,0:0:0:0:
410,217,78022,1,0,0:0:0:0:
410,245,78078,1,0,0:0:0:0:
408,252,78133,5,0,0:0:0:0:
406,259,78189,1,0,0:0:0:0:
402,266,78244,1,0,0:0:0:0:
395,271,78300,1,0,0:0:0:0:
388,275,78355,1,0,0:0:0:0:
380,278,78411,1,0,0:0:0:0:
372,281,78466,1,0,0:0:0:0:
52,86,78689,5,0,0:0:0:0:
477,191,78911,5,0,0:0:0:0:
101,273,79133,5,0,0:0:0:0:
305,100,79355,5,0,0:0:0:0:
300,106,79411,1,0,0:0:0:0:
295,112,79466,1,0,0:0:0:0:
290,118,79522,1,0,0:0:0:0:
285,124,79578,1,0,0:0:0:0:
280,130,79633,1,0,0:0:0:0:
275,136,79689,1,0,0:0:0:0:
270,142,79744,1,0,0:0:0:0:
267,149,79800,2,0,B|220:246|220:246|255:263|279:275|334:335|385:191,1,320
112,80,80911,5,0,0:0:0:0:
112,80,80966,1,0,0:0:0:0:
112,80,81022,1,0,0:0:0:0:
112,80,81078,1,0,0:0:0:0:
112,80,81133,2,0,P|200:64|288:92,1,160
184,248,81578,5,0,0:0:0:0:
344,136,81689,1,0,0:0:0:0:
156,148,81800,1,0,0:0:0:0:
308,240,81911,1,0,0:0:0:0:
240,88,82022,1,0,0:0:0:0:
200,240,82466,5,0,0:0:0:0:
412,172,82689,5,0,0:0:0:0:
412,172,82744,1,0,0:0:0:0:
412,172,82800,1,0,0:0:0:0:
412,172,82855,1,0,0:0:0:0:
412,172,82911,2,0,P|400:224|304:288,1,160
120,268,83244,1,0,0:0:0:0:
264,200,83355,1,0,0:0:0:0:
64,116,83578,5,0,0:0:0:0:
64,116,83633,1,0,0:0:0:0:
64,116,83689,1,0,0:0:0:0:
64,116,83744,1,0,0:0:0:0:
64,116,83800,1,0,0:0:0:0:
152,288,84244,5,0,0:0:0:0:
152,288,84300,1,0,0:0:0:0:
152,288,84355,1,0,0:0:0:0:
152,288,84466,1,0,0:0:0:0:
412,112,84689,1,0,0:0:0:0:
252,72,84911,5,0,0:0:0:0:
252,72,84966,1,0,0:0:0:0:
252,72,85022,1,0,0:0:0:0:
252,72,85078,1,0,0:0:0:0:
252,72,85133,1,0,0:0:0:0:
348,256,85355,5,0,0:0:0:0:
348,256,85411,1,0,0:0:0:0:
348,256,85466,1,0,0:0:0:0:
348,256,85522,1,0,0:0:0:0:
348,256,85578,1,0,0:0:0:0:
64,144,86022,5,0,0:0:0:0:
244,292,86244,5,0,0:0:0:0:
352,120,86355,1,0,0:0:0:0:
168,164,86466,1,0,0:0:0:0:
388,236,86578,1,0,0:0:0:0:
216,104,86689,1,0,0:0:0:0:
184,280,86800,1,0,0:0:0:0:
404,164,86911,1,0,0:0:0:0:
272,328,87022,1,0,0:0:0:0:
288,96,87133,1,0,0:0:0:0:
384,304,87244,1,0,0:0:0:0:
136,208,87355,2,0,L|104:208,1,20
384,96,88022,5,0,0:0:0:0:
384,96,88078,1,0,0:0:0:0:
384,96,88133,1,0,0:0:0:0:
384,96,88189,1,0,0:0:0:0:
384,96,88244,2,0,P|348:164|268:216,1,160
68,292,88689,5,0,0:0:0:0:
120,160,88800,1,0,0:0:0:0:
200,280,88911,1,0,0:0:0:0:
16,188,89022,1,0,0:0:0:0:
224,184,89133,1,0,0:0:0:0:
448,312,89578,5,0,0:0:0:0:
136,236,89800,5,0,0:0:0:0:
136,236,89855,1,0,0:0:0:0:
136,236,89911,1,0,0:0:0:0:
136,236,89966,1,0,0:0:0:0:
136,236,90022,1,0,0:0:0:0:
296,44,90244,5,0,0:0:0:0:
136,76,90355,1,0,0:0:0:0:
292,156,90466,1,0,0:0:0:0:
388,252,90689,5,0,0:0:0:0:
388,252,90744,1,0,0:0:0:0:
388,252,90800,1,0,0:0:0:0:
388,252,90855,1,0,0:0:0:0:
388,252,90911,1,0,0:0:0:0:
76,172,91355,5,0,0:0:0:0:
76,172,91411,1,0,0:0:0:0:
76,172,91466,1,0,0:0:0:0:
76,172,91578,1,0,0:0:0:0:
300,336,91800,1,0,0:0:0:0:
216,108,92022,1,0,0:0:0:0:
216,108,92078,5,0,0:0:0:0:
216,108,92133,1,0,0:0:0:0:
216,108,92189,1,0,0:0:0:0:
216,108,92244,1,0,0:0:0:0:
458,260,92466,5,0,0:0:0:0:
465,252,92522,1,0,0:0:0:0:
472,246,92578,1,0,0:0:0:0:
479,241,92633,1,0,0:0:0:0:
484,237,92689,1,0,0:0:0:0:
40,96,93133,5,0,0:0:0:0:
296,132,93355,5,0,0:0:0:0:
156,176,93466,1,0,0:0:0:0:
308,244,93578,1,0,0:0:0:0:
208,92,93689,1,0,0:0:0:0:
192,268,93800,1,0,0:0:0:0:
372,176,93911,1,0,0:0:0:0:
100,236,94022,1,0,0:0:0:0:
288,52,94133,1,0,0:0:0:0:
268,308,94244,1,0,0:0:0:0:
112,56,94355,1,0,0:0:0:0:
364,280,94466,2,0,L|380:292,1,20
96,236,95133,6,0,L|88:228|100:204,1,20
96,236,95355,2,0,L|96:200,1,20
332,316,96022,6,0,L|356:296,1,20
320,64,96244,6,0,L|312:56|308:84,1,20
320,64,96466,2,0,L|304:96,1,20
72,168,96911,5,0,0:0:0:0:
72,168,96966,1,0,0:0:0:0:
72,168,97022,1,0,0:0:0:0:
72,168,97078,1,0,0:0:0:0:
72,168,97133,2,0,L|64:160|88:140,1,20
72,168,97355,2,0,L|100:184,1,20
472,216,97800,6,0,L|444:216,1,20
224,52,98022,6,0,L|216:44|196:72,1,20
224,52,98244,2,0,L|228:84,1,20
152,312,98689,5,0,0:0:0:0:
152,312,98744,1,0,0:0:0:0:
152,312,98800,1,0,0:0:0:0:
152,312,98855,1,0,0:0:0:0:
152,312,98911,2,0,L|184:304,1,20
436,40,100022,6,0,L|432:64,1,20
296,164,100466,6,0,L|272:164,1,20
296,172,100578,2,0,L|288:148,1,20
296,172,100689,2,0,P|320:208|328:252,1,80
341,259,100966,1,0,0:0:0:0:
341,259,101022,1,0,0:0:0:0:
341,259,101078,1,0,0:0:0:0:
341,259,101133,2,0,L|354:284,1,20
36,204,101578,6,0,L|28:196|52:200,1,20
36,204,101800,2,0,L|48:188,1,20
396,256,102244,5,0,0:0:0:0:
396,256,102300,1,0,0:0:0:0:
396,256,102355,1,0,0:0:0:0:
396,256,102411,1,0,0:0:0:0:
396,256,102466,2,0,L|428:256,1,20
64,88,103578,6,0,L|56:80|72:68,1,20
64,88,103800,2,0,L|80:112,1,20
452,152,104244,6,0,P|424:200|396:216,1,80
413,226,104522,1,0,0:0:0:0:
413,226,104578,1,0,0:0:0:0:
413,226,104633,1,0,0:0:0:0:
413,226,104689,6,0,L|405:218|389:250,1,20
413,226,104911,2,0,L|425:254,1,20
108,280,105133,2,0,L|140:264,1,20
200,72,105800,5,0,0:0:0:0:
200,72,105855,1,0,0:0:0:0:
200,72,105911,1,0,0:0:0:0:
200,72,105966,1,0,0:0:0:0:
200,72,106022,2,0,L|220:96,1,20
464,88,107133,6,0,L|456:80|420:92,1,20
464,88,107355,2,0,L|464:116,1,20
56,176,107800,6,0,L|84:188,1,20
408,252,108022,1,0,0:0:0:0:
56,176,108244,2,0,L|88:184,1,20
256,36,108689,6,0,P|236:92|288:184,1,160
60,280,110022,1,0,0:0:0:0:
136,76,110466,2,0,B|184:112|180:144|192:192,1,120
400,296,111355,2,0,P|344:280|320:256,1,80
448,64,112244,6,0,B|440:96|400:116|400:116|339:118|339:118|330:158,1,160
48,256,113577,1,0,0:0:0:0:
264,308,114022,2,0,B|228:264|212:244|208:204|208:188,1,120
460,188,115133,5,0,0:0:0:0:
460,188,115188,1,0,0:0:0:0:
460,188,115244,1,0,0:0:0:0:
460,188,115299,1,0,0:0:0:0:
464,192,115355,2,0,P|480:224|480:240,1,40
160,256,115799,5,0,0:0:0:0:
72,148,115910,1,0,0:0:0:0:
152,100,116021,5,0,0:0:0:0:
228,200,116132,1,0,0:0:0:0:
384,32,116243,5,0,0:0:0:0:
348,172,116354,1,0,0:0:0:0:
296,228,116465,5,0,0:0:0:0:
256,72,116576,1,0,0:0:0:0:
416,296,116687,5,0,0:0:0:0:
436,176,116799,1,0,0:0:0:0:
332,320,116910,5,0,0:0:0:0:
196,292,117021,1,0,0:0:0:0:
40,152,117132,5,0,0:0:0:0:
96,268,117243,1,0,0:0:0:0:
300,148,117354,5,0,0:0:0:0:
404,68,117465,1,0,0:0:0:0:
148,76,117576,5,0,0:0:0:0:
148,76,117687,1,0,0:0:0:0:
208,220,117799,5,0,0:0:0:0:
208,220,117910,1,0,0:0:0:0:
292,64,118021,5,0,0:0:0:0:
292,64,118132,1,0,0:0:0:0:
368,236,118243,5,0,0:0:0:0:
368,236,118354,1,0,0:0:0:0:
205,315,118465,5,0,0:0:0:0:
197,315,118521,1,0,0:0:0:0:
189,311,118576,1,0,0:0:0:0:
181,307,118632,1,0,0:0:0:0:
173,303,118687,1,0,0:0:0:0:
165,299,118743,1,0,0:0:0:0:
157,295,118799,1,0,0:0:0:0:
150,290,118854,1,0,0:0:0:0:
140,284,118910,5,0,0:0:0:0:
135,277,118965,1,0,0:0:0:0:
129,271,119021,1,0,0:0:0:0:
124,264,119076,1,0,0:0:0:0:
119,257,119132,2,0,P|63:162|79:101,2,160
264,96,119799,5,0,0:0:0:0:
264,96,119910,1,0,0:0:0:0:
408,168,120021,5,0,0:0:0:0:
408,168,120132,1,0,0:0:0:0:
192,244,120243,5,0,0:0:0:0:
192,244,120354,1,0,0:0:0:0:
364,304,120465,5,0,0:0:0:0:
364,304,120576,1,0,0:0:0:0:
120,136,120687,5,0,0:0:0:0:
120,136,120799,1,0,0:0:0:0:
364,64,120910,5,0,0:0:0:0:
364,64,121021,1,0,0:0:0:0:
260,304,121132,5,0,0:0:0:0:
260,304,121243,1,0,0:0:0:0:
232,56,121354,5,0,0:0:0:0:
232,56,121465,1,0,0:0:0:0:
416,240,121576,5,0,0:0:0:0:
416,240,121687,1,0,0:0:0:0:
100,252,121799,5,0,0:0:0:0:
100,252,121910,1,0,0:0:0:0:
408,88,122021,5,0,0:0:0:0:
408,88,122132,1,0,0:0:0:0:
288,296,122243,6,0,P|248:264|208:228,1,80
220,240,122410,1,0,0:0:0:0:
212,236,122465,1,0,0:0:0:0:
208,228,122521,1,0,0:0:0:0:
204,220,122576,1,0,0:0:0:0:
200,196,122632,1,0,0:0:0:0:
196,168,122687,5,0,0:0:0:0:
188,140,122743,1,0,0:0:0:0:
160,116,122799,1,0,0:0:0:0:
124,104,122854,1,0,0:0:0:0:
80,116,122910,2,0,P|48:160|72:272,1,160
284,256,123354,5,0,0:0:0:0:
372,124,123465,1,0,0:0:0:0:
197,204,123576,5,0,0:0:0:0:
392,192,123687,1,0,0:0:0:0:
172,104,123798,5,0,0:0:0:0:
368,264,123910,1,0,0:0:0:0:
264,52,124021,5,0,0:0:0:0:
324,344,124132,1,0,0:0:0:0:
376,52,124243,5,0,0:0:0:0:
216,308,124354,1,0,0:0:0:0:
448,96,124465,5,0,0:0:0:0:
112,304,124576,1,0,0:0:0:0:
488,184,124687,5,0,0:0:0:0:
32,252,124798,1,0,0:0:0:0:
404,256,124910,5,0,0:0:0:0:
88,148,125021,1,0,0:0:0:0:
320,296,125132,5,0,0:0:0:0:
184,120,125243,1,0,0:0:0:0:
216,308,125354,5,0,0:0:0:0:
272,92,125465,1,0,0:0:0:0:
148,240,125576,5,0,0:0:0:0:
332,160,125687,1,0,0:0:0:0:
192,148,125798,5,0,0:0:0:0:
276,224,125910,1,0,0:0:0:0:
316,120,126021,5,0,0:0:0:0:
185,234,126243,5,0,0:0:0:0:
141,39,126465,6,0,B|139:140|6:82|126:59|138:71|-2:193|81:91|71:233|189:392|233:180|233:180|239:102,1,480
248,112,127187,1,0,0:0:0:0:
256,104,127243,1,0,0:0:0:0:
268,100,127298,1,0,0:0:0:0:
280,100,127354,2,0,L|460:100,1,160
208,292,127798,5,0,0:0:0:0:
196,284,127854,1,0,0:0:0:0:
188,276,127910,1,0,0:0:0:0:
184,264,127965,1,0,0:0:0:0:
192,256,128021,2,0,L|372:264,1,160
351,263,128354,1,0,0:0:0:0:
392,116,128465,6,0,L|288:136,1,80
64,72,128687,2,0,L|160:112,1,80
260,344,128910,2,0,L|260:236,1,80
244,36,129132,6,0,P|244:132|244:152,1,80
60,288,129354,2,0,L|128:236,1,80
440,296,129576,2,0,L|364:220,1,80
256,196,129798,6,0,B|264:200|260:212|256:216|240:216|224:208|228:152,1,80
423,103,130021,6,0,B|391:39|391:39|283:59,2,160
420,116,130521,1,0,0:0:0:0:
412,128,130576,1,0,0:0:0:0:
404,136,130632,1,0,0:0:0:0:
392,140,130687,1,0,0:0:0:0:
380,142,130743,1,0,0:0:0:0:
372,148,130798,1,0,0:0:0:0:
364,156,130854,1,0,0:0:0:0:
356,168,130910,5,0,0:0:0:0:
356,168,131021,1,0,0:0:0:0:
116,304,131132,5,0,0:0:0:0:
116,304,131243,1,0,0:0:0:0:
188,76,131354,5,0,0:0:0:0:
188,76,131465,1,0,0:0:0:0:
404,316,131576,5,0,0:0:0:0:
404,316,131687,1,0,0:0:0:0:
432,88,131798,6,0,B|433:119|429:143|410:185|350:145|349:115|393:143|377:183|381:203|312:239|305:234|301:235|301:235|169:191,1,320
192,196,132298,1,0,0:0:0:0:
184,188,132354,1,0,0:0:0:0:
176,180,132410,1,0,0:0:0:0:
172,168,132465,1,0,0:0:0:0:
168,156,132521,1,0,0:0:0:0:
164,144,132576,1,0,0:0:0:0:
164,132,132632,1,0,0:0:0:0:
164,120,132687,5,0,0:0:0:0:
164,120,132798,1,0,0:0:0:0:
484,112,132910,6,0,L|380:136,1,80
120,264,133132,1,0,0:0:0:0:
120,264,133243,1,0,0:0:0:0:
480,204,133354,5,0,0:0:0:0:
480,204,133465,1,0,0:0:0:0:
332,54,133576,6,0,B|324:60|288:92|204:92|252:124|322:138|336:144|352:164|236:184|236:196|312:320,1,320
316,320,134076,1,0,0:0:0:0:
328,316,134132,1,0,0:0:0:0:
340,312,134187,1,0,0:0:0:0:
348,304,134243,1,0,0:0:0:0:
352,292,134298,1,0,0:0:0:0:
356,280,134354,1,0,0:0:0:0:
360,268,134410,1,0,0:0:0:0:
364,256,134465,5,0,0:0:0:0:
368,256,134576,1,0,0:0:0:0:
176,72,134687,5,0,0:0:0:0:
176,72,134798,1,0,0:0:0:0:
448,96,134910,5,0,0:0:0:0:
448,96,135021,1,0,0:0:0:0:
284,344,135132,6,0,L|256:256,1,80
60,168,135354,2,0,B|72:216|68:224|80:264|176:228,1,160
180,224,135632,1,0,0:0:0:0:
184,212,135687,1,0,0:0:0:0:
188,200,135743,1,0,0:0:0:0:
196,192,135798,1,0,0:0:0:0:
204,184,135854,1,0,0:0:0:0:
216,180,135910,1,0,0:0:0:0:
228,176,135965,1,0,0:0:0:0:
240,172,136021,5,0,0:0:0:0:
240,172,136132,1,0,0:0:0:0:
440,72,136243,5,0,0:0:0:0:
440,72,136354,1,0,0:0:0:0:
48,172,136465,5,0,0:0:0:0:
48,172,136576,1,0,0:0:0:0:
412,320,136687,5,0,0:0:0:0:
412,320,136798,1,0,0:0:0:0:
252,72,136910,5,0,0:0:0:0:
252,72,137021,1,0,0:0:0:0:
481,174,137132,6,0,B|443:187|440:216|392:216|348:164|320:172|340:252|320:276|168:216,1,320
172,212,137632,1,0,0:0:0:0:
164,204,137687,1,0,0:0:0:0:
156,196,137743,1,0,0:0:0:0:
148,188,137798,1,0,0:0:0:0:
140,180,137854,1,0,0:0:0:0:
128,172,137910,1,0,0:0:0:0:
120,164,137965,1,0,0:0:0:0:
112,156,138021,5,0,0:0:0:0:
112,156,138132,1,0,0:0:0:0:
304,48,138243,5,0,0:0:0:0:
232,152,138354,1,0,0:0:0:0:
428,148,138465,5,0,0:0:0:0:
272,216,138576,1,0,0:0:0:0:
460,288,138687,5,0,0:0:0:0:
276,292,138798,1,0,0:0:0:0:
52,213,138910,6,0,B|96:240|88:176|136:176|180:228|208:220|188:140|208:116|360:176,1,320
356,180,139410,1,0,0:0:0:0:
364,188,139465,1,0,0:0:0:0:
372,200,139521,1,0,0:0:0:0:
380,212,139576,1,0,0:0:0:0:
388,224,139632,1,0,0:0:0:0:
392,236,139687,1,0,0:0:0:0:
388,248,139743,1,0,0:0:0:0:
112,324,139798,5,0,0:0:0:0:
264,236,139910,1,0,0:0:0:0:
64,200,140021,5,0,0:0:0:0:
240,164,140132,1,0,0:0:0:0:
76,72,140243,5,0,0:0:0:0:
236,88,140354,1,0,0:0:0:0:
424,148,140465,5,0,0:0:0:0:
424,148,140576,1,0,0:0:0:0:
364,340,140687,6,0,B|260:300|220:308|80:348|140:180,1,320
136,192,141187,1,0,0:0:0:0:
140,180,141243,1,0,0:0:0:0:
144,168,141298,1,0,0:0:0:0:
152,160,141354,1,0,0:0:0:0:
160,152,141410,1,0,0:0:0:0:
168,144,141465,1,0,0:0:0:0:
180,136,141521,1,0,0:0:0:0:
188,128,141576,5,0,0:0:0:0:
191,123,141687,1,0,0:0:0:0:
388,200,141798,5,0,0:0:0:0:
388,200,141910,1,0,0:0:0:0:
196,296,142021,5,0,0:0:0:0:
196,296,142132,1,0,0:0:0:0:
376,52,142243,5,0,0:0:0:0:
376,52,142354,1,0,0:0:0:0:
360,340,142465,6,0,B|272:260|380:292|456:308|304:240|248:148|232:96,1,320
225,89,142965,1,0,0:0:0:0:
217,85,143021,1,0,0:0:0:0:
209,82,143076,1,0,0:0:0:0:
202,80,143132,1,0,0:0:0:0:
192,82,143187,1,0,0:0:0:0:
185,89,143243,1,0,0:0:0:0:
181,96,143298,1,0,0:0:0:0:
180,105,143354,5,0,0:0:0:0:
180,105,143465,1,0,0:0:0:0:
72,304,143576,5,0,0:0:0:0:
72,304,143687,1,0,0:0:0:0:
388,124,143798,5,0,0:0:0:0:
388,124,143910,1,0,0:0:0:0:
308,308,144021,5,0,0:0:0:0:
308,308,144132,1,0,0:0:0:0:
72,60,144243,6,0,P|96:108|128:136,1,80
460,172,144465,2,0,P|416:196|372:200,1,80
188,320,144687,2,0,P|188:280|216:224,1,80
356,56,144910,2,0,P|328:96|320:132,1,80
432,340,145132,6,0,P|380:320|356:296,1,80
184,172,145354,2,0,P|148:128|136:104,1,80
428,124,145576,2,0,P|372:144|336:168,1,80
88,288,145798,2,0,P|164:280|176:272,1,80
408,340,146021,2,0,P|364:324|336:292,1,80
256,128,146243,6,0,P|240:80|244:44,1,80
48,176,146465,2,0,P|92:212|120:212,1,80
484,144,146687,2,0,P|440:168|420:200,1,80
228,340,146910,2,0,P|224:296|240:260,1,80
144,48,147132,6,0,P|200:80|212:108,1,80
472,288,147354,2,0,P|424:280|392:268,1,80
160,252,147576,2,0,P|108:284|96:304,1,80
328,148,147798,2,0,P|336:96|356:76,1,80
60,80,148021,2,0,P|88:112|128:128,1,80
380,324,148243,2,0,P|340:304|312:268,1,80
420,56,148465,2,0,P|400:100|332:148,1,120
216,240,148687,5,0,0:0:0:0:
208,248,148743,1,0,0:0:0:0:
196,252,148798,1,0,0:0:0:0:
184,256,148854,1,0,0:0:0:0:
172,260,148910,1,0,0:0:0:0:
160,260,148965,1,0,0:0:0:0:
148,260,149021,1,0,0:0:0:0:
136,260,149076,1,0,0:0:0:0:
124,260,149132,5,0,0:0:0:0:
112,256,149187,1,0,0:0:0:0:
100,248,149243,1,0,0:0:0:0:
92,240,149298,1,0,0:0:0:0:
84,232,149354,1,0,0:0:0:0:
76,224,149410,1,0,0:0:0:0:
72,212,149465,1,0,0:0:0:0:
68,200,149521,1,0,0:0:0:0:
68,188,149576,6,0,P|88:120|112:104,1,80
424,72,149798,2,0,P|424:112|392:148,1,80
116,336,150021,2,0,P|88:296|92:256,1,80
432,328,150243,2,0,P|444:284|428:240,1,80
192,52,150465,2,0,P|244:44|276:56,1,80
312,264,150687,6,0,P|256:264|232:252,1,80
36,60,150910,2,0,P|64:96|100:104,1,80
456,220,151132,2,0,P|408:192|376:192,1,80
40,316,151354,2,0,P|84:320|128:308,1,80
356,80,151576,2,0,P|400:64|440:64,1,80
48,136,151798,6,0,P|96:132|148:148,1,80
460,280,152021,2,0,P|416:276|372:256,1,80
148,64,152243,2,0,P|92:60|48:68,1,80
344,192,152465,2,0,P|400:196|452:208,1,80
56,316,152687,2,0,P|60:264|88:240,1,80
436,40,152910,6,0,P|428:96|456:148,1,80
240,332,153132,2,0,P|240:272|208:244,1,80
304,32,153354,2,0,P|324:76|352:92,1,80
24,144,153576,2,0,P|64:116|108:112,1,80
472,332,153798,2,0,P|452:288|416:264,1,80
232,132,154021,5,0,0:0:0:0:
244,128,154076,1,0,0:0:0:0:
256,128,154132,1,0,0:0:0:0:
268,128,154187,1,0,0:0:0:0:
280,128,154243,1,0,0:0:0:0:
292,128,154298,1,0,0:0:0:0:
304,124,154354,1,0,0:0:0:0:
316,120,154410,1,0,0:0:0:0:
328,116,154465,5,0,0:0:0:0:
340,112,154521,1,0,0:0:0:0:
352,108,154576,1,0,0:0:0:0:
364,104,154632,1,0,0:0:0:0:
376,104,154687,1,0,0:0:0:0:
388,104,154743,1,0,0:0:0:0:
400,108,154798,1,0,0:0:0:0:
408,116,154854,1,0,0:0:0:0:
412,128,154910,5,0,0:0:0:0:
432,212,155021,1,0,0:0:0:0:
372,280,155132,1,0,0:0:0:0:
284,296,155243,1,0,0:0:0:0:
200,272,155354,1,0,0:0:0:0:
136,212,155465,1,0,0:0:0:0:
92,120,155576,2,0,P|148:88|176:92,1,80
248,104,155798,5,0,0:0:0:0:
216,188,155910,1,0,0:0:0:0:
208,276,156021,1,0,0:0:0:0:
292,237,156132,1,0,0:0:0:0:
292,237,156187,1,0,0:0:0:0:
292,237,156243,1,0,0:0:0:0:
368,188,156354,5,0,0:0:0:0:
416,112,156465,1,0,0:0:0:0:
344,56,156576,1,0,0:0:0:0:
260,92,156687,1,0,0:0:0:0:
196,156,156798,1,0,0:0:0:0:
128,216,156910,2,0,P|80:192|68:168,1,80
72,80,157132,5,0,0:0:0:0:
84,76,157187,1,0,0:0:0:0:
96,72,157243,1,0,0:0:0:0:
108,72,157298,1,0,0:0:0:0:
120,72,157354,1,0,0:0:0:0:
132,72,157410,1,0,0:0:0:0:
144,72,157465,1,0,0:0:0:0:
156,72,157521,1,0,0:0:0:0:
168,72,157576,5,0,0:0:0:0:
256,88,157687,1,0,0:0:0:0:
216,168,157798,1,0,0:0:0:0:
208,260,157910,1,0,0:0:0:0:
280,316,158021,1,0,0:0:0:0:
364,280,158132,1,0,0:0:0:0:
368,188,158243,2,0,P|384:140|416:124,1,80
484,80,158465,5,0,0:0:0:0:
408,32,158576,1,0,0:0:0:0:
320,48,158687,1,0,0:0:0:0:
248,104,158798,1,0,0:0:0:0:
184,168,158910,5,0,0:0:0:0:
180,180,158965,1,0,0:0:0:0:
172,188,159021,1,0,0:0:0:0:
164,200,159076,1,0,0:0:0:0:
160,212,159132,1,0,0:0:0:0:
160,224,159187,1,0,0:0:0:0:
160,236,159243,1,0,0:0:0:0:
164,248,159298,5,0,0:0:0:0:
168,260,159354,1,0,0:0:0:0:
192,280,159410,1,0,0:0:0:0:
224,288,159465,1,0,0:0:0:0:
256,292,159521,1,0,0:0:0:0:
288,292,159576,1,0,0:0:0:0:
320,284,159632,1,0,0:0:0:0:
328,276,159687,1,0,0:0:0:0:
332,264,159743,5,0,0:0:0:0:
336,252,159798,1,0,0:0:0:0:
344,244,159854,1,0,0:0:0:0:
352,236,159910,1,0,0:0:0:0:
356,224,159965,1,0,0:0:0:0:
359,213,160021,2,0,P|372:167|349:126,1,80
222,66,160243,5,0,0:0:0:0:
113,150,160354,1,0,0:0:0:0:
242,193,160465,1,0,0:0:0:0:
194,71,160576,1,0,0:0:0:0:
90,197,160687,1,0,0:0:0:0:
234,248,160798,1,0,0:0:0:0:
263,69,160910,2,0,L|348:109,1,80
441,164,161132,5,0,0:0:0:0:
434,312,161243,1,0,0:0:0:0:
295,224,161354,1,0,0:0:0:0:
478,180,161465,1,0,0:0:0:0:
340,302,161576,1,0,0:0:0:0:
370,133,161687,1,0,0:0:0:0:
199,306,161798,5,0,0:0:0:0:
93,185,161910,1,0,0:0:0:0:
30,324,162021,1,0,0:0:0:0:
196,221,162132,1,0,0:0:0:0:
25,244,162243,2,0,P|22:187|37:148,1,80
334,68,162465,5,0,0:0:0:0:
299,215,162576,1,0,0:0:0:0:
198,102,162687,1,0,0:0:0:0:
365,140,162798,1,0,0:0:0:0:
211,220,162910,1,0,0:0:0:0:
251,55,163021,1,0,0:0:0:0:
443,275,163132,5,0,0:0:0:0:
377,137,163243,1,0,0:0:0:0:
279,253,163354,1,0,0:0:0:0:
441,184,163465,1,0,0:0:0:0:
287,171,163576,2,0,P|203:157|181:166,1,80
88,217,163798,5,0,0:0:0:0:
166,66,163910,1,0,0:0:0:0:
253,205,164021,1,0,0:0:0:0:
81,127,164132,1,0,0:0:0:0:
277,94,164243,1,0,0:0:0:0:
175,252,164354,1,0,0:0:0:0:
238,301,164465,5,0,0:0:0:0:
449,70,164576,1,0,0:0:0:0:
373,293,164687,5,0,0:0:0:0:
345,41,164798,1,0,0:0:0:0:
485,213,164910,5,0,0:0:0:0:
212,85,165021,1,0,0:0:0:0:
496,90,165132,5,0,0:0:0:0:
139,206,165243,1,0,0:0:0:0:
376,47,165354,5,0,0:0:0:0:
426,246,165465,1,0,0:0:0:0:
226,158,165576,1,0,0:0:0:0:
461,118,165687,1,0,0:0:0:0:
284,249,165798,1,0,0:0:0:0:
285,69,165910,1,0,0:0:0:0:
468,186,166021,1,0,0:0:0:0:
243,160,166132,1,0,0:0:0:0:
407,288,166243,2,0,P|356:342|339:346,1,80
125,298,166465,5,0,0:0:0:0:
63,150,166576,1,0,0:0:0:0:
263,180,166687,1,0,0:0:0:0:
49,231,166798,1,0,0:0:0:0:
170,126,166910,1,0,0:0:0:0:
232,275,167021,1,0,0:0:0:0:
477,179,167132,5,0,0:0:0:0:
318,255,167243,1,0,0:0:0:0:
472,349,167354,1,0,0:0:0:0:
370,180,167465,1,0,0:0:0:0:
364,342,167576,2,0,P|408:301|424:268,1,80
192,51,167798,5,0,0:0:0:0:
292,164,167910,1,0,0:0:0:0:
129,209,168021,1,0,0:0:0:0:
109,97,168132,1,0,0:0:0:0:
287,75,168243,1,0,0:0:0:0:
239,231,168354,1,0,0:0:0:0:
435,273,168465,5,0,0:0:0:0:
415,113,168576,1,0,0:0:0:0:
273,205,168687,1,0,0:0:0:0:
459,189,168798,1,0,0:0:0:0:
312,124,168910,2,0,P|232:124|230:126,1,80
43,204,169132,5,0,0:0:0:0:
118,75,169243,1,0,0:0:0:0:
115,295,169354,1,0,0:0:0:0:
196,195,169465,1,0,0:0:0:0:
293,320,169576,5,0,0:0:0:0:
303,314,169632,1,0,0:0:0:0:
311,305,169687,1,0,0:0:0:0:
313,293,169743,1,0,0:0:0:0:
314,281,169798,1,0,0:0:0:0:
315,269,169854,1,0,0:0:0:0:
322,259,169910,1,0,0:0:0:0:
329,249,169965,1,0,0:0:0:0:
330,236,170021,5,0,0:0:0:0:
330,224,170076,1,0,0:0:0:0:
326,212,170132,1,0,0:0:0:0:
328,200,170187,1,0,0:0:0:0:
335,190,170243,1,0,0:0:0:0:
332,178,170298,5,0,0:0:0:0:
334,166,170354,1,0,0:0:0:0:
342,157,170410,1,0,0:0:0:0:
347,146,170465,6,0,P|369:78|373:66,1,80
76,99,170687,2,0,L|17:188,1,80
381,309,170910,2,0,L|423:226,1,80
221,51,171132,5,0,0:0:0:0:
335,190,171243,1,0,0:0:0:0:
163,182,171354,1,0,0:0:0:0:
313,66,171465,1,0,0:0:0:0:
257,230,171576,2,0,L|230:151,1,80
296,335,171798,5,0,0:0:0:0:
231,154,171910,1,0,0:0:0:0:
117,303,172021,1,0,0:0:0:0:
306,229,172132,1,0,0:0:0:0:
146,205,172243,1,0,0:0:0:0:
195,333,172354,1,0,0:0:0:0:
351,134,172465,5,0,0:0:0:0:
444,33,172576,1,0,0:0:0:0:
489,168,172687,1,0,0:0:0:0:
366,51,172798,1,0,0:0:0:0:
500,97,172910,2,0,P|439:120|413:145,1,80
78,195,173132,5,0,0:0:0:0:
243,153,173243,1,0,0:0:0:0:
87,97,173354,1,0,0:0:0:0:
235,229,173465,1,0,0:0:0:0:
218,52,173576,1,0,0:0:0:0:
108,275,173687,1,0,0:0:0:0:
295,316,173798,5,0,0:0:0:0:
168,183,173910,1,0,0:0:0:0:
371,174,174021,1,0,0:0:0:0:
175,297,174132,1,0,0:0:0:0:
288,120,174243,2,0,P|276:183|255:209,1,80
181,57,174465,5,0,0:0:0:0:
155,219,174576,1,0,0:0:0:0:
278,130,174687,1,0,0:0:0:0:
94,150,174798,1,0,0:0:0:0:
337,274,174910,5,0,0:0:0:0:
268,60,175021,1,0,0:0:0:0:
257,313,175132,1,0,0:0:0:0:
130,97,175243,1,0,0:0:0:0:
399,199,175354,1,0,0:0:0:0:
100,195,175465,1,0,0:0:0:0:
373,103,175576,5,0,0:0:0:0:
140,299,175687,1,0,0:0:0:0:
267,51,175798,1,0,0:0:0:0:
234,312,175910,1,0,0:0:0:0:
141,62,176021,1,0,0:0:0:0:
339,289,176132,1,0,0:0:0:0:
448,68,176243,6,0,L|448:149,1,80
64,99,176465,2,0,L|65:181,1,80
288,222,176687,2,0,L|288:324,1,80
159,36,176910,2,0,L|159:130,1,80
511,257,177132,2,0,L|511:346,1,80
511,257,177354,6,0,L|510:362,1,80
64,225,177576,2,0,L|65:318,1,80
353,32,177798,2,0,L|350:131,1,80
190,259,178021,2,0,L|191:355,1,80
32,33,178243,2,0,L|32:133,1,80
449,160,178465,5,0,0:0:0:0:
449,172,178521,1,0,0:0:0:0:
448,183,178576,1,0,0:0:0:0:
448,195,178632,1,0,0:0:0:0:
446,206,178687,1,0,0:0:0:0:
446,218,178743,1,0,0:0:0:0:
446,229,178798,1,0,0:0:0:0:
446,241,178854,1,0,0:0:0:0:
446,253,178910,5,0,0:0:0:0:
446,264,178965,1,0,0:0:0:0:
446,276,179021,1,0,0:0:0:0:
446,287,179076,1,0,0:0:0:0:
446,299,179132,1,0,0:0:0:0:
446,310,179187,1,0,0:0:0:0:
446,322,179243,1,0,0:0:0:0:
446,333,179298,1,0,0:0:0:0:
160,194,179354,6,0,L|160:288,1,80
510,31,179576,2,0,L|509:126,1,80
321,97,179798,2,0,L|321:194,1,80
63,194,180021,2,0,L|62:284,1,80
223,31,180243,1,0,0:0:0:0:
223,42,180298,5,0,0:0:0:0:
223,54,180354,1,0,0:0:0:0:
223,66,180410,1,0,0:0:0:0:
223,77,180465,1,0,0:0:0:0:
223,89,180521,1,0,0:0:0:0:
223,100,180576,1,0,0:0:0:0:
223,112,180632,1,0,0:0:0:0:
223,123,180687,6,0,L|223:230,1,80
448,191,180910,2,0,L|448:289,1,80
190,289,181132,2,0,L|189:380,1,80
0,64,181354,2,0,L|0:158,1,80
1,255,181576,2,0,L|0:355,1,80
321,191,181798,6,0,L|321:291,1,80
481,0,182021,1,0,0:0:0:0:
481,11,182076,1,0,0:0:0:0:
481,23,182132,1,0,0:0:0:0:
481,34,182187,1,0,0:0:0:0:
481,46,182243,1,0,0:0:0:0:
481,57,182298,5,0,0:0:0:0:
481,69,182354,1,0,0:0:0:0:
481,81,182410,1,0,0:0:0:0:
481,92,182465,1,0,0:0:0:0:
481,104,182521,1,0,0:0:0:0:
481,115,182576,1,0,0:0:0:0:
481,127,182632,1,0,0:0:0:0:
481,138,182687,5,0,0:0:0:0:
481,150,182743,1,0,0:0:0:0:
481,161,182798,1,0,0:0:0:0:
481,173,182854,1,0,0:0:0:0:
481,185,182910,1,0,0:0:0:0:
481,196,182965,1,0,0:0:0:0:
481,208,183021,5,0,0:0:0:0:
481,219,183076,1,0,0:0:0:0:
480,231,183132,1,0,0:0:0:0:
480,242,183187,1,0,0:0:0:0:
480,254,183243,1,0,0:0:0:0:
480,265,183298,1,0,0:0:0:0:
480,277,183354,5,0,0:0:0:0:
480,289,183410,1,0,0:0:0:0:
480,300,183465,1,0,0:0:0:0:
480,312,183521,1,0,0:0:0:0:
480,323,183576,1,0,0:0:0:0:
480,335,183632,5,0,0:0:0:0:
480,346,183687,1,0,0:0:0:0:
480,358,183743,1,0,0:0:0:0:
395,349,183798,5,0,0:0:0:0:
395,349,183910,1,0,0:0:0:0:
166,320,184021,5,0,0:0:0:0:
166,320,184132,1,0,0:0:0:0:
345,168,184243,5,0,0:0:0:0:
345,168,184354,1,0,0:0:0:0:
75,155,184465,5,0,0:0:0:0:
75,155,184576,1,0,0:0:0:0:
245,62,184687,5,0,0:0:0:0:
245,62,184798,1,0,0:0:0:0:
274,264,184910,5,0,0:0:0:0:
274,264,185021,1,0,0:0:0:0:
5,88,185132,5,0,0:0:0:0:
5,88,185243,1,0,0:0:0:0:
106,255,185354,5,0,0:0:0:0:
106,255,185465,1,0,0:0:0:0:
308,132,185576,5,0,0:0:0:0:
308,132,185687,1,0,0:0:0:0:
345,327,185798,5,0,0:0:0:0:
345,327,185910,1,0,0:0:0:0:
126,128,186021,6,0,L|124:231,1,80
481,192,186243,2,0,L|478:292,1,80
94,224,186465,2,0,L|92:319,1,80
285,34,186687,2,0,L|285:136,1,80
385,320,186910,5,0,0:0:0:0:
385,320,187021,1,0,0:0:0:0:
188,154,187132,5,0,0:0:0:0:
188,154,187243,1,0,0:0:0:0:
389,131,187354,5,0,0:0:0:0:
389,131,187465,1,0,0:0:0:0:
146,303,187576,5,0,0:0:0:0:
146,303,187687,1,0,0:0:0:0:
321,29,187798,6,0,L|320:130,1,80
32,160,188021,2,0,L|32:266,1,80
188,127,188243,5,0,0:0:0:0:
188,127,188354,1,0,0:0:0:0:
337,320,188465,5,0,0:0:0:0:
337,320,188576,1,0,0:0:0:0:
386,158,188687,5,0,0:0:0:0:
386,158,188798,1,0,0:0:0:0:
172,254,188910,5,0,0:0:0:0:
172,254,189021,1,0,0:0:0:0:
287,58,189132,5,0,0:0:0:0:
287,58,189243,1,0,0:0:0:0:
327,258,189354,5,0,0:0:0:0:
327,258,189465,1,0,0:0:0:0:
95,64,189576,6,0,L|94:164,1,80
381,189,189798,2,0,L|381:95,1,80
190,257,190021,6,0,L|188:351,1,80
317,122,190243,2,0,L|317:31,1,80
144,59,190465,2,0,P|99:23|50:27,1,80
67,228,190687,2,0,P|21:228|-25:262,1,80
239,277,190910,2,0,P|208:317|199:375,1,80
441,189,191132,2,0,P|470:198|468:143,1,80
190,63,191354,5,0,0:0:0:0:
190,63,191410,1,0,0:0:0:0:
190,63,191465,1,0,0:0:0:0:
166,160,191576,1,0,0:0:0:0:
188,264,191687,5,0,0:0:0:0:
188,264,191743,1,0,0:0:0:0:
188,264,191798,1,0,0:0:0:0:
296,185,191910,1,0,0:0:0:0:
281,297,192021,1,0,0:0:0:0:
397,318,192132,1,0,0:0:0:0:
418,197,192243,1,0,0:0:0:0:
402,100,192354,5,0,0:0:0:0:
274,98,192465,1,0,0:0:0:0:
352,190,192576,1,0,0:0:0:0:
196,149,192687,1,0,0:0:0:0:
267,251,192798,1,0,0:0:0:0:
104,198,192910,2,0,P|146:230|178:240,1,80
369,273,193132,5,0,0:0:0:0:
369,273,193187,1,0,0:0:0:0:
369,273,193243,1,0,0:0:0:0:
425,172,193354,1,0,0:0:0:0:
329,122,193465,5,0,0:0:0:0:
329,122,193521,1,0,0:0:0:0:
329,122,193576,1,0,0:0:0:0:
261,217,193687,1,0,0:0:0:0:
180,299,193798,5,0,0:0:0:0:
180,299,193854,1,0,0:0:0:0:
180,299,193910,1,0,0:0:0:0:
96,216,194021,2,0,P|104:158|132:134,1,80
117,143,194187,5,0,0:0:0:0:
117,143,194243,1,0,0:0:0:0:
207,84,194354,1,0,0:0:0:0:
301,156,194465,2,0,P|330:113|368:98,1,80
426,197,194687,1,0,0:0:0:0:
342,286,194798,1,0,0:0:0:0:
236,218,194910,5,0,0:0:0:0:
236,218,194965,1,0,0:0:0:0:
236,218,195021,1,0,0:0:0:0:
311,114,195132,1,0,0:0:0:0:
207,56,195243,5,0,0:0:0:0:
207,56,195298,1,0,0:0:0:0:
207,56,195354,1,0,0:0:0:0:
99,120,195465,1,0,0:0:0:0:
128,228,195576,1,0,0:0:0:0:
238,290,195687,1,0,0:0:0:0:
343,248,195798,5,0,0:0:0:0:
245,166,195910,1,0,0:0:0:0:
396,155,196021,1,0,0:0:0:0:
262,252,196132,1,0,0:0:0:0:
321,114,196243,1,0,0:0:0:0:
423,227,196354,1,0,0:0:0:0:
337,326,196465,2,0,P|295:346|246:347,1,80
150,287,196687,5,0,0:0:0:0:
150,287,196743,1,0,0:0:0:0:
150,287,196798,1,0,0:0:0:0:
104,178,196910,1,0,0:0:0:0:
226,155,197021,5,0,0:0:0:0:
226,155,197076,1,0,0:0:0:0:
226,155,197132,1,0,0:0:0:0:
223,45,197243,1,0,0:0:0:0:
337,51,197354,5,0,0:0:0:0:
337,51,197410,1,0,0:0:0:0:
337,51,197465,1,0,0:0:0:0:
382,148,197576,1,0,0:0:0:0:
419,262,197687,5,0,0:0:0:0:
419,262,197743,1,0,0:0:0:0:
419,262,197798,1,0,0:0:0:0:
318,319,197910,1,0,0:0:0:0:
206,322,198021,2,0,L|164:322,1,40
149,321,198132,1,0,0:0:0:0:
105,201,198243,1,0,0:0:0:0:
212,229,198354,1,0,0:0:0:0:
216,118,198465,1,0,0:0:0:0:
361,273,199354,5,0,0:0:0:0:
361,273,199410,1,0,0:0:0:0:
361,273,199465,1,0,0:0:0:0:
253,306,199576,1,0,0:0:0:0:
169,217,199687,5,0,0:0:0:0:
169,217,199743,1,0,0:0:0:0:
169,217,199798,1,0,0:0:0:0:
239,108,199910,1,0,0:0:0:0:
359,156,200021,1,0,0:0:0:0:
241,197,200132,1,0,0:0:0:0:
325,87,200243,1,0,0:0:0:0:
305,216,200354,1,0,0:0:0:0:
431,198,200465,1,0,0:0:0:0:
367,299,200576,1,0,0:0:0:0:
242,330,200687,6,0,P|196:319|163:289,1,80
55,139,200910,2,0,P|46:75|57:33,1,80
192,60,201132,5,0,0:0:0:0:
192,60,201187,1,0,0:0:0:0:
192,60,201243,1,0,0:0:0:0:
169,178,201354,1,0,0:0:0:0:
292,213,201465,5,0,0:0:0:0:
292,213,201521,1,0,0:0:0:0:
292,213,201576,1,0,0:0:0:0:
218,106,201687,1,0,0:0:0:0:
173,219,201798,5,0,0:0:0:0:
173,219,201854,1,0,0:0:0:0:
173,219,201910,1,0,0:0:0:0:
255,319,202021,2,0,P|309:323|335:301,1,80
328,309,202187,1,0,0:0:0:0:
328,309,202243,1,0,0:0:0:0:
388,199,202354,1,0,0:0:0:0:
337,79,202465,6,0,L|337:122,2,40
337,79,202632,1,0,0:0:0:0:
337,79,202687,1,0,0:0:0:0:
220,128,202798,1,0,0:0:0:0:
132,206,202910,5,0,0:0:0:0:
132,206,202965,1,0,0:0:0:0:
132,206,203021,1,0,0:0:0:0:
254,237,203132,1,0,0:0:0:0:
369,171,203243,5,0,0:0:0:0:
369,171,203298,1,0,0:0:0:0:
369,171,203354,1,0,0:0:0:0:
443,265,203465,1,0,0:0:0:0:
309,225,203576,1,0,0:0:0:0:
369,104,203687,1,0,0:0:0:0:
377,266,203798,1,0,0:0:0:0:
450,178,203910,1,0,0:0:0:0:
294,151,204021,1,0,0:0:0:0:
442,248,204132,1,0,0:0:0:0:
290,309,204243,6,0,P|249:288|245:228,1,80
196,113,204465,2,0,P|258:81|294:77,1,80
391,91,204687,5,0,0:0:0:0:
391,91,204743,1,0,0:0:0:0:
391,91,204798,1,0,0:0:0:0:
250,163,204910,1,0,0:0:0:0:
274,288,205021,5,0,0:0:0:0:
274,288,205076,1,0,0:0:0:0:
274,288,205132,1,0,0:0:0:0:
136,288,205243,1,0,0:0:0:0:
109,167,205354,5,0,0:0:0:0:
109,167,205410,1,0,0:0:0:0:
109,167,205465,1,0,0:0:0:0:
182,37,205576,6,0,P|195:92|227:128,1,80
208,110,205743,1,0,0:0:0:0:
208,110,205798,1,0,0:0:0:0:
354,168,205910,1,0,0:0:0:0:
432,291,206021,2,0,P|416:237|382:211,1,80
289,119,206243,1,0,0:0:0:0:
276,254,206354,1,0,0:0:0:0:
168,239,206465,5,0,0:0:0:0:
168,239,206521,1,0,0:0:0:0:
168,239,206576,1,0,0:0:0:0:
178,99,206687,1,0,0:0:0:0:
43,104,206798,5,0,0:0:0:0:
43,104,206854,1,0,0:0:0:0:
43,104,206910,1,0,0:0:0:0:
130,176,207021,1,0,0:0:0:0:
178,99,207132,1,0,0:0:0:0:
257,145,207243,1,0,0:0:0:0:
216,239,207354,1,0,0:0:0:0:
324,268,207465,1,0,0:0:0:0:
421,193,207576,1,0,0:0:0:0:
321,169,207687,1,0,0:0:0:0:
216,239,207798,6,0,P|255:286|297:298,1,80
392,309,208021,2,0,P|442:284|464:246,1,80
458,157,208243,5,0,0:0:0:0:
458,157,208298,1,0,0:0:0:0:
458,157,208354,1,0,0:0:0:0:
335,125,208465,1,0,0:0:0:0:
205,78,208576,5,0,0:0:0:0:
205,78,208632,1,0,0:0:0:0:
205,78,208687,1,0,0:0:0:0:
236,193,208798,1,0,0:0:0:0:
355,236,208910,5,0,0:0:0:0:
355,236,208965,1,0,0:0:0:0:
355,236,209021,1,0,0:0:0:0:
319,95,209132,2,0,P|277:73|240:82,1,80
246,78,209298,1,0,0:0:0:0:
246,78,209354,1,0,0:0:0:0:
160,168,209465,1,0,0:0:0:0:
151,317,209576,6,0,P|180:280|217:267,1,80
355,236,209798,1,0,0:0:0:0:
274,135,209910,1,0,0:0:0:0:
394,99,210021,5,0,0:0:0:0:
394,99,210076,1,0,0:0:0:0:
394,99,210132,1,0,0:0:0:0:
290,257,210243,1,0,0:0:0:0:
420,279,210354,5,0,0:0:0:0:
420,279,210410,1,0,0:0:0:0:
420,279,210465,1,0,0:0:0:0:
344,174,210576,1,0,0:0:0:0:
341,320,210687,1,0,0:0:0:0:
228,255,210798,1,0,0:0:0:0:
356,230,210910,1,0,0:0:0:0:
265,318,211021,1,0,0:0:0:0:
265,187,211132,1,0,0:0:0:0:
159,266,211243,1,0,0:0:0:0:
99,147,211354,6,0,P|129:103|161:87,1,80
302,58,211576,2,0,P|361:83|389:113,1,80
395,211,211798,5,0,0:0:0:0:
395,211,211854,1,0,0:0:0:0:
395,211,211910,1,0,0:0:0:0:
273,157,212021,1,0,0:0:0:0:
229,276,212132,5,0,0:0:0:0:
229,276,212187,1,0,0:0:0:0:
229,276,212243,1,0,0:0:0:0:
113,213,212354,1,0,0:0:0:0:
155,82,212465,5,0,0:0:0:0:
155,82,212521,1,0,0:0:0:0:
155,82,212576,1,0,0:0:0:0:
210,202,212687,1,0,0:0:0:0:
283,107,212798,5,0,0:0:0:0:
283,107,212854,1,0,0:0:0:0:
283,107,212910,1,0,0:0:0:0:
350,224,213021,1,0,0:0:0:0:
246,312,213132,2,0,L|235:250,1,40
29,157,213576,5,0,0:0:0:0:
29,157,213632,1,0,0:0:0:0:
29,157,213687,1,0,0:0:0:0:
159,132,213798,1,0,0:0:0:0:
135,253,213910,5,0,0:0:0:0:
135,253,213965,1,0,0:0:0:0:
135,253,214021,1,0,0:0:0:0:
256,274,214132,1,0,0:0:0:0:
311,161,214243,1,0,0:0:0:0:
56,48,214465,6,0,L|75:95,1,40
479,138,214910,6,0,L|450:182,1,40
105,302,215354,5,0,0:0:0:0:
105,302,215410,1,0,0:0:0:0:
105,302,215465,1,0,0:0:0:0:
111,166,215576,1,0,0:0:0:0:
240,222,215687,1,0,0:0:0:0:
334,125,216021,5,0,0:0:0:0:
334,125,216076,1,0,0:0:0:0:
334,125,216132,1,0,0:0:0:0:
352,271,216243,2,0,P|294:291|255:300,1,80
275,295,216410,1,0,0:0:0:0:
275,295,216465,1,0,0:0:0:0:
311,173,216576,1,0,0:0:0:0:
183,139,216687,1,0,0:0:0:0:
163,276,216798,1,0,0:0:0:0:
51,211,216910,2,0,P|95:184|135:163,1,80
274,99,217132,5,0,0:0:0:0:
274,99,217187,1,0,0:0:0:0:
274,99,217243,1,0,0:0:0:0:
196,229,217354,1,0,0:0:0:0:
329,270,217465,5,0,0:0:0:0:
329,270,217521,1,0,0:0:0:0:
329,270,217576,1,0,0:0:0:0:
282,150,217687,1,0,0:0:0:0:
187,301,217798,1,0,0:0:0:0:
407,120,218021,6,0,L|385:168,1,40
30,262,218465,6,0,L|61:225,1,40
463,262,218687,6,0,L|416:233,1,40
245,129,218910,5,0,0:0:0:0:
245,129,218965,1,0,0:0:0:0:
245,129,219021,1,0,0:0:0:0:
146,221,219132,1,0,0:0:0:0:
103,95,219243,1,0,0:0:0:0:
421,226,219576,5,0,0:0:0:0:
421,226,219632,1,0,0:0:0:0:
421,226,219687,1,0,0:0:0:0:
348,57,219798,2,0,P|325:108|303:124,1,80
306,121,219965,1,0,0:0:0:0:
306,121,220021,1,0,0:0:0:0:
221,239,220132,1,0,0:0:0:0:
218,111,220243,1,0,0:0:0:0:
309,215,220354,1,0,0:0:0:0:
184,177,220465,1,0,0:0:0:0:
119,104,220576,1,0,0:0:0:0:
40,184,220687,5,0,0:0:0:0:
40,184,220743,1,0,0:0:0:0:
40,184,220798,1,0,0:0:0:0:
140,269,220910,1,0,0:0:0:0:
246,218,221021,5,0,0:0:0:0:
246,218,221076,1,0,0:0:0:0:
246,218,221132,1,0,0:0:0:0:
314,96,221243,1,0,0:0:0:0:
404,203,221354,1,0,0:0:0:0:
84,255,221576,6,0,L|110:215,1,40
400,27,222021,6,0,L|367:72,1,40
114,57,222465,5,0,0:0:0:0:
114,57,222521,1,0,0:0:0:0:
114,57,222576,1,0,0:0:0:0:
207,133,222687,1,0,0:0:0:0:
98,217,222798,1,0,0:0:0:0:
395,276,223132,5,0,0:0:0:0:
395,276,223187,1,0,0:0:0:0:
395,276,223243,1,0,0:0:0:0:
210,134,223354,2,0,P|202:184|208:228,1,80
204,213,223521,1,0,0:0:0:0:
204,213,223576,1,0,0:0:0:0:
294,294,223687,1,0,0:0:0:0:
311,168,223798,1,0,0:0:0:0:
383,234,223910,1,0,0:0:0:0:
223,310,224021,1,0,0:0:0:0:
126,220,224132,1,0,0:0:0:0:
168,93,224243,5,0,0:0:0:0:
168,93,224298,1,0,0:0:0:0:
168,93,224354,1,0,0:0:0:0:
281,131,224465,1,0,0:0:0:0:
283,230,224576,5,0,0:0:0:0:
283,230,224632,1,0,0:0:0:0:
283,230,224687,1,0,0:0:0:0:
137,225,224798,1,0,0:0:0:0:
66,111,224910,1,0,0:0:0:0:
434,197,225132,6,0,L|394:173,1,40
92,326,225576,6,0,L|128:296,1,40
172,83,226021,5,0,0:0:0:0:
172,83,226076,1,0,0:0:0:0:
172,83,226132,1,0,0:0:0:0:
133,212,226243,1,0,0:0:0:0:
310,151,226354,1,0,0:0:0:0:
401,321,226687,5,0,0:0:0:0:
401,321,226743,1,0,0:0:0:0:
401,321,226798,1,0,0:0:0:0:
212,295,226910,2,0,P|225:247|255:225,1,80
247,228,227076,1,0,0:0:0:0:
247,228,227132,1,0,0:0:0:0:
412,139,227243,1,0,0:0:0:0:
280,45,227354,6,0,P|230:47|185:63,1,80
30,252,227576,2,0,P|80:228|128:224,1,80
409,317,227798,6,0,P|319:322|223:280,1,180.000006866455
224,280,228021,2,0,P|154:250|39:258,1,180.000006866455
41,250,228243,2,0,P|61:155|165:115,1,180.000006866455
137,110,228465,2,0,P|178:177|274:218,1,180.000006866455
286,220,228687,2,0,P|286:128|358:70,1,180.000006866455
368,71,228910,2,0,P|364:148|398:263,1,180.000006866455
395,260,229132,2,0,P|297:318|191:317,1,180.000006866455
223,323,229354,2,0,P|290:220|288:138,1,180.000006866455
287,141,229576,6,0,P|232:100|90:67,1,180.000006866455
113,74,229798,2,0,P|171:151|210:235,1,180.000006866455
203,250,230021,2,0,P|111:198|59:119,1,180.000006866455
68,121,230243,2,0,P|185:99|276:105,1,180.000006866455
261,110,230465,2,0,B|321:142|365:229|454:160,1,180.000006866455
432,182,230687,2,0,P|442:262|370:348,1,180.000006866455
361,334,230910,2,0,P|294:297|177:280,1,180.000006866455
180,276,231132,2,0,P|133:228|193:125,1,180.000006866455
184,133,231354,6,0,P|260:198|350:223,1,180.000006866455
350,223,231576,2,0,P|354:144|296:53,1,180.000006866455
295,54,231798,2,0,P|262:113|242:254,1,180.000006866455
237,243,232021,2,0,P|181:215|150:84,1,180.000006866455
152,97,232243,2,0,P|241:142|361:137,1,180.000006866455
339,146,232465,2,0,P|328:239|396:318,1,180.000006866455
397,312,232687,2,0,P|403:231|452:128,1,180.000006866455
446,129,232910,2,0,P|350:115|265:157,1,180.000006866455
266,161,233132,6,0,P|224:216|101:186,1,180.000006866455
106,193,233354,2,0,P|73:270|148:361,1,180.000006866455
137,349,233576,2,0,P|178:255|177:156,1,180.000006866455
181,162,233798,2,0,P|227:206|370:279,1,180.000006866455
342,277,234021,2,0,P|241:300|137:268,1,180.000006866455
153,271,234243,2,0,P|234:235|294:155,1,180.000006866455
300,149,234465,2,0,P|366:166|488:126,1,180.000006866455
476,127,234687,2,0,P|428:78|296:59,1,180.000006866455
306,58,234910,6,0,L|305:251,1,180.000006866455
303,252,235132,2,0,P|252:198|148:145,1,180.000006866455
145,146,235354,2,0,P|150:220|186:336,1,180.000006866455
188,336,235576,2,0,P|221:267|290:162,1,180.000006866455
290,162,235798,2,0,P|356:161|466:248,1,180.000006866455
458,237,236021,2,0,P|391:261|261:267,1,180.000006866455
268,264,236243,2,0,P|286:156|252:83,1,180.000006866455
252,83,236465,2,0,P|197:136|192:249,1,180.000006866455
192,255,236687,6,0,B|115:246|89:235|36:135,1,180.000006866455
44,131,236910,2,0,P|132:99|250:151,1,180.000006866455
225,131,237132,2,0,P|131:191|96:282,1,180.000006866455
96,282,237354,2,0,P|96:168|58:99,1,180.000006866455
61,98,237576,2,0,P|117:69|257:76,1,180.000006866455
248,77,237798,2,0,P|330:86|439:185,1,180.000006866455
414,158,238021,2,0,P|352:193|297:290,1,180.000006866455
299,299,238243,2,0,P|375:277|485:267,1,180.000006866455
495,262,238465,6,0,P|490:189|420:89,1,180.000006866455
419,89,238687,2,0,P|352:123|244:211,1,180.000006866455
255,246,238910,1,0,0:0:0:0:
235,302,238965,1,0,0:0:0:0:
188,340,239021,1,0,0:0:0:0:
128,346,239076,1,0,0:0:0:0:
154,291,239132,5,0,0:0:0:0:
158,231,239187,1,0,0:0:0:0:
147,171,239243,1,0,0:0:0:0:
118,119,239298,1,0,0:0:0:0:
90,73,239354,2,0,P|140:40|258:52,1,180.000006866455
237,101,239576,5,0,0:0:0:0:
206,146,239632,1,0,0:0:0:0:
164,179,239687,1,0,0:0:0:0:
118,209,239743,1,0,0:0:0:0:
74,239,239798,2,0,P|52:307|157:357,1,180.000006866455
150,360,240021,2,0,P|197:297|277:224,1,180.000006866455
288,231,240243,6,0,P|313:298|416:337,1,180.000006866455
431,333,240465,2,0,L|433:228,1,60.0000022888184
435,225,240576,2,0,P|448:153|380:69,1,180.000006866455
366,73,240798,2,0,P|295:76|262:48,1,60.0000022888184
268,66,240910,2,0,P|182:53|90:111,1,180.000006866455
83,129,241132,6,0,L|83:208,1,60.0000022888184
83,229,241243,2,0,P|100:302|212:323,1,180.000006866455
215,302,241465,2,0,P|248:235|277:215,1,60.0000022888184
265,220,241576,2,0,P|377:208|409:142,1,180.000006866455
408,127,241798,2,0,P|363:60|200:95,1,240.000009155274
414,97,251602,5,0,0:0:0:0:
27,138,253380,5,0,0:0:0:0:
66,322,255158,5,0,0:0:0:0:
405,284,256713,5,0,0:0:0:0:
289,217,256824,1,0,0:0:0:0:
288,75,256936,6,0,L|151:75,1,120
106,76,257158,2,0,L|106:200,1,120
111,258,257380,2,0,L|240:259,1,120
292,256,257602,2,0,L|292:111,1,120
290,73,257824,2,0,L|419:73,1,120
478,74,258047,1,0,0:0:0:0:
481,258,258158,1,0,0:0:0:0:
471,290,258213,1,0,0:0:0:0:
458,323,258269,6,0,P|388:343|290:221,1,240
290,139,258713,1,0,0:0:0:0:
269,54,258824,1,0,0:0:0:0:
205,113,258936,1,0,0:0:0:0:
228,195,259047,1,0,0:0:0:0:
145,172,259158,2,0,L|74:124,1,80
351,329,259602,2,0,L|423:375,1,80
458,87,259936,2,0,L|380:49,1,80
206,53,260269,5,0,0:0:0:0:
197,61,260324,1,0,0:0:0:0:
188,70,260380,1,0,0:0:0:0:
180,79,260436,1,0,0:0:0:0:
172,88,260491,1,0,0:0:0:0:
117,149,260602,5,0,0:0:0:0:
183,193,260713,1,0,0:0:0:0:
108,231,260824,1,0,0:0:0:0:
185,277,260935,2,0,L|275:251,1,80
478,91,261380,2,0,L|399:77,1,80
32,131,261713,2,0,B|30:128|34:132|117:178,1,80
376,231,262047,5,0,0:0:0:0:
249,59,262158,1,0,0:0:0:0:
241,66,262213,1,0,0:0:0:0:
233,73,262269,1,0,0:0:0:0:
162,117,262380,1,0,0:0:0:0:
232,158,262491,1,0,0:0:0:0:
175,208,262602,1,0,0:0:0:0:
462,60,262713,2,0,L|386:92,1,80
66,329,263158,2,0,L|166:281,1,80
472,286,263491,2,0,L|364:270,1,80
113,102,263824,5,0,0:0:0:0:
124,99,263880,1,0,0:0:0:0:
136,97,263936,1,0,0:0:0:0:
147,98,263991,1,0,0:0:0:0:
158,99,264047,1,0,0:0:0:0:
234,114,264158,5,0,0:0:0:0:
195,181,264269,1,0,0:0:0:0:
276,184,264380,1,0,0:0:0:0:
316,113,264491,2,0,L|419:91,1,80
375,313,264936,5,0,0:0:0:0:
59,257,265047,1,0,0:0:0:0:
330,177,265158,1,0,0:0:0:0:
164,349,265269,1,0,0:0:0:0:
152,136,265380,1,0,0:0:0:0:
308,342,265491,1,0,0:0:0:0:
65,257,265602,1,0,0:0:0:0:
330,177,265713,1,0,0:0:0:0:
168,316,265824,5,0,0:0:0:0:
171,307,265880,1,0,0:0:0:0:
174,297,265936,1,0,0:0:0:0:
176,289,265991,1,0,0:0:0:0:
180,282,266047,1,0,0:0:0:0:
189,277,266102,1,0,0:0:0:0:
198,272,266158,1,0,0:0:0:0:
207,266,266213,1,0,0:0:0:0:
213,258,266269,5,0,0:0:0:0:
217,252,266324,1,0,0:0:0:0:
220,246,266380,1,0,0:0:0:0:
222,240,266436,1,0,0:0:0:0:
225,234,266491,1,0,0:0:0:0:
225,226,266547,1,0,0:0:0:0:
225,219,266602,1,0,0:0:0:0:
221,212,266658,1,0,0:0:0:0:
217,206,266713,5,0,0:0:0:0:
214,201,266769,1,0,0:0:0:0:
210,197,266824,1,0,0:0:0:0:
205,193,266880,1,0,0:0:0:0:
201,189,266936,1,0,0:0:0:0:
197,184,266991,1,0,0:0:0:0:
197,177,267047,1,0,0:0:0:0:
201,171,267102,1,0,0:0:0:0:
206,166,267158,5,0,0:0:0:0:
215,166,267213,1,0,0:0:0:0:
221,168,267269,1,0,0:0:0:0:
228,173,267324,1,0,0:0:0:0:
234,181,267380,1,0,0:0:0:0:
238,189,267436,1,0,0:0:0:0:
239,198,267491,1,0,0:0:0:0:
239,206,267547,1,0,0:0:0:0:
237,216,267602,5,0,0:0:0:0:
231,222,267658,1,0,0:0:0:0:
223,224,267713,1,0,0:0:0:0:
214,228,267769,1,0,0:0:0:0:
205,224,267824,1,0,0:0:0:0:
198,219,267880,1,0,0:0:0:0:
192,215,267936,1,0,0:0:0:0:
185,211,267991,1,0,0:0:0:0:
181,204,268047,5,0,0:0:0:0:
175,196,268102,1,0,0:0:0:0:
170,188,268158,1,0,0:0:0:0:
166,181,268213,1,0,0:0:0:0:
164,173,268269,1,0,0:0:0:0:
162,163,268324,1,0,0:0:0:0:
164,154,268380,1,0,0:0:0:0:
169,146,268436,1,0,0:0:0:0:
172,140,268491,5,0,0:0:0:0:
177,135,268547,1,0,0:0:0:0:
183,132,268602,1,0,0:0:0:0:
188,129,268658,1,0,0:0:0:0:
193,128,268713,1,0,0:0:0:0:
200,126,268769,1,0,0:0:0:0:
205,126,268824,1,0,0:0:0:0:
212,124,268880,1,0,0:0:0:0:
215,120,268936,5,0,0:0:0:0:
220,114,268991,1,0,0:0:0:0:
224,107,269047,1,0,0:0:0:0:
229,102,269102,1,0,0:0:0:0:
231,98,269158,1,0,0:0:0:0:
237,95,269213,1,0,0:0:0:0:
242,92,269269,1,0,0:0:0:0:
250,92,269324,1,0,0:0:0:0:
258,93,269380,5,0,0:0:0:0:
266,98,269436,1,0,0:0:0:0:
274,104,269491,1,0,0:0:0:0:
276,113,269547,1,0,0:0:0:0:
277,120,269602,1,0,0:0:0:0:
278,128,269658,1,0,0:0:0:0:
279,138,269713,1,0,0:0:0:0:
281,148,269769,1,0,0:0:0:0:
286,154,269824,5,0,0:0:0:0:
289,161,269880,1,0,0:0:0:0:
291,169,269936,1,0,0:0:0:0:
292,177,269991,1,0,0:0:0:0:
289,187,270047,1,0,0:0:0:0:
286,195,270102,1,0,0:0:0:0:
282,201,270158,1,0,0:0:0:0:
277,208,270213,1,0,0:0:0:0:
274,215,270269,5,0,0:0:0:0:
274,225,270324,1,0,0:0:0:0:
278,235,270380,1,0,0:0:0:0:
288,235,270436,1,0,0:0:0:0:
294,229,270491,1,0,0:0:0:0:
297,222,270547,1,0,0:0:0:0:
299,215,270602,1,0,0:0:0:0:
303,208,270658,1,0,0:0:0:0:
308,202,270713,5,0,0:0:0:0:
315,194,270769,1,0,0:0:0:0:
323,191,270824,1,0,0:0:0:0:
332,189,270880,1,0,0:0:0:0:
341,190,270936,1,0,0:0:0:0:
350,191,270991,1,0,0:0:0:0:
360,189,271047,1,0,0:0:0:0:
368,186,271102,1,0,0:0:0:0:
375,177,271158,5,0,0:0:0:0:
379,170,271213,1,0,0:0:0:0:
379,160,271269,1,0,0:0:0:0:
377,150,271324,1,0,0:0:0:0:
372,142,271380,1,0,0:0:0:0:
367,133,271436,1,0,0:0:0:0:
361,124,271491,1,0,0:0:0:0:
354,117,271547,1,0,0:0:0:0:
346,110,271602,5,0,0:0:0:0:
334,107,271658,1,0,0:0:0:0:
325,107,271713,1,0,0:0:0:0:
317,108,271769,1,0,0:0:0:0:
310,113,271824,1,0,0:0:0:0:
303,120,271880,1,0,0:0:0:0:
301,128,271936,1,0,0:0:0:0:
297,136,271991,1,0,0:0:0:0:
287,159,272047,5,0,0:0:0:0:
217,331,272158,1,0,0:0:0:0:
120,210,272269,1,0,0:0:0:0:
114,196,272324,1,0,0:0:0:0:
110,183,272380,1,0,0:0:0:0:
109,167,272436,1,0,0:0:0:0:
112,153,272491,5,0,0:0:0:0:
312,48,272602,1,0,0:0:0:0:
212,240,272713,1,0,0:0:0:0:
445,115,272824,1,0,0:0:0:0:
175,68,272936,6,0,L|233:124,1,80
286,176,273158,1,0,0:0:0:0:
312,104,273269,1,0,0:0:0:0:
361,166,273380,1,0,0:0:0:0:
328,238,273491,1,0,0:0:0:0:
328,238,273602,1,0,0:0:0:0:
170,269,273713,1,0,0:0:0:0:
170,269,273824,6,0,L|168:165,1,80
172,48,274047,1,0,0:0:0:0:
172,48,274158,2,0,L|112:118,1,80
75,201,274380,1,0,0:0:0:0:
163,268,274491,1,0,0:0:0:0:
296,258,274602,1,0,0:0:0:0:
425,205,274713,6,0,L|385:98,1,80
361,54,274936,1,0,0:0:0:0:
319,126,275047,1,0,0:0:0:0:
280,49,275158,1,0,0:0:0:0:
230,125,275269,1,0,0:0:0:0:
279,200,275380,1,0,0:0:0:0:
383,320,275491,1,0,0:0:0:0:
383,320,275602,6,0,L|268:319,1,80
148,318,275824,1,0,0:0:0:0:
148,318,275936,2,0,L|105:240,1,80
49,151,276158,1,0,0:0:0:0:
116,71,276269,1,0,0:0:0:0:
192,156,276380,1,0,0:0:0:0:
263,60,276491,6,0,L|346:83,1,80
410,98,276713,1,0,0:0:0:0:
470,155,276824,1,0,0:0:0:0:
389,168,276935,1,0,0:0:0:0:
441,229,277047,1,0,0:0:0:0:
361,241,277158,1,0,0:0:0:0:
190,271,277269,1,0,0:0:0:0:
190,271,277380,6,0,L|116:181,1,80
30,87,277602,1,0,0:0:0:0:
30,87,277713,2,0,L|136:87,1,80
254,88,277935,1,0,0:0:0:0:
390,118,278047,1,0,0:0:0:0:
450,233,278158,1,0,0:0:0:0:
403,354,278269,6,0,L|315:333,1,80
249,311,278491,1,0,0:0:0:0:
170,280,278602,1,0,0:0:0:0:
234,235,278713,1,0,0:0:0:0:
183,353,278824,1,0,0:0:0:0:
105,328,278935,1,0,0:0:0:0:
35,161,279047,1,0,0:0:0:0:
35,161,279158,6,0,L|122:121,1,80
272,50,279380,1,0,0:0:0:0:
282,53,279435,1,0,0:0:0:0:
291,58,279491,1,0,0:0:0:0:
299,64,279547,1,0,0:0:0:0:
306,72,279602,2,0,L|385:132,1,80
494,237,279824,1,0,0:0:0:0:
314,188,279935,1,0,0:0:0:0:
142,160,280047,1,0,0:0:0:0:
137,166,280102,5,0,0:0:0:0:
136,176,280158,1,0,0:0:0:0:
137,186,280213,1,0,0:0:0:0:
142,194,280269,1,0,0:0:0:0:
151,202,280324,1,0,0:0:0:0:
163,208,280380,1,0,0:0:0:0:
172,219,280435,1,0,0:0:0:0:
175,231,280491,5,0,0:0:0:0:
183,240,280547,1,0,0:0:0:0:
195,247,280602,1,0,0:0:0:0:
206,257,280658,1,0,0:0:0:0:
219,262,280713,1,0,0:0:0:0:
233,266,280769,1,0,0:0:0:0:
245,268,280824,1,0,0:0:0:0:
255,271,280880,1,0,0:0:0:0:
265,272,280935,5,0,0:0:0:0:
276,268,280991,1,0,0:0:0:0:
288,262,281047,1,0,0:0:0:0:
298,258,281102,1,0,0:0:0:0:
308,257,281158,1,0,0:0:0:0:
318,256,281213,1,0,0:0:0:0:
328,256,281269,1,0,0:0:0:0:
340,253,281324,1,0,0:0:0:0:
351,248,281380,5,0,0:0:0:0:
359,240,281435,1,0,0:0:0:0:
364,229,281491,1,0,0:0:0:0:
366,218,281547,1,0,0:0:0:0:
368,205,281602,1,0,0:0:0:0:
366,194,281658,1,0,0:0:0:0:
359,184,281713,1,0,0:0:0:0:
358,173,281769,1,0,0:0:0:0:
359,162,281824,5,0,0:0:0:0:
354,151,281880,1,0,0:0:0:0:
350,142,281935,1,0,0:0:0:0:
342,135,281991,1,0,0:0:0:0:
332,129,282047,1,0,0:0:0:0:
321,129,282102,1,0,0:0:0:0:
317,138,282158,1,0,0:0:0:0:
317,149,282213,1,0,0:0:0:0:
325,157,282269,5,0,0:0:0:0:
335,162,282324,1,0,0:0:0:0:
345,162,282380,1,0,0:0:0:0:
352,154,282435,1,0,0:0:0:0:
353,142,282491,1,0,0:0:0:0:
345,129,282547,1,0,0:0:0:0:
336,118,282602,1,0,0:0:0:0:
326,112,282658,1,0,0:0:0:0:
314,108,282713,5,0,0:0:0:0:
302,107,282769,1,0,0:0:0:0:
290,108,282824,1,0,0:0:0:0:
279,110,282880,1,0,0:0:0:0:
268,116,282935,1,0,0:0:0:0:
261,124,282991,1,0,0:0:0:0:
255,135,283047,1,0,0:0:0:0:
246,142,283102,1,0,0:0:0:0:
236,148,283158,5,0,0:0:0:0:
225,155,283213,1,0,0:0:0:0:
215,162,283269,1,0,0:0:0:0:
205,168,283324,1,0,0:0:0:0:
195,172,283380,1,0,0:0:0:0:
185,176,283435,1,0,0:0:0:0:
174,177,283491,1,0,0:0:0:0:
164,173,283547,1,0,0:0:0:0:
155,163,283602,5,0,0:0:0:0:
152,154,283658,1,0,0:0:0:0:
150,142,283713,1,0,0:0:0:0:
152,129,283769,1,0,0:0:0:0:
157,119,283824,1,0,0:0:0:0:
164,110,283880,1,0,0:0:0:0:
174,103,283935,1,0,0:0:0:0:
185,101,283991,1,0,0:0:0:0:
197,98,284047,5,0,0:0:0:0:
210,96,284102,1,0,0:0:0:0:
222,91,284158,1,0,0:0:0:0:
232,86,284213,1,0,0:0:0:0:
241,79,284269,1,0,0:0:0:0:
250,75,284324,1,0,0:0:0:0:
258,70,284380,1,0,0:0:0:0:
267,66,284435,1,0,0:0:0:0:
279,65,284491,5,0,0:0:0:0:
288,68,284547,1,0,0:0:0:0:
300,71,284602,1,0,0:0:0:0:
308,79,284658,1,0,0:0:0:0:
313,90,284713,1,0,0:0:0:0:
316,100,284769,1,0,0:0:0:0:
328,106,284824,1,0,0:0:0:0:
334,115,284880,1,0,0:0:0:0:
337,127,284935,5,0,0:0:0:0:
337,138,284991,1,0,0:0:0:0:
339,150,285047,1,0,0:0:0:0:
337,160,285102,1,0,0:0:0:0:
339,172,285158,1,0,0:0:0:0:
337,186,285213,1,0,0:0:0:0:
332,197,285269,1,0,0:0:0:0:
327,206,285324,1,0,0:0:0:0:
323,214,285380,5,0,0:0:0:0:
319,222,285435,1,0,0:0:0:0:
313,229,285491,1,0,0:0:0:0:
307,239,285547,1,0,0:0:0:0:
300,244,285602,1,0,0:0:0:0:
294,253,285658,1,0,0:0:0:0:
287,262,285713,1,0,0:0:0:0:
280,270,285769,1,0,0:0:0:0:
273,277,285824,5,0,0:0:0:0:
263,282,285880,1,0,0:0:0:0:
250,282,285935,1,0,0:0:0:0:
239,275,285991,1,0,0:0:0:0:
231,269,286047,1,0,0:0:0:0:
230,259,286102,1,0,0:0:0:0:
234,250,286158,1,0,0:0:0:0:
237,240,286213,1,0,0:0:0:0:
273,260,286269,5,0,0:0:0:0:
273,260,286324,1,0,0:0:0:0:
273,260,286380,1,0,0:0:0:0:
273,260,286435,1,0,0:0:0:0:
273,260,286491,1,0,0:0:0:0:
273,260,286547,1,0,0:0:0:0:
273,260,286602,1,0,0:0:0:0:
273,260,286658,1,0,0:0:0:0:
273,260,286713,5,0,0:0:0:0:
280,270,286824,2,0,L|310:167,1,80
345,47,287047,1,0,0:0:0:0:
191,57,287158,5,0,0:0:0:0:
225,336,287269,1,0,0:0:0:0:
270,64,287380,5,0,0:0:0:0:
205,335,287491,1,0,0:0:0:0:
215,60,287602,5,0,0:0:0:0:
243,338,287713,1,0,0:0:0:0:
162,55,287824,5,0,0:0:0:0:
233,335,287935,1,0,0:0:0:0:
244,58,288047,5,0,0:0:0:0:
186,337,288158,1,0,0:0:0:0:
194,56,288269,5,0,0:0:0:0:
250,341,288380,1,0,0:0:0:0:
266,56,288491,5,0,0:0:0:0:
289,340,288602,1,0,0:0:0:0:
204,53,288713,5,0,0:0:0:0:
244,340,288824,1,0,0:0:0:0:
250,55,288935,5,0,0:0:0:0:
191,341,289047,1,0,0:0:0:0:
185,55,289158,5,0,0:0:0:0:
250,341,289269,1,0,0:0:0:0:
234,57,289380,5,0,0:0:0:0:
173,341,289491,1,0,0:0:0:0:
208,58,289602,5,0,0:0:0:0:
223,342,289713,1,0,0:0:0:0:
359,330,289824,6,0,P|414:298|424:281,1,80
428,276,290102,1,0,0:0:0:0:
432,267,290158,1,0,0:0:0:0:
434,257,290213,1,0,0:0:0:0:
435,246,290269,1,0,0:0:0:0:
128,143,290713,5,0,0:0:0:0:
407,164,290824,1,0,0:0:0:0:
136,225,290935,5,0,0:0:0:0:
402,122,291047,1,0,0:0:0:0:
131,173,291158,5,0,0:0:0:0:
398,220,291269,1,0,0:0:0:0:
135,203,291380,5,0,0:0:0:0:
403,142,291491,1,0,0:0:0:0:
130,133,291602,5,0,0:0:0:0:
401,191,291713,1,0,0:0:0:0:
151,80,291824,5,0,0:0:0:0:
370,276,291935,1,0,0:0:0:0:
179,51,292047,5,0,0:0:0:0:
317,299,292158,1,0,0:0:0:0:
305,47,292269,5,0,0:0:0:0:
237,310,292380,1,0,0:0:0:0:
269,40,292491,5,0,0:0:0:0:
291,316,292602,1,0,0:0:0:0:
369,82,292713,5,0,0:0:0:0:
185,264,292824,1,0,0:0:0:0:
414,121,292935,5,0,0:0:0:0:
131,207,293047,1,0,0:0:0:0:
432,188,293158,5,0,0:0:0:0:
124,154,293269,1,0,0:0:0:0:
157,37,293380,6,0,P|208:79|218:97,1,80
219,102,293658,1,0,0:0:0:0:
222,114,293713,1,0,0:0:0:0:
225,125,293769,1,0,0:0:0:0:
258,150,293824,5,0,0:0:0:0:
266,142,293880,1,0,0:0:0:0:
274,133,293935,1,0,0:0:0:0:
284,124,293991,1,0,0:0:0:0:
317,138,294047,5,0,0:0:0:0:
317,150,294102,1,0,0:0:0:0:
317,163,294158,1,0,0:0:0:0:
316,172,294213,1,0,0:0:0:0:
319,180,294269,6,0,P|309:250|297:288,1,80
112,324,294491,2,0,P|132:266|161:234,1,80
254,82,294713,5,0,0:0:0:0:
254,82,294824,1,0,0:0:0:0:
415,212,294935,5,0,0:0:0:0:
415,212,295047,1,0,0:0:0:0:
180,249,295158,5,0,0:0:0:0:
180,249,295269,1,0,0:0:0:0:
366,98,295380,5,0,0:0:0:0:
366,98,295491,1,0,0:0:0:0:
299,288,295602,5,0,0:0:0:0:
299,288,295713,1,0,0:0:0:0:
186,113,295824,5,0,0:0:0:0:
186,113,295935,1,0,0:0:0:0:
410,197,296047,5,0,0:0:0:0:
410,197,296158,1,0,0:0:0:0:
271,38,296269,5,0,0:0:0:0:
271,38,296380,1,0,0:0:0:0:
202,238,296491,5,0,0:0:0:0:
202,238,296602,1,0,0:0:0:0:
387,93,296713,5,0,0:0:0:0:
387,93,296824,1,0,0:0:0:0:
387,93,296935,1,0,0:0:0:0:
33,298,297380,5,0,0:0:0:0:
353,315,297824,5,0,0:0:0:0:
377,292,297880,1,0,0:0:0:0:
402,259,297935,1,0,0:0:0:0:
415,228,297991,1,0,0:0:0:0:
422,193,298047,5,0,0:0:0:0:
423,153,298102,1,0,0:0:0:0:
417,122,298158,1,0,0:0:0:0:
400,91,298213,1,0,0:0:0:0:
365,66,298269,5,0,0:0:0:0:
331,62,298324,1,0,0:0:0:0:
296,90,298380,1,0,0:0:0:0:
290,131,298435,1,0,0:0:0:0:
287,173,298491,5,0,0:0:0:0:
283,220,298547,1,0,0:0:0:0:
278,265,298602,1,0,0:0:0:0:
268,311,298658,1,0,0:0:0:0:
230,326,298713,5,0,0:0:0:0:
205,282,298769,1,0,0:0:0:0:
238,241,298824,1,0,0:0:0:0:
278,224,298880,1,0,0:0:0:0:
325,208,298935,5,0,0:0:0:0:
363,178,298991,1,0,0:0:0:0:
382,134,299047,1,0,0:0:0:0:
370,90,299102,1,0,0:0:0:0:
331,62,299158,5,0,0:0:0:0:
285,56,299213,1,0,0:0:0:0:
237,66,299269,1,0,0:0:0:0:
193,82,299324,1,0,0:0:0:0:
159,111,299380,5,0,0:0:0:0:
125,140,299435,1,0,0:0:0:0:
92,175,299491,1,0,0:0:0:0:
76,220,299547,1,0,0:0:0:0:
71,265,299602,5,0,0:0:0:0:
94,306,299658,1,0,0:0:0:0:
139,329,299713,1,0,0:0:0:0:
188,334,299769,1,0,0:0:0:0:
237,327,299824,5,0,0:0:0:0:
281,304,299880,1,0,0:0:0:0:
278,259,299935,1,0,0:0:0:0:
235,257,299991,1,0,0:0:0:0:
198,285,300047,5,0,0:0:0:0:
153,276,300102,1,0,0:0:0:0:
131,233,300158,1,0,0:0:0:0:
156,191,300213,1,0,0:0:0:0:
185,152,300269,6,0,B|252:108|252:108|345:89,1,160
473,264,300935,2,0,B|414:295|414:295|316:298,1,160
314,298,301213,1,0,0:0:0:0:
303,299,301269,1,0,0:0:0:0:
294,299,301324,1,0,0:0:0:0:
286,299,301380,1,0,0:0:0:0:
26,77,301824,5,0,0:0:0:0:
26,77,302269,5,0,0:0:0:0:
459,98,302713,5,0,0:0:0:0:
456,115,302824,1,0,0:0:0:0:
374,133,302935,5,0,0:0:0:0:
366,148,303047,1,0,0:0:0:0:
271,160,303158,5,0,0:0:0:0:
253,184,303269,1,0,0:0:0:0:
234,208,303380,1,0,0:0:0:0:
221,233,303491,1,0,0:0:0:0:
52,128,303824,5,0,0:0:0:0:
52,128,303935,1,0,0:0:0:0:
67,158,304047,1,0,0:0:0:0:
79,186,304158,1,0,0:0:0:0:
258,317,304491,5,0,0:0:0:0:
288,309,304602,1,0,0:0:0:0:
316,294,304713,1,0,0:0:0:0:
381,143,304935,5,0,0:0:0:0:
362,152,305047,1,0,0:0:0:0:
330,200,305158,5,0,0:0:0:0:
315,209,305269,1,0,0:0:0:0:
64,305,305602,5,0,0:0:0:0:
86,284,305713,1,0,0:0:0:0:
104,258,305824,1,0,0:0:0:0:
119,229,305935,1,0,0:0:0:0:
136,202,306047,5,0,0:0:0:0:
159,180,306158,1,0,0:0:0:0:
188,159,306269,1,0,0:0:0:0:
218,148,306380,1,0,0:0:0:0:
251,143,306491,1,0,0:0:0:0:
290,144,306602,1,0,0:0:0:0:
421,291,306713,5,0,0:0:0:0:
392,306,306824,1,0,0:0:0:0:
361,317,306935,1,0,0:0:0:0:
327,327,307047,1,0,0:0:0:0:
39,309,307380,5,0,0:0:0:0:
39,309,307491,1,0,0:0:0:0:
70,286,307602,1,0,0:0:0:0:
106,268,307713,1,0,0:0:0:0:
275,39,308047,5,0,0:0:0:0:
253,64,308158,1,0,0:0:0:0:
233,90,308269,2,0,P|232:82|212:108,1,80
208,126,308491,1,0,0:0:0:0:
188,159,308602,1,0,0:0:0:0:
175,194,308713,1,0,0:0:0:0:
332,324,309158,5,0,0:0:0:0:
332,324,309269,1,0,0:0:0:0:
361,291,309380,5,0,0:0:0:0:
361,291,309491,1,0,0:0:0:0:
383,259,309602,5,0,0:0:0:0:
383,259,309713,1,0,0:0:0:0:
400,221,309824,5,0,0:0:0:0:
400,221,309935,1,0,0:0:0:0:
400,221,310047,1,0,0:0:0:0:
228,47,310269,5,0,0:0:0:0:
200,63,310380,1,0,0:0:0:0:
173,91,310491,1,0,0:0:0:0:
152,122,310602,1,0,0:0:0:0:
68,301,310935,5,0,0:0:0:0:
94,276,311047,1,0,0:0:0:0:
129,263,311158,1,0,0:0:0:0:
162,261,311269,1,0,0:0:0:0:
386,277,311602,5,0,0:0:0:0:
417,260,311713,1,0,0:0:0:0:
439,226,311824,1,0,0:0:0:0:
442,191,311935,1,0,0:0:0:0:
353,78,312047,5,0,0:0:0:0:
340,109,312158,1,0,0:0:0:0:
331,148,312269,1,0,0:0:0:0:
334,180,312380,1,0,0:0:0:0:
287,313,312713,5,0,0:0:0:0:
287,313,312824,1,0,0:0:0:0:
249,333,312935,1,0,0:0:0:0:
249,333,313047,1,0,0:0:0:0:
212,342,313158,1,0,0:0:0:0:
212,342,313269,1,0,0:0:0:0:
170,340,313380,5,0,0:0:0:0:
132,320,313491,1,0,0:0:0:0:
108,285,313602,1,0,0:0:0:0:
97,244,313713,1,0,0:0:0:0:
154,87,313824,5,0,0:0:0:0:
176,119,313935,1,0,0:0:0:0:
209,149,314047,1,0,0:0:0:0:
242,165,314158,1,0,0:0:0:0:
350,240,314491,5,0,0:0:0:0:
334,271,314602,1,0,0:0:0:0:
300,297,314713,1,0,0:0:0:0:
265,309,314824,1,0,0:0:0:0:
25,262,315158,5,0,0:0:0:0:
48,229,315269,1,0,0:0:0:0:
89,199,315380,2,0,P|87:196|146:173,1,80
154,121,315602,2,0,P|189:87|239:83,1,80
389,108,315824,6,0,L|426:58,2,40
383,252,316047,2,0,L|415:293,2,40
217,264,316269,2,0,L|215:340,2,40
215,62,316491,5,0,0:0:0:0:
215,62,316602,1,0,0:0:0:0:
66,217,316713,5,0,0:0:0:0:
66,217,316824,1,0,0:0:0:0:
305,224,316935,5,0,0:0:0:0:
305,224,317047,1,0,0:0:0:0:
64,55,317158,5,0,0:0:0:0:
64,55,317269,1,0,0:0:0:0:
150,269,317380,5,0,0:0:0:0:
150,269,317491,1,0,0:0:0:0:
286,102,317602,5,0,0:0:0:0:
286,102,317713,1,0,0:0:0:0:
410,300,317824,5,0,0:0:0:0:
410,300,317935,1,0,0:0:0:0:
201,170,318047,5,0,0:0:0:0:
201,170,318158,1,0,0:0:0:0:
410,300,318269,5,0,0:0:0:0:
410,300,318380,1,0,0:0:0:0:
430,66,318491,5,0,0:0:0:0:
430,66,318602,1,0,0:0:0:0:
220,55,318713,5,0,0:0:0:0:
220,55,318824,1,0,0:0:0:0:
212,320,318935,5,0,0:0:0:0:
212,320,319047,1,0,0:0:0:0:
220,55,319158,6,0,L|124:175,1,120
26,286,319380,5,0,0:0:0:0:
26,286,319435,1,0,0:0:0:0:
26,286,319491,1,0,0:0:0:0:
215,226,319602,5,0,0:0:0:0:
215,226,319658,1,0,0:0:0:0:
215,226,319713,1,0,0:0:0:0:
146,329,319824,5,0,0:0:0:0:
146,329,319880,1,0,0:0:0:0:
146,329,319935,1,0,0:0:0:0:
99,149,320047,5,0,0:0:0:0:
99,149,320158,1,0,0:0:0:0:
279,131,320269,5,0,0:0:0:0:
279,131,320380,1,0,0:0:0:0:
290,309,320491,5,0,0:0:0:0:
290,309,320602,1,0,0:0:0:0:
492,125,320713,5,0,0:0:0:0:
492,125,320824,1,0,0:0:0:0:
190,64,320935,5,0,0:0:0:0:
190,64,321047,1,0,0:0:0:0:
330,206,321158,5,0,0:0:0:0:
330,206,321269,1,0,0:0:0:0:
399,39,321380,5,0,0:0:0:0:
399,39,321491,1,0,0:0:0:0:
428,271,321602,5,0,0:0:0:0:
428,271,321713,1,0,0:0:0:0:
236,115,321824,5,0,0:0:0:0:
236,115,321935,1,0,0:0:0:0:
345,318,322047,5,0,0:0:0:0:
345,318,322158,1,0,0:0:0:0:
331,75,322269,5,0,0:0:0:0:
331,75,322380,1,0,0:0:0:0:
225,295,322491,5,0,0:0:0:0:
225,295,322602,1,0,0:0:0:0:
452,135,322713,2,0,L|366:195,1,80
68,247,322935,2,0,L|161:196,1,80
290,105,323158,5,0,0:0:0:0:
322,81,323213,1,0,0:0:0:0:
360,69,323269,1,0,0:0:0:0:
400,70,323324,1,0,0:0:0:0:
424,84,323380,5,0,0:0:0:0:
394,110,323435,1,0,0:0:0:0:
371,143,323491,1,0,0:0:0:0:
357,180,323546,1,0,0:0:0:0:
352,209,323602,2,0,P|416:222|443:245,1,80
234,305,323824,2,0,P|165:306|143:292,1,80
15,219,324047,5,0,0:0:0:0:
15,219,324158,1,0,0:0:0:0:
164,87,324269,5,0,0:0:0:0:
164,87,324380,1,0,0:0:0:0:
256,223,324491,5,0,0:0:0:0:
256,223,324602,1,0,0:0:0:0:
439,97,324713,5,0,0:0:0:0:
439,97,324824,1,0,0:0:0:0:
417,303,324935,5,0,0:0:0:0:
417,303,325047,1,0,0:0:0:0:
291,78,325158,5,0,0:0:0:0:
291,78,325269,1,0,0:0:0:0:
203,300,325380,5,0,0:0:0:0:
203,300,325491,1,0,0:0:0:0:
97,80,325602,5,0,0:0:0:0:
97,80,325713,1,0,0:0:0:0:
58,293,325824,5,0,0:0:0:0:
58,293,325935,1,0,0:0:0:0:
181,84,326047,5,0,0:0:0:0:
181,84,326158,1,0,0:0:0:0:
16,233,326269,6,0,P|69:213|117:202,1,80
272,189,326491,2,0,P|353:180|361:180,1,80
508,253,326713,5,0,0:0:0:0:
486,286,326768,1,0,0:0:0:0:
455,311,326824,1,0,0:0:0:0:
417,323,326879,1,0,0:0:0:0:
374,321,326935,5,0,0:0:0:0:
335,310,326990,1,0,0:0:0:0:
298,295,327046,1,0,0:0:0:0:
264,274,327101,1,0,0:0:0:0:
233,249,327157,1,0,0:0:0:0:
212,233,327158,6,0,L|130:161,1,80
264,36,327380,2,0,L|335:100,1,80
450,197,327602,5,0,0:0:0:0:
450,197,327713,1,0,0:0:0:0:
254,122,327824,5,0,0:0:0:0:
254,122,327935,1,0,0:0:0:0:
456,46,328047,5,0,0:0:0:0:
456,46,328158,1,0,0:0:0:0:
278,257,328269,5,0,0:0:0:0:
278,257,328380,1,0,0:0:0:0:
114,83,328491,5,0,0:0:0:0:
114,83,328602,1,0,0:0:0:0:
146,283,328713,5,0,0:0:0:0:
146,283,328824,1,0,0:0:0:0:
360,74,328935,5,0,0:0:0:0:
360,74,329047,1,0,0:0:0:0:
377,262,329158,5,0,0:0:0:0:
377,262,329213,1,0,0:0:0:0:
377,262,329269,1,0,0:0:0:0:
388,265,329324,1,0,0:0:0:0:
398,259,329380,5,0,0:0:0:0:
405,249,329435,1,0,0:0:0:0:
409,237,329491,1,0,0:0:0:0:
408,224,329547,1,0,0:0:0:0:
406,212,329602,5,0,0:0:0:0:
403,200,329658,1,0,0:0:0:0:
399,188,329713,1,0,0:0:0:0:
394,176,329769,1,0,0:0:0:0:
390,164,329824,1,0,0:0:0:0:
256,192,329935,12,0,331047,0:0:0:0:
67,75,331158,5,0,0:0:0:0:
87,99,331269,1,0,0:0:0:0:
216,91,331380,5,0,0:0:0:0:
243,109,331491,1,0,0:0:0:0:
390,164,331602,5,0,0:0:0:0:
376,191,331713,1,0,0:0:0:0:
356,217,331824,1,0,0:0:0:0:
330,238,331935,1,0,0:0:0:0:
135,261,332269,5,0,0:0:0:0:
135,261,332380,1,0,0:0:0:0:
152,231,332491,1,0,0:0:0:0:
185,200,332602,1,0,0:0:0:0:
366,94,332935,5,0,0:0:0:0:
403,74,333047,1,0,0:0:0:0:
449,63,333158,1,0,0:0:0:0:
427,286,333380,5,0,0:0:0:0:
391,257,333491,1,0,0:0:0:0:
347,230,333602,2,0,L|321:264,1,40
305,211,333713,1,0,0:0:0:0:
60,100,334047,5,0,0:0:0:0:
60,100,334158,1,0,0:0:0:0:
71,145,334269,1,0,0:0:0:0:
71,145,334380,1,0,0:0:0:0:
96,185,334491,1,0,0:0:0:0:
121,217,334602,1,0,0:0:0:0:
121,217,334713,5,0,0:0:0:0:
153,251,334824,1,0,0:0:0:0:
197,263,334935,1,0,0:0:0:0:
244,268,335047,1,0,0:0:0:0:
422,232,335158,5,0,0:0:0:0:
392,195,335269,1,0,0:0:0:0:
349,167,335380,1,0,0:0:0:0:
300,148,335491,1,0,0:0:0:0:
57,112,335824,5,0,0:0:0:0:
99,86,335935,1,0,0:0:0:0:
147,62,336047,1,0,0:0:0:0:
200,57,336158,1,0,0:0:0:0:
436,79,336491,5,0,0:0:0:0:
406,118,336602,1,0,0:0:0:0:
375,153,336713,2,0,P|407:189|384:198,1,80
335,184,336935,2,0,L|302:155,4,40
95,299,337602,5,0,0:0:0:0:
95,299,337713,1,0,0:0:0:0:
115,257,337824,1,0,0:0:0:0:
144,219,337935,1,0,0:0:0:0:
177,184,338047,5,0,0:0:0:0:
177,184,338158,1,0,0:0:0:0:
221,157,338269,1,0,0:0:0:0:
266,144,338380,1,0,0:0:0:0:
314,131,338491,1,0,0:0:0:0:
348,96,338602,1,0,0:0:0:0:
247,29,338713,5,0,0:0:0:0:
205,46,338824,1,0,0:0:0:0:
165,71,338935,1,0,0:0:0:0:
133,105,339047,1,0,0:0:0:0:
67,249,339380,5,0,0:0:0:0:
103,283,339491,1,0,0:0:0:0:
103,283,339602,1,0,0:0:0:0:
144,308,339713,1,0,0:0:0:0:
349,285,340047,5,0,0:0:0:0:
314,257,340158,1,0,0:0:0:0:
272,240,340269,1,0,0:0:0:0:
77,153,340491,5,0,0:0:0:0:
115,129,340602,1,0,0:0:0:0:
159,112,340713,2,0,L|209:93,1,40
443,105,341158,5,0,0:0:0:0:
443,105,341269,1,0,0:0:0:0:
410,136,341380,1,0,0:0:0:0:
410,136,341491,1,0,0:0:0:0:
373,166,341602,1,0,0:0:0:0:
373,166,341713,1,0,0:0:0:0:
338,192,341824,5,0,0:0:0:0:
298,211,341935,1,0,0:0:0:0:
255,208,342047,1,0,0:0:0:0:
212,190,342158,1,0,0:0:0:0:
102,99,342269,5,0,0:0:0:0:
145,82,342380,1,0,0:0:0:0:
190,77,342491,1,0,0:0:0:0:
233,86,342602,1,0,0:0:0:0:
420,186,342880,5,0,0:0:0:0:
411,196,342935,1,0,0:0:0:0:
401,206,342991,1,0,0:0:0:0:
390,214,343047,1,0,0:0:0:0:
379,221,343102,1,0,0:0:0:0:
364,227,343158,2,0,L|273:262,1,80
278,258,343324,5,0,0:0:0:0:
270,259,343380,1,0,0:0:0:0:
263,260,343435,1,0,0:0:0:0:
254,257,343491,1,0,0:0:0:0:
247,254,343547,1,0,0:0:0:0:
240,251,343602,5,0,0:0:0:0:
238,251,343713,1,0,0:0:0:0:
240,51,343824,2,0,P|209:79|230:99,1,80
240,51,344047,5,0,0:0:0:0:
240,51,344158,1,0,0:0:0:0:
112,126,344269,5,0,0:0:0:0:
289,279,344380,1,0,0:0:0:0:
241,72,344491,1,0,0:0:0:0:
102,255,344602,1,0,0:0:0:0:
323,166,344713,1,0,0:0:0:0:
134,57,344824,1,0,0:0:0:0:
224,299,344935,1,0,0:0:0:0:
237,62,345047,1,0,0:0:0:0:
75,219,345158,1,0,0:0:0:0:
75,219,345269,1,0,0:0:0:0:
281,115,345380,5,0,0:0:0:0:
288,110,345435,1,0,0:0:0:0:
295,102,345491,1,0,0:0:0:0:
302,96,345547,1,0,0:0:0:0:
326,76,345602,1,0,0:0:0:0:
362,73,345658,1,0,0:0:0:0:
399,88,345713,1,0,0:0:0:0:
421,120,345769,1,0,0:0:0:0:
424,160,345824,1,0,0:0:0:0:
424,160,345935,5,0,0:0:0:0:
321,312,346047,5,0,0:0:0:0:
321,312,346158,1,0,0:0:0:0:
105,249,346269,5,0,0:0:0:0:
105,249,346380,1,0,0:0:0:0:
279,122,346491,5,0,0:0:0:0:
279,122,346602,1,0,0:0:0:0:
75,56,346713,5,0,0:0:0:0:
75,56,346824,1,0,0:0:0:0:
415,52,346935,5,0,0:0:0:0:
415,52,347047,1,0,0:0:0:0:
185,318,347158,5,0,0:0:0:0:
333,41,347380,1,0,0:0:0:0:
331,272,347602,5,0,0:0:0:0:
240,63,347713,1,0,0:0:0:0:
205,284,347824,1,0,0:0:0:0:
356,116,347935,1,0,0:0:0:0:
163,193,348047,1,0,0:0:0:0:
375,198,348158,1,0,0:0:0:0:
173,95,348269,1,0,0:0:0:0:
311,286,348380,1,0,0:0:0:0:
312,85,348491,5,0,0:0:0:0:
176,294,348602,1,0,0:0:0:0:
410,125,348713,1,0,0:0:0:0:
116,205,348824,1,0,0:0:0:0:
399,256,348935,1,0,0:0:0:0:
171,107,349047,1,0,0:0:0:0:
253,315,349158,1,0,0:0:0:0:
252,55,349269,1,0,0:0:0:0:
118,282,349380,5,0,0:0:0:0:
412,101,349491,1,0,0:0:0:0:
96,110,349602,1,0,0:0:0:0:
370,284,349713,1,0,0:0:0:0:
221,77,349824,1,0,0:0:0:0:
143,283,349935,1,0,0:0:0:0:
363,51,350047,1,0,0:0:0:0:
108,142,350158,1,0,0:0:0:0:
378,315,350269,5,0,0:0:0:0:
156,38,350380,1,0,0:0:0:0:
170,316,350491,1,0,0:0:0:0:
412,101,350602,1,0,0:0:0:0:
16,23,350713,5,0,0:0:0:0:
498,340,350935,1,0,0:0:0:0:
345,80,351158,5,0,0:0:0:0:
236,252,351269,1,0,0:0:0:0:
186,67,351380,1,0,0:0:0:0:
364,215,351491,1,0,0:0:0:0:
102,219,351602,1,0,0:0:0:0:
267,69,351713,1,0,0:0:0:0:
295,264,351824,1,0,0:0:0:0:
120,92,351935,1,0,0:0:0:0:
343,99,352047,5,0,0:0:0:0:
130,259,352158,1,0,0:0:0:0:
275,24,352269,1,0,0:0:0:0:
243,262,352380,1,0,0:0:0:0:
164,39,352491,1,0,0:0:0:0:
377,220,352602,2,0,L|309:163,1,80
175,70,352824,1,0,0:0:0:0:
243,262,352935,1,0,0:0:0:0:
45,283,353158,5,0,0:0:0:0:
45,283,353269,1,0,0:0:0:0:
248,142,353380,5,0,0:0:0:0:
248,142,353491,1,0,0:0:0:0:
425,285,353602,5,0,0:0:0:0:
425,285,353713,1,0,0:0:0:0:
246,332,353824,5,0,0:0:0:0:
246,332,353935,1,0,0:0:0:0:
448,128,354047,5,0,0:0:0:0:
448,128,354158,1,0,0:0:0:0:
438,120,354213,1,0,0:0:0:0:
429,114,354269,1,0,0:0:0:0:
415,111,354324,1,0,0:0:0:0:
392,110,354380,1,0,0:0:0:0:
375,110,354435,1,0,0:0:0:0:
360,119,354491,1,0,0:0:0:0:
341,133,354547,1,0,0:0:0:0:
328,149,354602,1,0,0:0:0:0:
316,167,354658,1,0,0:0:0:0:
300,179,354713,5,0,0:0:0:0:
192,296,354824,1,0,0:0:0:0:
190,135,354935,1,0,0:0:0:0:
309,264,355047,1,0,0:0:0:0:
97,200,355158,1,0,0:0:0:0:
320,86,355269,1,0,0:0:0:0:
253,303,355380,1,0,0:0:0:0:
102,77,355491,1,0,0:0:0:0:
113,277,355602,5,0,0:0:0:0:
368,146,355713,1,0,0:0:0:0:
82,109,355824,1,0,0:0:0:0:
340,254,355935,1,0,0:0:0:0:
201,48,356047,1,0,0:0:0:0:
210,274,356158,1,0,0:0:0:0:
314,71,356269,1,0,0:0:0:0:
342,310,356380,1,0,0:0:0:0:
123,102,356491,5,0,0:0:0:0:
414,156,356602,1,0,0:0:0:0:
111,194,356713,1,0,0:0:0:0:
387,58,356824,1,0,0:0:0:0:
184,282,356935,1,0,0:0:0:0:
260,37,357047,1,0,0:0:0:0:
268,301,357158,1,0,0:0:0:0:
160,43,357269,1,0,0:0:0:0:
409,274,357380,5,0,0:0:0:0:
79,104,357491,1,0,0:0:0:0:
462,102,357602,1,0,0:0:0:0:
462,102,357658,1,0,0:0:0:0:
462,102,357713,1,0,0:0:0:0:
161,272,357824,5,0,0:0:0:0:
340,45,357935,1,0,0:0:0:0:
376,291,358047,1,0,0:0:0:0:
191,44,358158,1,0,0:0:0:0:
9,188,358269,5,0,0:0:0:0:
43,208,358324,1,0,0:0:0:0:
80,221,358380,1,0,0:0:0:0:
120,226,358435,1,0,0:0:0:0:
160,222,358491,1,0,0:0:0:0:
198,211,358546,1,0,0:0:0:0:
233,192,358602,1,0,0:0:0:0:
261,169,358713,5,0,0:0:0:0:
296,148,358768,1,0,0:0:0:0:
333,135,358824,1,0,0:0:0:0:
373,130,358879,1,0,0:0:0:0:
413,134,358935,1,0,0:0:0:0:
451,145,358990,1,0,0:0:0:0:
486,164,359046,1,0,0:0:0:0:
321,300,359158,5,0,0:0:0:0:
133,67,359380,1,0,0:0:0:0:
384,55,359602,5,0,0:0:0:0:
357,84,359657,1,0,0:0:0:0:
330,114,359713,1,0,0:0:0:0:
102,167,359824,5,0,0:0:0:0:
141,170,359879,1,0,0:0:0:0:
181,173,359935,1,0,0:0:0:0:
441,347,360047,5,0,0:0:0:0:
424,310,360102,1,0,0:0:0:0:
400,278,360158,1,0,0:0:0:0:
370,252,360213,1,0,0:0:0:0:
336,232,360269,1,0,0:0:0:0:
298,219,360324,1,0,0:0:0:0:
258,215,360380,1,0,0:0:0:0:
210,211,360491,5,0,0:0:0:0:
173,194,360546,1,0,0:0:0:0:
141,170,360602,1,0,0:0:0:0:
115,140,360657,1,0,0:0:0:0:
95,106,360713,1,0,0:0:0:0:
82,68,360768,1,0,0:0:0:0:
78,28,360824,1,0,0:0:0:0:
409,44,360935,5,0,0:0:0:0:
130,277,361158,1,0,0:0:0:0:
446,243,361380,5,0,0:0:0:0:
407,233,361435,1,0,0:0:0:0:
368,224,361491,1,0,0:0:0:0:
112,265,361602,5,0,0:0:0:0:
141,237,361657,1,0,0:0:0:0:
170,210,361713,1,0,0:0:0:0:
476,64,361824,5,0,0:0:0:0:
480,319,361935,1,0,0:0:0:0:
423,75,362047,1,0,0:0:0:0:
431,321,362158,1,0,0:0:0:0:
367,70,362269,1,0,0:0:0:0:
365,320,362380,1,0,0:0:0:0:
321,56,362491,1,0,0:0:0:0:
313,327,362602,1,0,0:0:0:0:
274,68,362713,5,0,0:0:0:0:
258,334,362824,1,0,0:0:0:0:
231,62,362935,1,0,0:0:0:0:
202,340,363047,1,0,0:0:0:0:
185,61,363158,1,0,0:0:0:0:
147,329,363269,1,0,0:0:0:0:
132,49,363380,1,0,0:0:0:0:
111,336,363491,1,0,0:0:0:0:
87,36,363602,5,0,0:0:0:0:
55,340,363713,1,0,0:0:0:0:
42,66,363824,1,0,0:0:0:0:
12,308,363935,1,0,0:0:0:0:
236,65,364047,1,0,0:0:0:0:
360,315,364158,1,0,0:0:0:0:
120,74,364269,1,0,0:0:0:0:
160,305,364380,1,0,0:0:0:0:
406,118,364491,5,0,0:0:0:0:
93,163,364602,1,0,0:0:0:0:
426,216,364713,1,0,0:0:0:0:
101,108,364824,1,0,0:0:0:0:
442,335,364935,5,0,0:0:0:0:
60,44,365158,1,0,0:0:0:0:
462,49,365380,5,0,0:0:0:0:
422,48,365435,1,0,0:0:0:0:
382,48,365491,1,0,0:0:0:0:
360,65,365546,1,0,0:0:0:0:
360,105,365602,1,0,0:0:0:0:
346,130,365657,1,0,0:0:0:0:
306,130,365713,1,0,0:0:0:0:
262,131,365824,5,0,0:0:0:0:
222,130,365879,1,0,0:0:0:0:
182,130,365935,1,0,0:0:0:0:
160,147,365990,1,0,0:0:0:0:
160,187,366046,1,0,0:0:0:0:
146,212,366101,1,0,0:0:0:0:
106,212,366157,1,0,0:0:0:0:
106,212,366269,1,0,0:0:0:0:
463,335,367158,5,0,0:0:0:0:
423,335,367213,1,0,0:0:0:0:
383,335,367269,1,0,0:0:0:0:
361,318,367324,1,0,0:0:0:0:
361,278,367380,1,0,0:0:0:0:
347,253,367435,1,0,0:0:0:0:
307,253,367491,1,0,0:0:0:0:
263,253,367602,5,0,0:0:0:0:
223,254,367657,1,0,0:0:0:0:
183,254,367713,1,0,0:0:0:0:
161,237,367768,1,0,0:0:0:0:
161,197,367824,1,0,0:0:0:0:
147,172,367879,1,0,0:0:0:0:
107,172,367935,1,0,0:0:0:0:
107,172,368047,1,0,0:0:0:0:
442,158,368491,5,0,0:0:0:0:
350,128,368713,5,0,0:0:0:0:
44,321,368935,5,0,0:0:0:0:
363,319,369047,1,0,0:0:0:0:
48,252,369158,1,0,0:0:0:0:
362,274,369269,1,0,0:0:0:0:
63,180,369380,1,0,0:0:0:0:
350,128,369491,1,0,0:0:0:0:
53,103,369602,1,0,0:0:0:0:
358,53,369713,1,0,0:0:0:0:
68,28,369824,5,0,0:0:0:0:
315,163,369935,1,0,0:0:0:0:
281,19,370047,1,0,0:0:0:0:
94,174,370158,1,0,0:0:0:0:
183,27,370269,1,0,0:0:0:0:
268,278,370380,1,0,0:0:0:0:
53,103,370491,1,0,0:0:0:0:
383,113,370602,1,0,0:0:0:0:
99,299,370713,5,0,0:0:0:0:
357,34,370824,1,0,0:0:0:0:
93,289,370935,1,0,0:0:0:0:
361,42,371047,1,0,0:0:0:0:
85,275,371158,1,0,0:0:0:0:
365,52,371269,1,0,0:0:0:0:
78,264,371380,1,0,0:0:0:0:
372,64,371491,1,0,0:0:0:0:
94,42,371602,5,0,0:0:0:0:
332,280,371713,1,0,0:0:0:0:
104,36,371824,1,0,0:0:0:0:
321,288,371935,1,0,0:0:0:0:
112,29,372047,1,0,0:0:0:0:
308,296,372158,1,0,0:0:0:0:
123,27,372269,1,0,0:0:0:0:
295,303,372380,1,0,0:0:0:0:
123,298,372491,6,0,L|180:216,1,80
226,129,372713,1,0,0:0:0:0:
345,113,372824,1,0,0:0:0:0:
433,212,372935,2,0,L|337:205,1,80
107,81,373158,2,0,B|67:187|67:187|209:237,1,240
362,257,373602,5,0,0:0:0:0:
259,142,373713,1,0,0:0:0:0:
219,258,373824,1,0,0:0:0:0:
343,191,373935,1,0,0:0:0:0:
159,181,374047,2,0,L|160:91,1,80
252,45,374269,2,0,B|386:46|386:46|389:95,1,160
391,191,374602,1,0,0:0:0:0:
377,286,374713,2,0,B|282:217|282:217|211:216,1,160
55,204,375158,5,0,0:0:0:0:
138,94,375269,1,0,0:0:0:0:
139,285,375380,1,0,0:0:0:0:
140,99,375491,1,0,0:0:0:0:
128,289,375602,2,0,L|187:208,1,80
294,30,375824,2,0,L|247:101,1,80
81,348,376047,2,0,L|139:273,1,80
245,110,376269,6,0,B|313:151|313:151|395:216,1,160
292,280,376602,1,0,0:0:0:0:
202,335,376713,2,0,B|104:279|104:279|105:199,1,160
107,202,376991,1,0,0:0:0:0:
107,167,377047,2,0,L|153:146,1,40
187,133,377158,2,0,L|293:99,1,80
446,201,377380,6,0,L|369:159,1,80
128,39,377602,2,0,L|206:80,1,80
268,308,377824,5,0,0:0:0:0:
287,60,377935,1,0,0:0:0:0:
276,60,377991,1,0,0:0:0:0:
263,63,378047,1,0,0:0:0:0:
248,67,378102,1,0,0:0:0:0:
239,72,378158,5,0,0:0:0:0:
164,248,378269,1,0,0:0:0:0:
218,69,378380,5,0,0:0:0:0:
195,274,378491,1,0,0:0:0:0:
198,57,378602,5,0,0:0:0:0:
231,297,378713,1,0,0:0:0:0:
168,43,378824,5,0,0:0:0:0:
275,304,378935,1,0,0:0:0:0:
140,42,379047,5,0,0:0:0:0:
326,318,379158,1,0,0:0:0:0:
338,317,379213,1,0,0:0:0:0:
347,310,379269,1,0,0:0:0:0:
353,300,379324,1,0,0:0:0:0:
312,251,379380,5,0,0:0:0:0:
314,240,379435,1,0,0:0:0:0:
317,231,379491,1,0,0:0:0:0:
326,225,379547,1,0,0:0:0:0:
333,219,379602,6,0,B|410:157|410:157|339:100,1,160
267,54,379935,1,0,0:0:0:0:
149,57,380047,2,0,P|144:127|156:164,1,80
181,320,380269,2,0,L|84:262,1,80
365,100,380491,6,0,L|308:166,1,80
41,68,380713,2,0,L|106:137,1,80
398,305,380935,2,0,L|334:242,1,80
49,260,381158,2,0,L|137:245,1,80
460,171,381380,6,0,B|376:126|376:126|284:126,1,160
129,126,381713,1,0,0:0:0:0:
233,34,381824,2,0,L|232:200,1,160
233,329,382158,1,0,0:0:0:0:
432,251,382269,6,0,L|351:230,1,80
64,216,382491,2,0,L|155:213,1,80
458,135,382713,2,0,L|365:123,1,80
361,121,382880,1,0,0:0:0:0:
337,118,382935,2,0,L|248:116,1,80
39,98,383158,6,0,B|106:164|106:164|74:236,1,160
35,330,383491,1,0,0:0:0:0:
172,330,383602,2,0,B|218:256|218:256|220:151,1,160
224,50,383935,1,0,0:0:0:0:
417,88,384047,2,0,L|351:159,1,80
291,336,384269,2,0,L|348:261,1,80
161,130,384491,2,0,L|231:195,1,80
474,190,384713,6,0,P|426:239|390:241,1,80
154,234,384935,5,0,0:0:0:0:
371,234,385047,1,0,0:0:0:0:
144,291,385158,1,0,0:0:0:0:
144,291,385213,1,0,0:0:0:0:
144,291,385269,1,0,0:0:0:0:
363,146,385380,1,0,0:0:0:0:
170,338,385491,1,0,0:0:0:0:
320,88,385602,5,0,0:0:0:0:
219,352,385713,1,0,0:0:0:0:
259,37,385824,1,0,0:0:0:0:
262,361,385935,1,0,0:0:0:0:
195,33,386047,5,0,0:0:0:0:
188,37,386102,1,0,0:0:0:0:
181,45,386158,1,0,0:0:0:0:
173,58,386213,1,0,0:0:0:0:
166,72,386269,5,0,0:0:0:0:
159,85,386324,1,0,0:0:0:0:
157,95,386380,1,0,0:0:0:0:
155,106,386435,1,0,0:0:0:0:
235,86,386491,5,0,0:0:0:0:
242,96,386546,1,0,0:0:0:0:
247,108,386602,1,0,0:0:0:0:
253,118,386658,1,0,0:0:0:0:
258,132,386713,6,0,B|304:216|304:216|243:279,1,160
259,262,387047,1,0,0:0:0:0:
99,221,387158,5,0,0:0:0:0:
99,221,387269,1,0,0:0:0:0:
376,219,387380,5,0,0:0:0:0:
376,219,387491,1,0,0:0:0:0:
154,80,387602,5,0,0:0:0:0:
154,80,387713,1,0,0:0:0:0:
239,314,387824,5,0,0:0:0:0:
239,314,387935,1,0,0:0:0:0:
352,55,388047,5,0,0:0:0:0:
352,55,388158,1,0,0:0:0:0:
128,300,388269,6,0,B|68:237|68:237|132:164,1,160
116,182,388602,1,0,0:0:0:0:
319,233,388713,5,0,0:0:0:0:
319,233,388824,1,0,0:0:0:0:
80,43,388935,5,0,0:0:0:0:
80,43,389047,1,0,0:0:0:0:
306,64,389158,5,0,0:0:0:0:
306,64,389213,1,0,0:0:0:0:
306,64,389269,1,0,0:0:0:0:
313,72,389324,1,0,0:0:0:0:
318,81,389380,5,0,0:0:0:0:
326,96,389435,1,0,0:0:0:0:
325,117,389491,1,0,0:0:0:0:
312,136,389547,1,0,0:0:0:0:
282,138,389602,5,0,0:0:0:0:
254,130,389658,1,0,0:0:0:0:
228,106,389713,1,0,0:0:0:0:
181,89,389769,1,0,0:0:0:0:
126,95,389824,5,0,0:0:0:0:
83,138,389880,1,0,0:0:0:0:
55,195,389935,2,0,P|51:252|83:289,1,80
61,270,390158,5,0,0:0:0:0:
290,222,390269,1,0,0:0:0:0:
132,334,390380,1,0,0:0:0:0:
215,163,390491,5,0,0:0:0:0:
215,163,390602,1,0,0:0:0:0:
405,287,390713,5,0,0:0:0:0:
405,287,390824,1,0,0:0:0:0:
414,77,390935,5,0,0:0:0:0:
414,77,391047,1,0,0:0:0:0:
216,56,391158,5,0,0:0:0:0:
216,56,391269,1,0,0:0:0:0:
419,189,391380,5,0,0:0:0:0:
419,189,391491,1,0,0:0:0:0:
259,284,391602,5,0,0:0:0:0:
259,284,391713,1,0,0:0:0:0:
72,72,391824,6,0,B|103:128|103:128|54:186|54:186|54:229,1,160
54,206,392158,5,0,0:0:0:0:
302,92,392269,1,0,0:0:0:0:
100,265,392380,1,0,0:0:0:0:
243,52,392491,1,0,0:0:0:0:
152,308,392602,1,0,0:0:0:0:
179,44,392713,1,0,0:0:0:0:
152,308,392824,1,0,0:0:0:0:
219,314,392935,5,0,0:0:0:0:
381,73,393047,1,0,0:0:0:0:
375,340,393158,1,0,0:0:0:0:
272,84,393269,1,0,0:0:0:0:
446,312,393380,2,0,B|433:231|433:231|341:230,1,160
344,229,393658,5,0,0:0:0:0:
334,230,393713,1,0,0:0:0:0:
325,231,393769,1,0,0:0:0:0:
313,231,393824,1,0,0:0:0:0:
306,233,393935,1,0,0:0:0:0:
108,252,394047,5,0,0:0:0:0:
108,252,394158,1,0,0:0:0:0:
46,130,394269,5,0,0:0:0:0:
46,130,394380,1,0,0:0:0:0:
198,147,394491,5,0,0:0:0:0:
198,147,394602,1,0,0:0:0:0:
233,284,394713,5,0,0:0:0:0:
233,284,394824,1,0,0:0:0:0:
362,97,394935,5,0,0:0:0:0:
362,97,395047,1,0,0:0:0:0:
408,296,395158,5,0,0:0:0:0:
408,296,395269,1,0,0:0:0:0:
234,56,395380,5,0,0:0:0:0:
234,56,395491,1,0,0:0:0:0:
99,299,395602,5,0,0:0:0:0:
99,299,395713,1,0,0:0:0:0:
65,65,395824,5,0,0:0:0:0:
65,65,395935,1,0,0:0:0:0:
319,192,396047,5,0,0:0:0:0:
319,192,396158,1,0,0:0:0:0:
190,192,396269,5,0,0:0:0:0:
190,192,396380,1,0,0:0:0:0:
319,192,396491,5,0,0:0:0:0:
319,192,396602,1,0,0:0:0:0:
190,192,396713,5,0,0:0:0:0:
190,192,396824,1,0,0:0:0:0:
280,63,396935,5,0,0:0:0:0:
271,292,397047,1,0,0:0:0:0:
141,50,397158,1,0,0:0:0:0:
141,50,397269,1,0,0:0:0:0:
116,241,397380,5,0,0:0:0:0:
116,241,397491,1,0,0:0:0:0:
362,222,397602,5,0,0:0:0:0:
362,222,397713,1,0,0:0:0:0:
235,52,397824,5,0,0:0:0:0:
235,52,397935,1,0,0:0:0:0:
245,323,398047,5,0,0:0:0:0:
245,323,398158,1,0,0:0:0:0:
339,147,398269,5,0,0:0:0:0:
339,147,398380,1,0,0:0:0:0:
113,132,398491,5,0,0:0:0:0:
113,132,398602,1,0,0:0:0:0:
137,285,398713,5,0,0:0:0:0:
137,285,398824,1,0,0:0:0:0:
299,68,398935,6,0,B|358:81|358:81|400:116|400:116|403:170,1,160
402,160,399269,5,0,0:0:0:0:
239,309,399380,1,0,0:0:0:0:
384,107,399491,1,0,0:0:0:0:
295,347,399602,1,0,0:0:0:0:
328,53,399713,1,0,0:0:0:0:
355,343,399824,1,0,0:0:0:0:
254,28,399935,1,0,0:0:0:0:
403,301,400047,1,0,0:0:0:0:
388,282,400102,1,0,0:0:0:0:
366,265,400158,1,0,0:0:0:0:
340,256,400213,1,0,0:0:0:0:
311,256,400269,5,0,0:0:0:0:
277,263,400324,1,0,0:0:0:0:
244,268,400380,1,0,0:0:0:0:
216,261,400435,1,0,0:0:0:0:
191,244,400491,5,0,0:0:0:0:
169,218,400547,1,0,0:0:0:0:
159,188,400602,1,0,0:0:0:0:
162,162,400658,1,0,0:0:0:0:
177,138,400713,1,0,0:0:0:0:
257,48,400824,5,0,0:0:0:0:
394,159,400935,1,0,0:0:0:0:
394,159,401047,1,0,0:0:0:0:
394,159,401158,1,0,0:0:0:0:
394,159,401269,5,0,0:0:0:0:
298,288,401380,1,0,0:0:0:0:
300,128,401491,1,0,0:0:0:0:
164,252,401602,1,0,0:0:0:0:
164,252,401713,5,0,0:0:0:0:
38,134,401824,1,0,0:0:0:0:
38,134,401935,1,0,0:0:0:0:
193,59,402047,1,0,0:0:0:0:
98,225,402158,1,0,0:0:0:0:
214,311,402269,5,0,0:0:0:0:
211,88,402380,1,0,0:0:0:0:
236,287,402491,1,0,0:0:0:0:
264,71,402602,1,0,0:0:0:0:
249,322,402713,1,0,0:0:0:0:
163,98,402824,1,0,0:0:0:0:
163,98,402935,5,0,0:0:0:0:
163,98,403047,1,0,0:0:0:0:
357,175,403158,1,0,0:0:0:0:
244,233,403269,1,0,0:0:0:0:
357,175,403380,1,0,0:0:0:0:
244,233,403491,1,0,0:0:0:0:
357,175,403602,5,0,0:0:0:0:
344,137,403657,1,0,0:0:0:0:
322,103,403713,1,0,0:0:0:0:
293,76,403768,1,0,0:0:0:0:
257,58,403824,1,0,0:0:0:0:
218,49,403879,1,0,0:0:0:0:
179,50,403935,1,0,0:0:0:0:
140,60,403990,1,0,0:0:0:0:
106,81,404046,5,0,0:0:0:0:
78,109,404102,1,0,0:0:0:0:
57,143,404157,1,0,0:0:0:0:
46,181,404213,1,0,0:0:0:0:
45,221,404268,1,0,0:0:0:0:
267,328,404491,5,0,0:0:0:0:
286,292,404546,1,0,0:0:0:0:
305,257,404602,1,0,0:0:0:0:
324,222,404657,1,0,0:0:0:0:
343,187,404713,1,0,0:0:0:0:
119,37,404935,5,0,0:0:0:0:
129,75,404990,1,0,0:0:0:0:
140,113,405046,1,0,0:0:0:0:
151,152,405101,1,0,0:0:0:0:
162,190,405157,1,0,0:0:0:0:
173,229,405212,1,0,0:0:0:0:
184,267,405268,1,0,0:0:0:0:
195,306,405323,1,0,0:0:0:0:
206,344,405379,1,0,0:0:0:0:
448,87,405602,5,0,0:0:0:0:
409,98,405657,1,0,0:0:0:0:
370,103,405713,1,0,0:0:0:0:
330,101,405768,1,0,0:0:0:0:
291,90,405824,1,0,0:0:0:0:
255,73,405879,1,0,0:0:0:0:
221,56,405935,1,0,0:0:0:0:
181,63,405990,1,0,0:0:0:0:
146,81,406046,5,0,0:0:0:0:
118,109,406102,1,0,0:0:0:0:
98,143,406157,1,0,0:0:0:0:
85,181,406213,1,0,0:0:0:0:
77,220,406268,1,0,0:0:0:0:
184,341,406491,5,0,0:0:0:0:
178,301,406546,1,0,0:0:0:0:
172,261,406602,1,0,0:0:0:0:
166,222,406657,1,0,0:0:0:0:
160,182,406713,1,0,0:0:0:0:
123,24,406935,5,0,0:0:0:0:
158,42,406990,1,0,0:0:0:0:
193,61,407046,1,0,0:0:0:0:
229,80,407101,1,0,0:0:0:0:
264,98,407157,1,0,0:0:0:0:
299,117,407212,1,0,0:0:0:0:
335,136,407268,1,0,0:0:0:0:
370,155,407323,1,0,0:0:0:0:
405,173,407379,1,0,0:0:0:0:
414,343,407602,5,0,0:0:0:0:
389,311,407657,1,0,0:0:0:0:
360,283,407713,1,0,0:0:0:0:
329,258,407768,1,0,0:0:0:0:
294,239,407824,1,0,0:0:0:0:
257,224,407879,1,0,0:0:0:0:
218,216,407935,1,0,0:0:0:0:
178,213,407990,1,0,0:0:0:0:
139,206,408046,5,0,0:0:0:0:
109,181,408102,1,0,0:0:0:0:
99,142,408157,1,0,0:0:0:0:
114,117,408213,1,0,0:0:0:0:
154,117,408268,1,0,0:0:0:0:
459,54,408491,5,0,0:0:0:0:
419,53,408546,1,0,0:0:0:0:
379,53,408602,1,0,0:0:0:0:
339,52,408657,1,0,0:0:0:0:
299,52,408713,1,0,0:0:0:0:
114,52,408935,5,0,0:0:0:0:
74,53,408990,1,0,0:0:0:0:
48,79,409046,1,0,0:0:0:0:
43,119,409101,1,0,0:0:0:0:
42,159,409157,1,0,0:0:0:0:
41,199,409212,1,0,0:0:0:0:
41,239,409268,1,0,0:0:0:0:
40,279,409323,1,0,0:0:0:0:
40,319,409379,1,0,0:0:0:0:
214,340,409602,5,0,0:0:0:0:
253,337,409657,1,0,0:0:0:0:
293,333,409713,1,0,0:0:0:0:
331,321,409768,1,0,0:0:0:0:
330,288,409824,1,0,0:0:0:0:
298,263,409879,1,0,0:0:0:0:
263,244,409935,1,0,0:0:0:0:
228,226,409990,1,0,0:0:0:0:
203,199,410046,5,0,0:0:0:0:
239,183,410102,1,0,0:0:0:0:
278,176,410157,1,0,0:0:0:0:
318,170,410213,1,0,0:0:0:0:
357,165,410268,1,0,0:0:0:0:
56,52,410491,5,0,0:0:0:0:
89,73,410546,1,0,0:0:0:0:
126,87,410602,1,0,0:0:0:0:
166,91,410657,1,0,0:0:0:0:
206,85,410713,1,0,0:0:0:0:
437,61,410935,5,0,0:0:0:0:
446,99,410990,1,0,0:0:0:0:
445,139,411046,1,0,0:0:0:0:
434,178,411101,1,0,0:0:0:0:
414,212,411157,1,0,0:0:0:0:
386,241,411212,1,0,0:0:0:0:
352,262,411268,1,0,0:0:0:0:
314,273,411323,1,0,0:0:0:0:
274,275,411379,1,0,0:0:0:0:
386,297,411602,6,0,L|329:215,1,80
283,128,411824,1,0,0:0:0:0:
164,112,411935,1,0,0:0:0:0:
76,211,412046,2,0,L|172:204,1,80
402,80,412269,2,0,B|442:186|442:186|300:236,1,240
147,256,412713,5,0,0:0:0:0:
250,141,412824,1,0,0:0:0:0:
290,257,412935,1,0,0:0:0:0:
166,190,413046,1,0,0:0:0:0:
350,180,413158,2,0,L|349:90,1,80
257,44,413380,2,0,B|123:45|123:45|120:94,1,160
118,190,413713,1,0,0:0:0:0:
132,285,413824,2,0,B|227:216|227:216|298:215,1,160
454,203,414269,5,0,0:0:0:0:
371,93,414380,1,0,0:0:0:0:
370,284,414491,1,0,0:0:0:0:
369,98,414602,1,0,0:0:0:0:
381,288,414713,2,0,L|322:207,1,80
215,29,414935,2,0,L|262:100,1,80
428,347,415158,2,0,L|370:272,1,80
264,109,415380,6,0,B|196:150|196:150|114:215,1,160
217,279,415713,1,0,0:0:0:0:
307,334,415824,2,0,B|405:278|405:278|404:198,1,160
402,201,416102,1,0,0:0:0:0:
402,166,416158,2,0,L|356:145,1,40
322,132,416269,2,0,L|216:98,1,80
63,200,416491,6,0,L|140:158,1,80
381,38,416713,2,0,L|303:79,1,80
241,307,416935,5,0,0:0:0:0:
222,59,417046,1,0,0:0:0:0:
233,59,417102,1,0,0:0:0:0:
246,62,417158,1,0,0:0:0:0:
261,66,417213,1,0,0:0:0:0:
270,71,417269,5,0,0:0:0:0:
345,247,417380,1,0,0:0:0:0:
291,68,417491,5,0,0:0:0:0:
314,273,417602,1,0,0:0:0:0:
311,56,417713,5,0,0:0:0:0:
278,296,417824,1,0,0:0:0:0:
341,42,417935,5,0,0:0:0:0:
234,303,418046,1,0,0:0:0:0:
369,41,418158,5,0,0:0:0:0:
183,317,418269,1,0,0:0:0:0:
171,316,418324,1,0,0:0:0:0:
162,309,418380,1,0,0:0:0:0:
156,299,418435,1,0,0:0:0:0:
197,250,418491,5,0,0:0:0:0:
195,239,418546,1,0,0:0:0:0:
192,230,418602,1,0,0:0:0:0:
183,224,418658,1,0,0:0:0:0:
176,218,418713,6,0,B|99:156|99:156|170:99,1,160
242,53,419046,1,0,0:0:0:0:
360,56,419158,2,0,P|365:126|353:163,1,80
328,319,419380,2,0,L|425:261,1,80
144,99,419602,6,0,L|201:165,1,80
468,67,419824,2,0,L|403:136,1,80
111,304,420046,2,0,L|175:241,1,80
460,259,420269,2,0,L|372:244,1,80
49,170,420491,6,0,B|133:125|133:125|225:125,1,160
380,125,420824,1,0,0:0:0:0:
276,33,420935,2,0,L|277:199,1,160
276,328,421269,1,0,0:0:0:0:
77,250,421380,6,0,L|158:229,1,80
445,215,421602,2,0,L|354:212,1,80
51,134,421824,2,0,L|144:122,1,80
148,120,421991,1,0,0:0:0:0:
172,117,422046,2,0,L|261:115,1,80
470,97,422269,6,0,B|403:163|403:163|435:235,1,160
474,329,422602,1,0,0:0:0:0:
337,329,422713,2,0,B|291:255|291:255|289:150,1,160
285,49,423046,1,0,0:0:0:0:
92,87,423158,2,0,L|158:158,1,80
218,335,423380,2,0,L|161:260,1,80
348,129,423602,2,0,L|278:194,1,80
35,189,423824,6,0,P|83:238|119:240,1,80
355,233,424046,5,0,0:0:0:0:
138,233,424158,1,0,0:0:0:0:
365,290,424269,1,0,0:0:0:0:
365,290,424324,1,0,0:0:0:0:
365,290,424380,1,0,0:0:0:0:
146,145,424491,1,0,0:0:0:0:
339,337,424602,1,0,0:0:0:0:
189,87,424713,5,0,0:0:0:0:
290,351,424824,1,0,0:0:0:0:
250,36,424935,1,0,0:0:0:0:
247,360,425046,1,0,0:0:0:0:
314,32,425158,5,0,0:0:0:0:
321,36,425213,1,0,0:0:0:0:
328,44,425269,1,0,0:0:0:0:
336,57,425324,1,0,0:0:0:0:
343,71,425380,5,0,0:0:0:0:
350,84,425435,1,0,0:0:0:0:
352,94,425491,1,0,0:0:0:0:
354,105,425546,1,0,0:0:0:0:
274,85,425602,5,0,0:0:0:0:
267,95,425657,1,0,0:0:0:0:
262,107,425713,1,0,0:0:0:0:
256,117,425769,1,0,0:0:0:0:
251,131,425824,6,0,B|205:215|205:215|266:278,1,160
250,261,426158,1,0,0:0:0:0:
410,220,426269,5,0,0:0:0:0:
410,220,426380,1,0,0:0:0:0:
133,218,426491,5,0,0:0:0:0:
133,218,426602,1,0,0:0:0:0:
355,79,426713,5,0,0:0:0:0:
355,79,426824,1,0,0:0:0:0:
270,313,426935,5,0,0:0:0:0:
270,313,427046,1,0,0:0:0:0:
157,54,427158,5,0,0:0:0:0:
157,54,427269,1,0,0:0:0:0:
381,299,427380,6,0,B|441:236|441:236|377:163,1,160
393,181,427713,1,0,0:0:0:0:
190,232,427824,5,0,0:0:0:0:
190,232,427935,1,0,0:0:0:0:
429,42,428046,5,0,0:0:0:0:
429,42,428158,1,0,0:0:0:0:
203,63,428269,5,0,0:0:0:0:
203,63,428324,1,0,0:0:0:0:
203,63,428380,1,0,0:0:0:0:
196,71,428435,1,0,0:0:0:0:
191,80,428491,5,0,0:0:0:0:
183,95,428546,1,0,0:0:0:0:
184,116,428602,1,0,0:0:0:0:
197,135,428658,1,0,0:0:0:0:
227,137,428713,5,0,0:0:0:0:
255,129,428769,1,0,0:0:0:0:
281,105,428824,1,0,0:0:0:0:
328,88,428880,1,0,0:0:0:0:
383,94,428935,5,0,0:0:0:0:
426,137,428991,1,0,0:0:0:0:
454,194,429046,2,0,P|458:251|426:288,1,80
448,269,429269,5,0,0:0:0:0:
219,221,429380,1,0,0:0:0:0:
377,333,429491,1,0,0:0:0:0:
294,162,429602,5,0,0:0:0:0:
294,162,429713,1,0,0:0:0:0:
104,286,429824,5,0,0:0:0:0:
104,286,429935,1,0,0:0:0:0:
95,76,430046,5,0,0:0:0:0:
95,76,430158,1,0,0:0:0:0:
293,55,430269,5,0,0:0:0:0:
293,55,430380,1,0,0:0:0:0:
90,188,430491,5,0,0:0:0:0:
90,188,430602,1,0,0:0:0:0:
250,283,430713,5,0,0:0:0:0:
250,283,430824,1,0,0:0:0:0:
437,71,430935,6,0,B|406:127|406:127|455:185|455:185|455:228,1,160
455,205,431269,5,0,0:0:0:0:
207,91,431380,1,0,0:0:0:0:
409,264,431491,1,0,0:0:0:0:
266,51,431602,1,0,0:0:0:0:
357,307,431713,1,0,0:0:0:0:
330,43,431824,1,0,0:0:0:0:
357,307,431935,1,0,0:0:0:0:
290,313,432046,5,0,0:0:0:0:
128,72,432158,1,0,0:0:0:0:
134,339,432269,1,0,0:0:0:0:
237,83,432380,1,0,0:0:0:0:
63,311,432491,2,0,B|76:230|76:230|168:229,1,160
165,228,432769,5,0,0:0:0:0:
175,229,432824,1,0,0:0:0:0:
184,230,432880,1,0,0:0:0:0:
196,230,432935,1,0,0:0:0:0:
203,232,433046,1,0,0:0:0:0:
401,251,433158,5,0,0:0:0:0:
401,251,433269,1,0,0:0:0:0:
463,129,433380,5,0,0:0:0:0:
463,129,433491,1,0,0:0:0:0:
311,146,433602,5,0,0:0:0:0:
311,146,433713,1,0,0:0:0:0:
276,283,433824,5,0,0:0:0:0:
276,283,433935,1,0,0:0:0:0:
147,96,434046,5,0,0:0:0:0:
147,96,434158,1,0,0:0:0:0:
101,295,434269,5,0,0:0:0:0:
101,295,434380,1,0,0:0:0:0:
275,55,434491,5,0,0:0:0:0:
275,55,434602,1,0,0:0:0:0:
410,298,434713,5,0,0:0:0:0:
410,298,434824,1,0,0:0:0:0:
444,64,434935,5,0,0:0:0:0:
444,64,435046,1,0,0:0:0:0:
190,191,435158,5,0,0:0:0:0:
190,191,435269,1,0,0:0:0:0:
319,191,435380,5,0,0:0:0:0:
319,191,435491,1,0,0:0:0:0:
190,191,435602,5,0,0:0:0:0:
190,191,435713,1,0,0:0:0:0:
319,191,435824,5,0,0:0:0:0:
319,191,435935,1,0,0:0:0:0:
229,62,436046,5,0,0:0:0:0:
238,291,436158,1,0,0:0:0:0:
368,49,436269,1,0,0:0:0:0:
368,49,436380,1,0,0:0:0:0:
393,240,436491,5,0,0:0:0:0:
393,240,436602,1,0,0:0:0:0:
147,221,436713,5,0,0:0:0:0:
147,221,436824,1,0,0:0:0:0:
274,51,436935,5,0,0:0:0:0:
274,51,437046,1,0,0:0:0:0:
264,322,437158,5,0,0:0:0:0:
264,322,437269,1,0,0:0:0:0:
170,146,437380,5,0,0:0:0:0:
170,146,437491,1,0,0:0:0:0:
396,131,437602,5,0,0:0:0:0:
396,131,437713,1,0,0:0:0:0:
372,284,437824,5,0,0:0:0:0:
372,284,437935,1,0,0:0:0:0:
210,67,438046,6,0,B|151:80|151:80|109:115|109:115|106:169,1,160
107,159,438380,5,0,0:0:0:0:
270,308,438491,1,0,0:0:0:0:
125,106,438602,1,0,0:0:0:0:
214,346,438713,1,0,0:0:0:0:
181,52,438824,1,0,0:0:0:0:
154,342,438935,1,0,0:0:0:0:
255,27,439046,1,0,0:0:0:0:
106,300,439158,1,0,0:0:0:0:
121,281,439213,1,0,0:0:0:0:
143,264,439269,1,0,0:0:0:0:
169,255,439324,1,0,0:0:0:0:
198,255,439380,5,0,0:0:0:0:
232,262,439435,1,0,0:0:0:0:
265,267,439491,1,0,0:0:0:0:
293,260,439546,1,0,0:0:0:0:
318,243,439602,5,0,0:0:0:0:
340,217,439658,1,0,0:0:0:0:
350,187,439713,1,0,0:0:0:0:
347,161,439769,1,0,0:0:0:0:
332,137,439824,1,0,0:0:0:0:
252,47,439935,5,0,0:0:0:0:
115,158,440046,1,0,0:0:0:0:
115,158,440158,1,0,0:0:0:0:
115,158,440269,1,0,0:0:0:0:
115,158,440380,5,0,0:0:0:0:
211,287,440491,1,0,0:0:0:0:
209,127,440602,1,0,0:0:0:0:
345,251,440713,1,0,0:0:0:0:
345,251,440824,5,0,0:0:0:0:
471,133,440935,1,0,0:0:0:0:
471,133,441046,1,0,0:0:0:0:
316,58,441158,1,0,0:0:0:0:
411,224,441269,1,0,0:0:0:0:
295,310,441380,5,0,0:0:0:0:
298,87,441491,1,0,0:0:0:0:
273,286,441602,1,0,0:0:0:0:
245,70,441713,1,0,0:0:0:0:
260,321,441824,1,0,0:0:0:0:
346,97,441935,1,0,0:0:0:0:
346,97,442046,5,0,0:0:0:0:
346,97,442158,1,0,0:0:0:0:
152,174,442269,1,0,0:0:0:0:
265,232,442380,1,0,0:0:0:0:
152,174,442491,1,0,0:0:0:0:
265,232,442602,1,0,0:0:0:0:
152,174,442713,5,0,0:0:0:0:
165,136,442768,1,0,0:0:0:0:
187,102,442824,1,0,0:0:0:0:
216,75,442879,1,0,0:0:0:0:
252,57,442935,1,0,0:0:0:0:
291,48,442990,1,0,0:0:0:0:
330,49,443046,1,0,0:0:0:0:
369,59,443101,1,0,0:0:0:0:
403,80,443157,5,0,0:0:0:0:
431,108,443213,1,0,0:0:0:0:
452,142,443268,1,0,0:0:0:0:
463,180,443324,1,0,0:0:0:0:
464,220,443379,1,0,0:0:0:0:
242,327,443602,5,0,0:0:0:0:
223,291,443657,1,0,0:0:0:0:
204,256,443713,1,0,0:0:0:0:
185,221,443768,1,0,0:0:0:0:
166,186,443824,1,0,0:0:0:0:
390,36,444046,5,0,0:0:0:0:
380,74,444101,1,0,0:0:0:0:
369,112,444157,1,0,0:0:0:0:
358,151,444212,1,0,0:0:0:0:
347,189,444268,1,0,0:0:0:0:
336,228,444323,1,0,0:0:0:0:
325,266,444379,1,0,0:0:0:0:
314,305,444434,1,0,0:0:0:0:
303,343,444490,1,0,0:0:0:0:
61,86,444713,5,0,0:0:0:0:
100,97,444768,1,0,0:0:0:0:
139,102,444824,1,0,0:0:0:0:
179,100,444879,1,0,0:0:0:0:
218,89,444935,1,0,0:0:0:0:
254,72,444990,1,0,0:0:0:0:
288,55,445046,1,0,0:0:0:0:
328,62,445101,1,0,0:0:0:0:
363,80,445157,5,0,0:0:0:0:
391,108,445213,1,0,0:0:0:0:
411,142,445268,1,0,0:0:0:0:
424,180,445324,1,0,0:0:0:0:
432,219,445379,1,0,0:0:0:0:
325,340,445602,5,0,0:0:0:0:
331,300,445657,1,0,0:0:0:0:
337,260,445713,1,0,0:0:0:0:
343,221,445768,1,0,0:0:0:0:
349,181,445824,1,0,0:0:0:0:
386,23,446046,5,0,0:0:0:0:
351,41,446101,1,0,0:0:0:0:
316,60,446157,1,0,0:0:0:0:
280,79,446212,1,0,0:0:0:0:
245,97,446268,1,0,0:0:0:0:
210,116,446323,1,0,0:0:0:0:
174,135,446379,1,0,0:0:0:0:
139,154,446434,1,0,0:0:0:0:
104,172,446490,1,0,0:0:0:0:
95,342,446713,5,0,0:0:0:0:
120,310,446768,1,0,0:0:0:0:
149,282,446824,1,0,0:0:0:0:
180,257,446879,1,0,0:0:0:0:
215,238,446935,1,0,0:0:0:0:
252,223,446990,1,0,0:0:0:0:
291,215,447046,1,0,0:0:0:0:
331,212,447101,1,0,0:0:0:0:
370,205,447157,5,0,0:0:0:0:
400,180,447213,1,0,0:0:0:0:
410,141,447268,1,0,0:0:0:0:
395,116,447324,1,0,0:0:0:0:
355,116,447379,1,0,0:0:0:0:
50,53,447602,5,0,0:0:0:0:
90,52,447657,1,0,0:0:0:0:
130,52,447713,1,0,0:0:0:0:
170,51,447768,1,0,0:0:0:0:
210,51,447824,1,0,0:0:0:0:
395,51,448046,5,0,0:0:0:0:
435,52,448101,1,0,0:0:0:0:
461,78,448157,1,0,0:0:0:0:
466,118,448212,1,0,0:0:0:0:
467,158,448268,1,0,0:0:0:0:
468,198,448323,1,0,0:0:0:0:
468,238,448379,1,0,0:0:0:0:
469,278,448434,1,0,0:0:0:0:
469,318,448490,1,0,0:0:0:0:
295,339,448713,5,0,0:0:0:0:
256,336,448768,1,0,0:0:0:0:
216,332,448824,1,0,0:0:0:0:
178,320,448879,1,0,0:0:0:0:
179,287,448935,1,0,0:0:0:0:
211,262,448990,1,0,0:0:0:0:
246,243,449046,1,0,0:0:0:0:
281,225,449101,1,0,0:0:0:0:
306,198,449157,5,0,0:0:0:0:
270,182,449213,1,0,0:0:0:0:
231,175,449268,1,0,0:0:0:0:
191,169,449324,1,0,0:0:0:0:
152,164,449379,1,0,0:0:0:0:
453,51,449602,5,0,0:0:0:0:
420,72,449657,1,0,0:0:0:0:
383,86,449713,1,0,0:0:0:0:
343,90,449768,1,0,0:0:0:0:
303,84,449824,1,0,0:0:0:0:
72,60,450046,5,0,0:0:0:0:
63,98,450101,1,0,0:0:0:0:
64,138,450157,1,0,0:0:0:0:
75,177,450212,1,0,0:0:0:0:
95,211,450268,1,0,0:0:0:0:
123,240,450323,1,0,0:0:0:0:
157,261,450379,1,0,0:0:0:0:
195,272,450434,1,0,0:0:0:0:
235,274,450490,1,0,0:0:0:0:
113,96,452105,5,0,0:0:0:0:
