osu file format v14

[General]
AudioFilename: Senseless Massacre Short edit.mp3
AudioLeadIn: 0
PreviewTime: 40504
Countdown: 0
SampleSet: Normal
StackLeniency: 0.7
Mode: 0
LetterboxInBreaks: 1
WidescreenStoryboard: 0

[Editor]
DistanceSpacing: 2.4
BeatDivisor: 4
GridSize: 4
TimelineZoom: 2.499999

[Metadata]
Title:Senseless Massacre (Cut Ver.)
TitleUnicode:Senseless Massacre (Cut Ver.)
Artist:Rings of Saturn
ArtistUnicode:Rings of Saturn
Creator:HML
Version:Omnipresent
Source:
Tags:stream deathcore technical death metal english Lugal Ki En mapper headphonewearer MrKosiej Chaotic Neutral Flare-kun Flarekun Fenza Broly Irate
BeatmapID:1260398
BeatmapSetID:507278

[Difficulty]
HPDrainRate:7
CircleSize:4.3
OverallDifficulty:10
ApproachRate:10
SliderMultiplier:1.9
SliderTickRate:1

[Events]
//Background and Video events
0,0,"BG.jpg",0,0
//Break Periods
//Storyboard Layer 0 (Background)
//Storyboard Layer 1 (Fail)
//Storyboard Layer 2 (Pass)
//Storyboard Layer 3 (Foreground)
//Storyboard Layer 4 (Overlay)
//Storyboard Sound Samples

[TimingPoints]
1449,222.222222222222,4,1,1,65,1,0
3226,-200,4,1,1,65,0,0
4115,-100,4,1,1,65,0,0
7893,-100,4,3,1,45,0,0
8560,-100,4,1,1,65,0,0
12337,-200,4,1,1,65,0,0
13615,-200,4,2,1,5,0,0
13671,-200,4,1,1,65,0,0
13837,-200,4,2,1,5,0,0
13893,-200,4,1,1,65,0,0
14948,-200,4,2,1,5,0,0
15004,-200,4,1,1,65,0,0
15171,-200,4,2,1,5,0,0
15226,-200,4,1,1,65,0,0
15671,-100,4,1,1,65,0,0
18115,-200,4,1,1,65,0,0
20560,-100,4,1,1,65,0,0
22337,-133.333333333333,4,1,1,65,0,0
22782,-100,4,1,1,65,0,0
27893,-100,4,1,1,60,0,0
29448,-133.333333333333,4,1,1,60,0,0
29671,-100,4,1,1,60,0,0
29893,-100,4,1,1,55,0,0
31448,-100,4,1,1,50,0,0
33448,-100,4,1,1,65,0,0
37004,-200,4,1,1,65,0,0
38504,-200,4,2,1,5,0,0
38560,-133.333333333333,4,1,1,65,0,0
39004,-200,4,1,1,65,0,0
39615,-200,4,2,1,5,0,0
39671,-200,4,1,1,65,0,0
39893,-200,4,3,1,45,0,0
40560,-100,4,1,2,65,0,1
42115,-100,4,1,1,65,0,1
42337,-100,4,1,2,65,0,1
43226,-100,4,1,1,65,0,1
44115,-100,4,1,1,65,0,0
45671,-100,4,1,1,65,0,0
45893,-100,4,1,2,65,0,1
46560,-100,4,1,1,65,0,1
46671,-100,4,1,2,65,0,1
49226,-100,4,1,1,65,0,1
49448,-100,4,1,2,65,0,1
50337,-100,4,1,1,65,0,1
51226,-100,4,1,1,65,0,0
53004,-100,4,1,2,65,0,1
53671,-100,4,1,1,65,0,1
54782,-133.333333333333,4,1,1,65,0,0
56282,-133.333333333333,4,2,1,5,0,0
56337,-100,4,1,1,65,0,0
57115,-200,4,1,1,65,0,0
57615,-200,4,2,1,5,0,0
57671,-200,4,1,1,65,0,0
57837,-200,4,2,1,5,0,0
57893,-200,4,1,1,65,0,0
58318,222.222222222222,4,2,1,35,1,0
58318,-200,4,2,1,35,0,0
58984,222.222222222222,4,2,1,35,1,0
58984,-200,4,2,1,35,0,0
60761,-200,4,1,1,65,0,0
61428,-66.6666666666667,4,1,1,65,0,0
61595,-66.6666666666667,4,2,1,5,0,0
61650,-100,4,1,1,65,0,0
64317,-100,4,1,3,65,0,0
69650,-100,4,1,1,65,0,0
73983,-100,4,1,1,20,0,0

[Colours]
Combo1 : 247,221,79
Combo2 : 64,136,255
Combo3 : 168,68,68
Combo4 : 154,79,255

[HitObjects]
68,312,1449,5,8,0:0:0:0:
68,312,1505,1,0,0:0:0:0:
68,312,1560,1,0,0:0:0:0:
68,312,1616,1,0,0:0:0:0:
68,312,1671,2,0,L|88:264,3,47.5
184,240,1893,5,4,0:0:0:0:
184,240,1949,1,0,0:0:0:0:
184,240,2005,1,0,0:0:0:0:
184,240,2060,1,0,0:0:0:0:
184,240,2116,2,0,L|164:192,3,47.5
116,104,2338,5,8,0:0:0:0:
116,104,2393,1,0,0:0:0:0:
116,104,2449,2,0,L|220:116,1,95
360,200,2671,5,8,0:0:0:0:
360,200,2727,1,0,0:0:0:0:
360,200,2782,2,0,L|256:212,1,95
216,316,3005,5,0,0:0:0:0:
239,323,3060,1,0,0:0:0:0:
262,327,3116,1,0,0:0:0:0:
286,326,3171,1,0,0:0:0:0:
308,320,3227,6,0,P|356:300|408:312,1,95,2|0,0:0|0:0,0:0:0:0:
380,192,3671,6,0,P|333:186|290:205,1,95,2|0,0:0|0:0,0:0:0:0:
106,150,4116,5,8,0:0:0:0:
99,162,4171,1,0,0:0:0:0:
93,175,4227,1,0,0:0:0:0:
229,111,4338,5,8,0:0:0:0:
222,123,4393,1,0,0:0:0:0:
216,136,4449,1,0,0:0:0:0:
328,88,4560,5,4,0:0:0:0:
345,103,4616,1,4,0:0:0:0:
358,123,4671,1,4,0:0:0:0:
366,145,4727,1,4,0:0:0:0:
368,168,4782,2,4,P|368:200|352:224,3,47.5
320,276,5005,6,0,L|216:284,1,95,8|0,0:0|0:0,0:0:0:0:
40,240,5227,2,0,L|134:232,1,95
324,152,5449,6,0,L|220:160,1,95,8|0,0:0|0:0,0:0:0:0:
44,116,5671,2,0,L|138:108,1,95
248,48,5893,5,8,0:0:0:0:
408,48,6005,1,0,0:0:0:0:
232,44,6116,2,0,L|248:140,1,95
368,252,6338,5,8,0:0:0:0:
208,252,6449,1,0,0:0:0:0:
384,248,6560,2,0,L|368:344,1,95
152,320,6782,5,8,0:0:0:0:
129,312,6838,1,0,0:0:0:0:
111,297,6893,1,8,0:0:0:0:
99,277,6949,1,0,0:0:0:0:
94,254,7005,1,8,0:0:0:0:
99,231,7060,1,0,0:0:0:0:
111,210,7116,1,8,0:0:0:0:
129,195,7171,1,0,0:0:0:0:
152,188,7227,6,0,P|184:188|208:180,3,47.5,8|0|8|0,0:0|0:0|0:0|0:0,0:0:0:0:
224,92,7449,2,0,P|192:92|168:100,3,47.5,8|0|8|0,0:0|0:0|0:0|0:0,0:0:0:0:
104,72,7671,5,8,0:0:0:0:
80,228,7893,5,0,0:0:0:0:
96,328,8116,5,0,0:0:0:0:
80,228,8338,5,0,0:0:0:0:
184,272,8560,6,0,L|288:280,1,95,8|0,0:0|0:0,0:0:0:0:
340,152,8782,2,0,L|245:144,1,95
120,120,9005,5,8,0:0:0:0:
80,228,9116,1,0,0:0:0:0:
112,108,9227,5,8,0:0:0:0:
72,216,9338,1,0,0:0:0:0:
72,332,9449,6,0,L|176:344,1,95,8|0,0:0|0:0,0:0:0:0:
280,232,9671,2,0,L|185:221,1,95
40,224,9893,5,8,0:0:0:0:
196,132,10005,1,0,0:0:0:0:
40,208,10116,5,8,0:0:0:0:
196,116,10227,1,0,0:0:0:0:
376,100,10338,6,0,P|408:144|416:196,1,95,8|0,0:0|0:0,0:0:0:0:
268,312,10560,2,0,P|239:274|227:229,1,95
356,104,10782,6,0,P|388:148|396:200,1,95,8|0,0:0|0:0,0:0:0:0:
248,316,11005,2,0,P|219:278|207:233,1,95,8|0,0:0|0:0,0:0:0:0:
304,60,11227,5,8,0:0:0:0:
436,180,11338,1,0,0:0:0:0:
268,192,11449,5,4,0:0:0:0:
404,64,11560,1,0,0:0:0:0:
368,272,11671,5,12,0:0:0:0:
232,104,11782,1,0,0:0:0:0:
472,24,11893,5,8,0:0:0:0:
440,332,12005,1,0,0:0:0:0:
272,304,12116,5,4,0:0:0:0:
263,299,12171,1,4,0:0:0:0:
255,294,12227,1,4,0:0:0:0:
246,290,12282,1,4,0:0:0:0:
240,284,12338,2,0,L|196:256,1,47.5,4|0,0:0|0:0,0:0:0:0:
120,148,12560,5,4,0:0:0:0:
120,148,12616,1,4,0:0:0:0:
120,148,12671,1,4,0:0:0:0:
120,148,12727,1,4,0:0:0:0:
120,148,12782,2,8,B|160:140|160:140|208:144,1,71.25,4|0,0:0|0:0,0:0:0:0:
220,160,13004,5,8,0:0:0:0:
316,60,13116,1,8,0:0:0:0:
400,300,13338,5,4,0:0:0:0:
400,300,13393,1,4,0:0:0:0:
400,300,13449,2,0,L|408:216,1,71.25,4|0,0:0|0:0,0:0:0:0:
376,224,13671,2,0,L|384:140,1,71.25,8|0,0:0|0:0,0:0:0:0:
376,60,13893,5,0,0:0:0:0:
380,59,13949,1,0,0:0:0:0:
385,58,14005,1,0,0:0:0:0:
390,58,14060,1,0,0:0:0:0:
395,57,14116,5,4,0:0:0:0:
422,70,14171,1,4,0:0:0:0:
444,92,14227,1,4,0:0:0:0:
456,120,14282,1,4,0:0:0:0:
459,150,14338,1,8,0:0:0:0:
392,270,14449,6,0,L|383:218,1,47.5
362,130,14671,1,0,0:0:0:0:
362,130,14782,6,0,L|291:138,1,71.25,8|0,0:0|0:0,0:0:0:0:
298,169,15005,2,0,L|227:177,1,71.25,8|0,0:0|0:0,0:0:0:0:
238,215,15227,2,0,L|138:226,1,95,10|0,0:0|0:0,0:0:0:0:
50,156,15671,5,8,0:0:0:0:
37,268,15782,1,0,0:0:0:0:
41,143,15893,5,8,0:0:0:0:
28,255,16005,1,0,0:0:0:0:
102,340,16116,2,0,P|155:350|207:337,1,95,8|0,0:0|0:0,0:0:0:0:
294,315,16338,5,8,0:0:0:0:
303,314,16393,1,4,0:0:0:0:
312,313,16449,1,4,0:0:0:0:
322,313,16505,1,4,0:0:0:0:
333,312,16560,6,0,L|433:306,1,95,8|0,0:0|0:0,0:0:0:0:
257,207,16782,2,0,L|357:201,1,95,8|0,0:0|0:0,0:0:0:0:
451,137,17005,5,8,0:0:0:0:
451,137,17060,1,0,0:0:0:0:
451,137,17116,1,0,0:0:0:0:
451,137,17171,1,0,0:0:0:0:
467,153,17227,6,0,L|478:203,3,47.5
443,215,17449,5,6,0:0:0:0:
438,215,17505,1,4,0:0:0:0:
433,216,17560,1,4,0:0:0:0:
428,216,17616,1,4,0:0:0:0:
396,232,17671,5,6,0:0:0:0:
391,233,17727,1,4,0:0:0:0:
386,233,17782,1,4,0:0:0:0:
382,234,17838,1,4,0:0:0:0:
352,253,17893,5,6,0:0:0:0:
347,254,17949,1,4,0:0:0:0:
342,254,18005,1,4,0:0:0:0:
338,255,18060,1,4,0:0:0:0:
310,277,18116,6,0,B|276:269|276:269|235:279|235:279|210:273,1,95,10|0,0:0|0:0,0:0:0:0:
57,302,18560,5,8,0:0:0:0:
42,142,18671,1,0,0:0:0:0:
66,327,18782,2,0,L|61:262,1,47.5
46,117,19005,5,8,0:0:0:0:
120,208,19116,1,8,0:0:0:0:
166,93,19227,5,4,0:0:0:0:
170,91,19282,1,4,0:0:0:0:
174,89,19338,1,4,0:0:0:0:
178,87,19393,1,4,0:0:0:0:
183,85,19449,1,4,0:0:0:0:
292,52,19560,5,0,0:0:0:0:
322,162,19671,5,4,0:0:0:0:
317,164,19727,1,4,0:0:0:0:
313,166,19782,1,4,0:0:0:0:
309,168,19838,1,4,0:0:0:0:
305,170,19893,1,4,0:0:0:0:
120,208,20116,5,8,0:0:0:0:
408,160,20227,1,8,0:0:0:0:
232,336,20449,5,4,0:0:0:0:
232,336,20505,1,4,0:0:0:0:
232,336,20560,2,0,L|220:236,1,95,4|0,0:0|0:0,0:0:0:0:
200,104,20782,1,8,0:0:0:0:
104,288,21005,5,0,0:0:0:0:
104,288,21060,1,0,0:0:0:0:
104,288,21116,2,0,L|92:340,1,47.5
232,336,21227,5,4,0:0:0:0:
232,336,21282,1,4,0:0:0:0:
232,336,21338,2,0,L|244:284,1,47.5,4|4,0:0|0:0,0:0:0:0:
187,188,21449,6,0,P|135:180|91:192,1,95,8|0,0:0|0:0,0:0:0:0:
349,258,21671,2,0,P|401:266|445:254,1,95
372,152,21893,5,8,0:0:0:0:
372,152,21949,1,0,0:0:0:0:
372,152,22005,1,0,0:0:0:0:
280,72,22116,5,8,0:0:0:0:
280,72,22171,1,0,0:0:0:0:
280,72,22227,1,0,0:0:0:0:
192,48,22338,6,0,B|184:92|184:92|192:128|184:164|184:164|188:196,1,142.500005435944,10|0,0:0|0:0,0:0:0:0:
128,300,22782,5,8,0:0:0:0:
212,204,22893,1,0,0:0:0:0:
116,300,23005,5,8,0:0:0:0:
280,276,23116,1,0,0:0:0:0:
104,300,23227,5,8,0:0:0:0:
220,356,23338,1,0,0:0:0:0:
48,244,23449,5,8,0:0:0:0:
40,221,23505,1,0,0:0:0:0:
38,197,23560,1,0,0:0:0:0:
43,174,23616,1,0,0:0:0:0:
56,152,23671,6,0,L|156:136,1,95,8|0,0:0|0:0,0:0:0:0:
186,291,23893,2,0,L|286:275,1,95,8|0,0:0|0:0,0:0:0:0:
372,204,24116,6,0,L|360:156,3,47.5,8|0|0|0,0:0|0:0|0:0|0:0,0:0:0:0:
452,160,24338,2,0,L|463:206,3,47.5
448,304,24560,5,4,0:0:0:0:
426,314,24616,1,4,0:0:0:0:
403,319,24671,1,4,0:0:0:0:
379,319,24727,1,4,0:0:0:0:
356,313,24782,5,4,0:0:0:0:
332,307,24838,1,4,0:0:0:0:
309,307,24893,1,4,0:0:0:0:
286,312,24949,1,4,0:0:0:0:
264,320,25005,6,0,L|160:324,1,95,4|0,0:0|0:0,0:0:0:0:
40,180,25227,5,8,0:0:0:0:
203,48,25338,1,0,0:0:0:0:
195,249,25449,5,0,0:0:0:0:
74,50,25560,1,0,0:0:0:0:
349,131,25671,5,8,0:0:0:0:
51,271,25782,1,0,0:0:0:0:
288,40,25893,6,0,L|276:144,1,95
36,324,26116,2,0,L|46:229,1,95,8|0,0:0|0:0,0:0:0:0:
212,328,26338,5,4,0:0:0:0:
296,324,26449,1,0,0:0:0:0:
196,312,26560,5,4,0:0:0:0:
280,308,26671,1,0,0:0:0:0:
232,240,26782,5,4,0:0:0:0:
316,236,26893,1,8,0:0:0:0:
216,224,27005,5,4,0:0:0:0:
300,220,27116,1,0,0:0:0:0:
250,154,27227,5,12,0:0:0:0:
334,150,27338,1,0,0:0:0:0:
234,138,27449,5,4,0:0:0:0:
318,134,27560,1,0,0:0:0:0:
196,56,27671,6,0,L|300:44,1,95,4|0,0:0|0:0,0:0:0:0:
424,60,27893,5,12,0:0:0:0:
436,152,28005,1,0,0:0:0:0:
334,150,28115,5,4,0:0:0:0:
322,242,28227,1,0,0:0:0:0:
416,236,28337,5,4,0:0:0:0:
428,328,28448,1,0,0:0:0:0:
332,328,28560,6,0,L|228:336,1,95,4|8,0:0|0:0,0:0:0:0:
148,260,28782,2,0,L|44:268,1,95,4|0,0:0|0:0,0:0:0:0:
28,164,29004,6,0,L|80:156,1,47.5,4|0,0:0|0:0,0:0:0:0:
184,176,29115,1,0,0:0:0:0:
124,52,29226,6,0,L|176:44,1,47.5,4|0,0:0|0:0,0:0:0:0:
280,64,29337,1,0,0:0:0:0:
205,180,29448,6,0,L|257:172,1,35.625001358986,4|4,0:0|0:0,0:0:0:0:
361,192,29560,2,0,L|413:184,1,35.625001358986,4|0,0:0|0:0,0:0:0:0:
268,312,29672,5,4,0:0:0:0:
227,279,29727,1,0,0:0:0:0:
205,232,29783,1,4,0:0:0:0:
205,180,29838,1,0,0:0:0:0:
224,132,29893,6,0,L|320:124,1,95,4|0,0:0|0:0,0:0:0:0:
346,244,30116,2,0,L|251:251,1,95,4|0,0:0|0:0,0:0:0:0:
240,144,30338,6,0,L|336:136,1,95,4|8,0:0|0:0,0:0:0:0:
362,256,30560,2,0,L|267:263,1,95,4|0,0:0|0:0,0:0:0:0:
160,308,30782,5,12,0:0:0:0:
96,212,30893,1,0,0:0:0:0:
80,348,31004,5,4,0:0:0:0:
180,176,31115,2,0,L|167:221,1,47.5
160,308,31227,5,4,0:0:0:0:
96,212,31338,1,0,0:0:0:0:
80,348,31449,6,0,L|184:344,1,95,4|0,0:0|0:0,0:0:0:0:
190,208,31671,2,0,L|95:211,1,95,4|0,0:0|0:0,0:0:0:0:
92,328,31893,6,0,L|196:324,1,95,4|0,0:0|0:0,0:0:0:0:
202,188,32116,2,0,L|107:191,1,95,4|0,0:0|0:0,0:0:0:0:
284,280,32338,6,0,P|312:276|332:264,3,47.5
292,208,32560,5,8,0:0:0:0:
304,200,32616,1,0,0:0:0:0:
317,194,32671,1,0,0:0:0:0:
331,191,32727,1,0,0:0:0:0:
345,191,32782,1,0,0:0:0:0:
359,193,32838,1,0,0:0:0:0:
372,197,32893,1,0,0:0:0:0:
385,204,32949,1,0,0:0:0:0:
396,212,33005,1,0,0:0:0:0:
406,223,33060,1,0,0:0:0:0:
413,235,33116,1,0,0:0:0:0:
419,248,33171,1,0,0:0:0:0:
422,262,33227,1,0,0:0:0:0:
422,276,33282,1,0,0:0:0:0:
420,290,33338,1,0,0:0:0:0:
416,304,33393,1,0,0:0:0:0:
412,316,33449,6,0,P|376:348|320:348,1,95,4|0,0:0|0:0,0:0:0:0:
292,208,33671,1,4,0:0:0:0:
344,272,33782,1,0,0:0:0:0:
228,280,33893,6,0,L|132:288,1,95,4|8,0:0|0:0,0:0:0:0:
56,228,34116,1,4,0:0:0:0:
84,140,34227,1,0,0:0:0:0:
168,188,34338,6,0,L|252:144,1,95,12|0,0:0|0:0,0:0:0:0:
312,235,34560,2,0,L|228:279,1,95,4|0,0:0|0:0,0:0:0:0:
128,360,34782,2,0,P|104:320|112:264,1,95,4|0,0:0|0:0,0:0:0:0:
88,172,35005,5,4,0:0:0:0:
64,68,35116,1,0,0:0:0:0:
104,180,35227,5,4,0:0:0:0:
143,80,35338,1,0,0:0:0:0:
120,188,35449,5,4,0:0:0:0:
209,128,35560,1,0,0:0:0:0:
314,100,35671,5,4,0:0:0:0:
290,204,35782,1,8,0:0:0:0:
330,92,35893,5,4,0:0:0:0:
369,192,36005,1,0,0:0:0:0:
346,84,36116,5,12,0:0:0:0:
435,144,36227,1,0,0:0:0:0:
414,266,36338,5,4,0:0:0:0:
414,266,36393,1,0,0:0:0:0:
414,266,36449,1,0,0:0:0:0:
313,301,36560,5,4,0:0:0:0:
313,301,36616,1,0,0:0:0:0:
313,301,36671,2,0,L|263:298,1,47.5
242,201,36782,5,4,0:0:0:0:
242,201,36838,1,0,0:0:0:0:
242,201,36893,2,0,L|292:204,1,47.5
209,128,37005,6,0,B|156:120|156:120|122:124,1,71.25,4|0,0:0|0:0,0:0:0:0:
152,212,37227,6,0,L|162:298,1,71.25,4|0,0:0|0:0,0:0:0:0:
216,340,37448,1,0,0:0:0:0:
216,340,37560,1,8,0:0:0:0:
216,340,37671,1,4,0:0:0:0:
50,306,37893,6,0,B|52:266|52:266|47:229|47:229|51:200,1,95,12|4,0:0|0:0,0:0:0:0:
100,78,38226,1,0,0:0:0:0:
100,78,38282,1,0,0:0:0:0:
100,78,38338,2,0,L|17:81,1,71.25,4|0,0:0|0:0,0:0:0:0:
78,109,38560,6,0,L|223:103,1,142.500005435944,4|4,0:0|0:0,0:0:0:0:
394,67,39005,5,8,0:0:0:0:
394,67,39116,1,8,0:0:0:0:
394,67,39227,2,0,B|375:133|420:180|420:180|420:238,1,166.25,4|0,0:0|0:0,0:0:0:0:
468,293,39671,6,0,L|419:300,1,47.5,8|8,0:0|0:0,0:0:0:0:
296,340,39893,6,0,P|288:331|289:315,3,23.75
208,244,40116,6,0,P|207:232|199:223,3,23.75
248,116,40338,6,0,P|240:107|241:91,3,23.75
332,73,40560,5,2,0:0:0:0:
333,77,40616,1,0,0:0:0:0:
334,82,40671,1,0,0:0:0:0:
335,86,40727,1,0,0:0:0:0:
353,114,40782,5,2,0:0:0:0:
351,118,40838,1,0,0:0:0:0:
350,123,40893,1,0,0:0:0:0:
349,127,40949,1,0,0:0:0:0:
342,159,41005,6,0,L|346:215,7,47.5,2|0|0|0|2|0|0|0,0:0|0:0|0:0|0:0|0:0|0:0|0:0|0:0,0:0:0:0:
300,280,41448,6,0,L|304:336,11,47.5,8|0|0|0|2|0|0|0|2|0|0|0,0:0|0:0|0:0|0:0|0:0|0:0|0:0|0:0|0:0|0:0|0:0|0:0,0:0:0:0:
255,199,42116,5,2,0:0:0:0:
243,191,42171,1,0,0:0:0:0:
230,184,42227,1,0,0:0:0:0:
217,179,42282,1,0,0:0:0:0:
203,174,42338,1,2,0:0:0:0:
189,172,42393,1,0,0:0:0:0:
175,170,42449,1,0,0:0:0:0:
161,170,42505,1,0,0:0:0:0:
147,171,42560,1,2,0:0:0:0:
133,173,42616,1,0,0:0:0:0:
119,176,42671,1,0,0:0:0:0:
105,181,42727,1,0,0:0:0:0:
92,188,42782,6,0,P|66:193|41:190,7,47.5,2|0|0|0|2|0|0|0,0:0|0:0|0:0|0:0|0:0|0:0|0:0|0:0,0:0:0:0:
78,114,43227,6,0,P|104:109|129:112,3,47.5,2|0|0|0,0:0|0:0|0:0|0:0,0:0:0:0:
203,83,43449,6,0,P|226:84|249:79,3,47.5,2|0|0|0,0:0|0:0|0:0|0:0,0:0:0:0:
360,72,43671,5,4,0:0:0:0:
371,92,43727,1,0,0:0:0:0:
376,115,43782,1,0,0:0:0:0:
376,139,43838,1,0,0:0:0:0:
356,168,43893,5,4,0:0:0:0:
345,188,43949,1,0,0:0:0:0:
340,211,44004,1,0,0:0:0:0:
340,235,44060,1,0,0:0:0:0:
364,264,44115,5,2,0:0:0:0:
330,265,44170,1,0,0:0:0:0:
297,267,44226,1,0,0:0:0:0:
264,269,44281,1,0,0:0:0:0:
231,271,44337,5,2,0:0:0:0:
251,228,44392,1,0,0:0:0:0:
290,203,44448,1,0,0:0:0:0:
337,202,44503,1,0,0:0:0:0:
377,226,44560,6,0,P|408:224|436:204,7,47.5,4|0|0|0|0|0|0|0,0:0|0:0|0:0|0:0|0:0|0:0|0:0|0:0,0:0:0:0:
476,272,45004,5,8,0:0:0:0:
461,274,45059,1,8,0:0:0:0:
447,276,45115,1,8,0:0:0:0:
433,278,45170,1,8,0:0:0:0:
408,292,45226,5,0,0:0:0:0:
393,289,45281,1,0,0:0:0:0:
379,287,45337,1,0,0:0:0:0:
365,285,45392,1,0,0:0:0:0:
336,272,45448,5,0,0:0:0:0:
321,274,45503,1,0,0:0:0:0:
307,276,45559,1,0,0:0:0:0:
293,278,45614,1,0,0:0:0:0:
264,292,45671,6,0,L|157:292,1,95,8|0,0:0|0:0,0:0:0:0:
60,204,45893,5,2,0:0:0:0:
282,101,46004,1,2,0:0:0:0:
162,314,46115,1,2,0:0:0:0:
133,71,46226,1,2,0:0:0:0:
299,250,46337,1,2,0:0:0:0:
33,203,46448,5,2,0:0:0:0:
299,79,46559,1,2,0:0:0:0:
155,335,46670,1,2,0:0:0:0:
120,43,46781,1,2,0:0:0:0:
319,258,46892,1,2,0:0:0:0:
33,203,47004,6,0,B|16:156|16:156|16:96,1,95,2|0,0:0|0:0,0:0:0:0:
356,16,47226,2,0,B|373:63|373:63|373:123,1,95,2|0,0:0|0:0,0:0:0:0:
155,335,47448,2,0,B|138:288|138:288|138:242,1,95,2|0,0:0|0:0,0:0:0:0:
384,116,47671,5,2,0:0:0:0:
384,130,47726,1,0,0:0:0:0:
384,144,47782,1,0,0:0:0:0:
384,158,47837,1,0,0:0:0:0:
376,184,47893,5,2,0:0:0:0:
376,198,47948,1,0,0:0:0:0:
376,212,48004,1,0,0:0:0:0:
376,226,48059,1,0,0:0:0:0:
350,253,48116,6,0,P|336:275|309:293,7,47.5,2|0|0|0|2|0|0|0,0:0|0:0|0:0|0:0|0:0|0:0|0:0|0:0,0:0:0:0:
236,336,48560,6,0,L|176:344,11,47.5,8|0|0|0|2|0|0|0|2|0|0|0,0:0|0:0|0:0|0:0|0:0|0:0|0:0|0:0|0:0|0:0|0:0|0:0,0:0:0:0:
260,250,49227,5,2,0:0:0:0:
250,251,49282,1,0,0:0:0:0:
241,252,49338,1,0,0:0:0:0:
231,253,49393,1,0,0:0:0:0:
222,254,49449,1,2,0:0:0:0:
212,255,49505,1,0,0:0:0:0:
203,256,49560,1,0,0:0:0:0:
193,257,49616,1,0,0:0:0:0:
184,258,49671,1,2,0:0:0:0:
174,259,49727,1,0,0:0:0:0:
165,260,49782,1,0,0:0:0:0:
156,261,49838,1,0,0:0:0:0:
146,261,49893,5,2,0:0:0:0:
154,238,49948,1,0,0:0:0:0:
167,218,50004,1,0,0:0:0:0:
184,202,50059,1,0,0:0:0:0:
204,190,50115,1,2,0:0:0:0:
226,182,50170,1,0,0:0:0:0:
250,180,50226,1,0,0:0:0:0:
273,183,50281,1,0,0:0:0:0:
296,191,50337,6,0,P|320:200|340:221,3,47.5,2|0|0|0,0:0|0:0|0:0|0:0,0:0:0:0:
405,278,50560,6,0,P|422:293|444:301,3,47.5,2|0|0|0,0:0|0:0|0:0|0:0,0:0:0:0:
451,222,50782,6,0,L|449:173,3,47.5,4|0|0|0,0:0|0:0|0:0|0:0,0:0:0:0:
374,129,51005,6,0,L|383:78,3,47.5,4|0|0|0,0:0|0:0|0:0|0:0,0:0:0:0:
292,88,51226,5,2,0:0:0:0:
255,58,51281,1,0,0:0:0:0:
209,47,51337,1,0,0:0:0:0:
164,59,51392,1,0,0:0:0:0:
128,90,51448,5,2,0:0:0:0:
160,88,51503,1,0,0:0:0:0:
189,104,51559,1,0,0:0:0:0:
205,133,51614,1,0,0:0:0:0:
203,166,51671,6,0,L|246:146,7,47.5,4|0|0|0|0|0|0|0,0:0|0:0|0:0|0:0|0:0|0:0|0:0|0:0,0:0:0:0:
128,172,52115,5,8,0:0:0:0:
126,186,52170,1,8,0:0:0:0:
125,200,52226,1,8,0:0:0:0:
124,214,52281,1,8,0:0:0:0:
156,232,52337,5,0,0:0:0:0:
165,242,52392,1,0,0:0:0:0:
174,253,52448,1,0,0:0:0:0:
183,264,52503,1,0,0:0:0:0:
212,252,52560,5,0,0:0:0:0:
225,252,52615,1,0,0:0:0:0:
239,254,52671,1,0,0:0:0:0:
253,255,52726,1,0,0:0:0:0:
270,283,52782,6,0,L|369:276,1,95,8|0,0:0|0:0,0:0:0:0:
484,216,53004,5,2,0:0:0:0:
270,61,53115,1,2,0:0:0:0:
297,242,53226,5,2,0:0:0:0:
449,34,53337,1,2,0:0:0:0:
200,44,53449,6,0,P|148:48|108:76,1,95,2|2,0:0|0:0,0:0:0:0:
28,209,53671,6,0,P|27:232|39:253,3,47.5,2|0|0|0,0:0|0:0|0:0|0:0,0:0:0:0:
104,222,53893,5,8,0:0:0:0:
119,232,53949,1,0,0:0:0:0:
135,242,54005,1,8,0:0:0:0:
153,250,54060,1,0,0:0:0:0:
170,257,54116,1,8,0:0:0:0:
189,261,54171,1,0,0:0:0:0:
208,262,54227,1,8,0:0:0:0:
227,260,54282,1,0,0:0:0:0:
245,255,54338,1,8,0:0:0:0:
262,246,54393,1,0,0:0:0:0:
277,235,54449,1,8,0:0:0:0:
292,223,54505,1,0,0:0:0:0:
308,213,54560,1,8,0:0:0:0:
326,207,54616,1,0,0:0:0:0:
345,205,54671,1,8,0:0:0:0:
364,205,54727,1,0,0:0:0:0:
380,208,54782,6,0,P|440:228|520:208,1,142.500005435944,4|4,0:0|0:0,0:0:0:0:
211,119,55226,2,0,L|207:271,1,142.500005435944,4|4,0:0|0:0,0:0:0:0:
420,328,55671,5,8,0:0:0:0:
348,116,55782,1,8,0:0:0:0:
72,144,56004,5,4,0:0:0:0:
72,144,56060,1,4,0:0:0:0:
72,144,56115,2,0,L|68:272,1,106.875004076958,4|0,0:0|0:0,0:0:0:0:
24,324,56337,2,0,B|68:352|124:304|172:336,1,142.5,8|0,0:0|0:0,0:0:0:0:
248,336,56560,5,0,0:0:0:0:
246,326,56615,1,0,0:0:0:0:
244,317,56671,1,0,0:0:0:0:
243,307,56726,1,0,0:0:0:0:
240,300,56782,5,4,0:0:0:0:
287,297,56837,1,4,0:0:0:0:
334,294,56893,1,4,0:0:0:0:
382,291,56948,1,4,0:0:0:0:
429,288,57004,1,4,0:0:0:0:
343,340,57115,6,0,L|331:276,1,47.5
308,168,57337,1,0,0:0:0:0:
308,168,57448,6,0,L|232:176,1,71.25,8|0,0:0|0:0,0:0:0:0:
240,204,57671,2,0,L|164:212,1,71.25,8|0,0:0|0:0,0:0:0:0:
184,248,57893,2,0,L|85:258,1,95,2|0,0:0|0:0,0:0:0:0:
172,68,58318,6,0,L|272:72,2,95
64,152,58984,2,0,L|60:256,1,95,2|0,0:0|0:0,0:0:0:0:
272,272,59428,1,0,0:0:0:0:
272,272,59650,2,0,L|275:177,1,95,0|2,0:0|0:0,0:0:0:0:
108,304,60095,1,0,0:0:0:0:
108,304,60317,2,0,P|156:324|212:308,1,95
364,308,60761,5,8,0:0:0:0:
361,281,60816,1,0,0:0:0:0:
359,255,60872,1,8,0:0:0:0:
357,229,60927,1,0,0:0:0:0:
392,244,60984,5,8,0:0:0:0:
394,217,61039,1,0,0:0:0:0:
396,191,61095,1,8,0:0:0:0:
398,165,61150,1,0,0:0:0:0:
435,168,61206,5,8,0:0:0:0:
432,141,61261,1,0,0:0:0:0:
430,115,61317,1,8,0:0:0:0:
428,89,61372,1,0,0:0:0:0:
361,47,61428,6,0,B|331:45|309:57|309:57|295:46|295:46|228:81|145:38,1,213.750008153916,10|0,0:0|0:0,0:0:0:0:
112,104,61650,1,4,0:0:0:0:
286,291,62095,1,4,0:0:0:0:
361,47,62539,1,4,0:0:0:0:
112,104,62983,1,4,0:0:0:0:
286,291,63428,1,4,0:0:0:0:
360,212,63650,5,0,0:0:0:0:
307,178,63724,1,0,0:0:0:0:
245,182,63798,1,0,0:0:0:0:
197,222,63872,2,0,L|396:208,1,190,2|0,0:0|0:0,0:0:0:0:
112,104,64317,6,0,L|104:208,1,95,8|0,0:0|0:0,0:0:0:0:
360,212,64539,2,0,L|367:117,1,95,8|0,0:0|0:0,0:0:0:0:
76,88,64761,6,0,L|65:223,1,95,8|0,0:0|0:0,0:0:0:0:
398,228,64983,2,0,L|407:104,1,95,8|0,0:0|0:0,0:0:0:0:
244,300,65206,6,0,L|340:316,1,95,8|0,0:0|0:0,0:0:0:0:
209,79,65428,2,0,L|115:63,1,95,8|0,0:0|0:0,0:0:0:0:
284,288,65650,6,0,L|379:270,1,95,8|0,0:0|0:0,0:0:0:0:
175,92,65872,2,0,L|81:109,1,95,8|8,0:0|0:0,0:0:0:0:
316,176,66095,5,8,0:0:0:0:
316,176,66150,1,0,0:0:0:0:
316,176,66206,1,0,0:0:0:0:
316,176,66261,1,0,0:0:0:0:
316,176,66317,2,0,P|336:136|328:80,1,95,8|0,0:0|0:0,0:0:0:0:
108,148,66539,1,8,0:0:0:0:
240,340,66650,1,8,0:0:0:0:
308,164,66761,5,8,0:0:0:0:
308,164,66816,1,0,0:0:0:0:
308,164,66872,1,0,0:0:0:0:
308,164,66927,1,0,0:0:0:0:
308,164,66983,2,0,P|302:119|265:76,1,95,8|0,0:0|0:0,0:0:0:0:
118,253,67205,1,8,0:0:0:0:
333,342,67316,1,8,0:0:0:0:
300,152,67428,5,8,0:0:0:0:
300,152,67483,1,0,0:0:0:0:
300,152,67539,1,0,0:0:0:0:
300,152,67594,1,0,0:0:0:0:
300,152,67650,2,0,P|271:117|217:101,1,95,8|0,0:0|0:0,0:0:0:0:
189,330,67872,6,0,L|236:344,3,47.5,8|0|8|0,0:0|0:0|0:0|0:0,0:0:0:0:
300,280,68095,2,0,L|347:294,3,47.5,8|0|8|0,0:0|0:0|0:0|0:0,0:0:0:0:
384,216,68317,5,8,0:0:0:0:
398,197,68372,1,0,0:0:0:0:
407,175,68428,1,8,0:0:0:0:
410,151,68483,1,0,0:0:0:0:
406,128,68539,1,8,0:0:0:0:
398,106,68594,1,0,0:0:0:0:
383,87,68650,1,8,0:0:0:0:
365,72,68705,1,0,0:0:0:0:
344,64,68761,6,0,L|288:64,3,47.5,8|0|8|0,0:0|0:0|0:0|0:0,0:0:0:0:
228,112,68983,2,0,L|172:112,3,47.5,8|0|8|0,0:0|0:0|0:0|0:0,0:0:0:0:
224,200,69206,2,0,L|228:256,7,47.5,8|0|8|0|8|0|8|0,0:0|0:0|0:0|0:0|0:0|0:0|0:0|0:0,0:0:0:0:
136,224,69650,5,8,0:0:0:0:
117,227,69705,1,0,0:0:0:0:
98,231,69761,1,0,0:0:0:0:
80,234,69816,1,0,0:0:0:0:
61,238,69872,5,8,0:0:0:0:
94,240,69927,1,0,0:0:0:0:
127,243,69983,1,0,0:0:0:0:
160,246,70038,1,0,0:0:0:0:
193,248,70094,5,8,0:0:0:0:
175,221,70150,1,0,0:0:0:0:
167,189,70206,1,0,0:0:0:0:
170,156,70261,1,0,0:0:0:0:
188,128,70317,5,8,0:0:0:0:
190,174,70372,1,0,0:0:0:0:
192,221,70428,1,0,0:0:0:0:
194,269,70483,1,0,0:0:0:0:
172,348,70539,6,0,L|231:348,3,47.5,8|0|0|0,0:0|0:0|0:0|0:0,0:0:0:0:
384,336,70761,2,0,L|442:335,3,47.5
300,272,70983,5,8,0:0:0:0:
280,258,71038,1,8,0:0:0:0:
265,240,71094,1,8,0:0:0:0:
255,219,71149,1,8,0:0:0:0:
251,195,71205,1,8,0:0:0:0:
254,172,71260,1,0,0:0:0:0:
263,150,71316,1,0,0:0:0:0:
277,131,71371,1,0,0:0:0:0:
296,117,71427,5,0,0:0:0:0:
256,192,71483,12,2,74095,0:0:0:0:
