osu file format v14

[General]
AudioFilename: Senseless Massacre Short edit.mp3
AudioLeadIn: 0
PreviewTime: 40504
Countdown: 0
SampleSet: Normal
StackLeniency: 0.7
Mode: 0
LetterboxInBreaks: 1
WidescreenStoryboard: 1

[Editor]
Bookmarks: 12115,15671,17004,17448,22782,25226,26337,27893,29893,31448,33448,35004,38560,45671,46560,47671,52782,53671,67872,71428,74095,79428
DistanceSpacing: 3
BeatDivisor: 4
GridSize: 8
TimelineZoom: 2

[Metadata]
Title:Senseless Massacre (Cut Ver.)
TitleUnicode:Senseless Massacre (Cut Ver.)
Artist:Rings of Saturn
ArtistUnicode:Rings of Saturn
Creator:HML
Version:MrKOSIEJ's Sliderfest
Source:
Tags:stream deathcore technical death metal english Lugal Ki En mapper headphonewearer MrKosiej Chaotic Neutral Flare-kun Flarekun Fenza Broly Irate
BeatmapID:1301230
BeatmapSetID:507278

[Difficulty]
HPDrainRate:6
CircleSize:3
OverallDifficulty:9
ApproachRate:9.6
SliderMultiplier:1.8
SliderTickRate:1

[Events]
//Background and Video events
0,0,"BG.jpg",0,0
//Break Periods
//Storyboard Layer 0 (Background)
//Storyboard Layer 1 (Fail)
//Storyboard Layer 2 (Pass)
//Storyboard Layer 3 (Foreground)
//Storyboard Layer 4 (Overlay)
//Storyboard Sound Samples

[TimingPoints]
1449,222.222222222222,4,1,1,65,1,0
7893,-100,4,2,0,35,0,0
8560,-100,4,1,1,65,0,0
12115,-133.333333333333,4,1,1,65,0,0
14782,-100,4,1,1,65,0,0
34337,-76.9230769230769,4,1,1,65,0,0
34782,-100,4,1,1,65,0,0
37004,-76.9230769230769,4,1,1,65,0,0
40560,-76.9230769230769,4,1,1,65,0,1
44115,-76.9230769230769,4,1,1,65,0,0
51226,-76.9230769230769,4,1,1,65,0,0
53004,-76.9230769230769,4,1,1,65,0,1
54782,-76.9230769230769,4,1,1,65,0,0
58318,222.222222222222,4,2,0,35,1,0
58318,-200,4,2,0,35,0,0
58984,222.222222222222,4,2,1,50,1,0
58984,-200,4,2,1,50,0,0
60317,-133.333333333333,4,2,1,50,0,0
60761,-100,4,1,1,65,0,0
61649,-200,4,1,1,65,0,0
63872,-149.253731343284,4,1,1,65,0,0
64094,-119.047619047619,4,1,1,65,0,0
64316,-100,4,1,1,65,0,0
74039,-100,4,1,1,5,0,0

[Colours]
Combo1 : 247,221,79
Combo2 : 64,136,255
Combo3 : 168,68,68
Combo4 : 154,79,255

[HitObjects]
396,164,1449,6,0,L|437:214,3,45
391,237,1671,2,0,L|401:301,3,45
350,299,1893,2,0,L|327:359,3,45
284,331,2115,2,0,L|234:373,3,45
210,327,2337,6,0,B|152:336|152:336|90:277,1,135
143,182,2560,2,0,L|193:226,1,45
42,188,2671,6,0,L|-8:144,3,45
50,132,2893,2,0,L|13:77,3,45
72,81,3115,2,0,L|51:18,1,45
108,36,3226,6,0,B|136:122|136:122|178:162,1,135
351,73,3448,2,0,B|262:54|262:54|206:70,1,135
211,269,3671,2,0,B|271:201|271:201|285:145,1,135
108,36,3893,2,0,B|136:122|136:122|178:162,1,135
330,269,4115,6,0,L|375:303,2,45
399,212,4337,2,0,L|444:246,2,45
211,269,4560,6,0,L|166:235,3,45
159,284,4782,2,0,L|114:250,3,45
106,298,5004,6,0,L|24:239,1,90
168,152,5226,2,0,L|241:204,1,90
102,199,5448,6,0,L|20:140,1,90
164,53,5670,2,0,L|237:105,1,90
354,190,5893,6,0,B|402:225|402:225|439:218,1,90
422,93,6115,2,0,B|374:58|374:58|337:65,1,90
169,202,6337,6,0,B|217:237|217:237|254:230,1,90
237,105,6559,2,0,B|189:70|189:70|152:77,1,90
35,105,6782,6,0,L|92:143,3,45
20,165,7004,2,0,L|84:187,3,45
21,227,7226,2,0,L|89:231,3,45
38,286,7448,2,0,L|105:273,3,45
82,342,7671,6,0,B|199:316|199:316|244:266,1,180
394,34,8115,2,0,B|277:60|277:60|232:110,1,180
397,250,8560,6,0,L|473:167,1,90
236,104,8782,2,0,L|160:187,1,90
239,271,9004,6,0,L|315:188,1,90
78,125,9226,2,0,L|2:208,1,90
78,257,9448,6,0,L|2:174,1,90
236,104,9670,2,0,L|312:187,1,90
239,271,9892,6,0,L|163:188,1,90
397,117,10114,2,0,L|473:200,1,90
444,291,10337,6,0,P|391:272|364:239,1,90
457,96,10560,2,0,P|467:151|451:191,1,90
286,187,10782,2,0,P|328:150|371:143,1,90
444,291,11004,2,0,P|391:272|364:239,1,90
239,86,11226,6,0,B|202:40|202:40|159:29,1,90
206,218,11448,2,0,B|264:208|264:208|295:177,1,90
100,143,11671,2,0,B|78:198|78:198|90:240,1,90
239,86,11893,2,0,B|202:40|202:40|159:29,1,90
13,135,12115,6,0,L|-6:184,2,33.7500012874604
100,143,12337,2,0,L|119:94,2,33.7500012874604
188,149,12560,2,0,L|169:198,2,33.7500012874604
275,156,12782,2,0,L|245:234,1,67.5000025749208
344,315,13004,6,0,P|368:322|384:318,4,33.7500012874604
385,201,13337,2,0,P|429:196|468:210,2,67.5000025749208
219,320,13671,6,0,P|143:315|113:296,1,101.250003862381
186,215,13893,2,0,L|198:183,7,33.7500012874604
122,303,14337,2,0,P|168:322|209:320,1,67.5000025749208
310,112,14560,2,0,P|280:96|246:91,1,67.5000025749208
98,156,14782,6,0,L|85:187,3,33.7500012874604
284,243,15004,2,0,L|296:211,3,33.7500012874604
246,91,15226,2,0,B|216:91|194:109|194:109|203:60|254:31|314:59|344:90|344:90|384:129|431:108,1,315
492,42,15671,6,0,P|448:29|390:40,1,90
462,204,15893,2,0,P|495:172|514:116,1,90
350,209,16115,2,0,P|360:253|399:298,1,90
462,204,16337,2,0,L|438:153,3,45
386,288,16560,6,0,L|283:288,1,90
177,206,16782,2,0,L|280:206,1,90
211,338,17004,6,0,L|108:338,1,90
3,256,17226,2,0,L|106:256,1,90
267,206,17448,6,0,L|327:244,1,45
284,190,17560,2,0,L|316:252,1,45
306,184,17671,2,0,L|303:254,1,45
328,190,17782,2,0,L|289:250,1,45
343,207,17893,2,0,L|280:239,1,45
348,229,18004,2,0,L|277:226,1,45
328,264,18115,2,0,B|276:178|276:178|276:129,1,135
376,51,18337,6,0,L|376:154,1,90
188,251,18560,2,0,B|161:206|161:206|115:184|115:134,1,135
120,24,18782,2,0,B|147:69|147:69|193:91|193:141,1,135
102,269,19004,2,0,L|87:315,1,45
45,201,19115,2,0,L|9:233,1,45
43,117,19226,6,0,L|-4:127,2,45
270,65,19448,2,0,L|317:54,2,45
188,251,19671,6,0,P|245:269|327:246,1,135
386,180,19893,2,0,P|329:162|247:185,1,135
316,252,20115,6,0,L|368:332,1,90
210,84,20448,2,0,L|184:43,2,45
386,180,20782,6,0,P|404:122|381:41,1,135
257,178,21004,2,0,L|281:216,3,45
208,216,21226,2,0,L|241:246,3,45
169,258,21448,2,0,L|208:278,3,45
141,309,21671,6,0,L|184:318,1,45
320,312,21782,2,0,L|276:321,1,45
50,294,21893,6,0,L|69:247,2,45
409,300,22115,2,0,L|390:253,2,45
126,107,22337,6,0,B|207:29|207:29|244:29,1,135
344,31,22560,2,0,B|263:109|263:109|226:109,1,135
59,119,22782,6,0,L|131:52,1,90
150,235,23004,2,0,L|55:206,1,90
207,100,23226,2,0,L|229:195,1,90
131,318,23448,2,0,L|73:301,3,45
220,343,23671,6,0,L|292:276,1,90
483,97,23893,2,0,L|411:164,1,90
131,318,24115,6,0,L|252:206,1,135
330,135,24337,2,0,L|209:247,1,135
93,243,24560,6,0,L|130:208,3,45
89,154,24782,2,0,L|138:142,3,45
130,76,25004,2,0,L|179:90,3,45
205,29,25226,6,0,L|239:66,1,45
237,17,25337,2,0,L|234:67,1,45
268,31,25448,2,0,L|231:65,1,45
280,63,25560,2,0,L|229:61,1,45
263,97,25671,6,0,L|212:98,1,45
274,143,25782,2,0,L|238:179,1,45
315,169,25893,2,0,L|316:219,1,45
369,164,26004,2,0,L|405:199,1,45
465,160,26115,6,0,L|428:195,1,45
464,255,26226,2,0,L|431:224,1,45
350,264,26337,6,0,L|277:195,1,90
349,32,26560,2,0,L|422:101,1,90
211,271,26782,6,0,L|138:202,1,90
210,39,27005,2,0,L|283:108,1,90
77,280,27226,6,0,B|47:231|47:231|53:188,1,90
203,146,27448,2,0,B|175:196|175:196|135:212,1,90
31,92,27671,2,0,B|88:90|88:90|122:117,1,90
251,252,27893,6,0,P|309:281|350:275,2,90
317,191,28226,2,0,P|375:162|416:168,2,90
187,317,28560,6,0,L|88:352,1,90
92,168,28782,2,0,L|181:185,1,90
288,40,29004,6,0,L|193:-5,1,90
65,29,29226,2,0,L|-6:43,2,45
424,25,29448,6,0,L|491:37,3,45
408,103,29671,2,0,L|472:79,3,45
434,177,29893,6,0,L|505:96,1,90
288,40,30115,2,0,L|216:120,1,90
227,287,30337,6,0,L|298:206,1,90
81,150,30559,2,0,L|9:230,1,90
363,337,30782,6,0,B|399:295|399:295|404:254,1,90
240,146,31004,2,0,B|258:198|258:198|291:223,1,90
453,153,31226,2,0,B|398:142|398:142|360:158,1,90
157,237,31448,6,0,L|210:385,1,135
301,261,31671,2,0,L|284:213,2,45
90,340,31893,6,0,L|44:212,1,135
90,85,32115,2,0,L|44:212,1,135
138,310,32337,2,0,L|92:182,1,135
139,52,32560,6,0,L|122:101,3,45
214,85,32782,2,0,L|174:118,3,45
261,154,33004,2,0,L|210:163,3,45
264,239,33226,2,0,L|215:222,3,45
234,314,33448,6,0,L|173:243,1,90
349,195,33671,2,0,L|410:266,1,90
261,154,33893,6,0,L|200:83,1,90
376,35,34116,2,0,L|437:106,1,90
407,263,34337,6,0,P|364:323|318:340,1,116.999994644165
168,235,34560,2,0,P|241:242|279:273,1,116.999994644165
98,307,34782,2,0,P|67:239|75:191,1,116.999994644165
140,91,35004,6,0,P|196:70|239:71,2,90
261,154,35337,2,0,P|317:175|360:174,2,90
330,70,35671,2,0,P|394:102|416:134,1,90
248,263,35893,2,0,P|183:230|161:198,1,90
140,91,36115,6,0,L|136:46,2,45
95,158,36337,2,0,L|69:121,2,45
79,238,36560,2,0,L|38:218,2,45
91,317,36782,2,0,L|46:321,3,45
182,358,37004,6,0,L|312:340,1,116.999994644165
376,137,37226,2,0,L|246:155,1,116.999994644165
248,263,37448,6,0,L|378:245,1,116.999994644165
442,42,37670,2,0,L|312:60,1,116.999994644165
91,86,37893,6,0,B|55:140|55:140|67:192,1,116.999994644165
248,263,38115,2,0,B|219:204|219:204|168:189,1,116.999994644165
39,323,38337,2,0,B|103:327|103:327|142:290,1,116.999994644165
306,123,38560,6,0,L|366:249,1,116.999994644165
408,333,38782,2,0,L|479:353,2,58.4999973220826
317,79,39004,6,0,L|377:205,1,116.999994644165
419,289,39226,2,0,L|490:309,2,58.4999973220826
159,218,39448,2,0,L|102:202,2,58.4999973220826
317,79,39671,6,0,L|357:22,1,58.4999973220826
365,124,39782,2,0,L|428:95,1,58.4999973220826
384,188,39893,2,0,L|453:194,1,58.4999973220826
369,253,40004,2,0,L|426:293,1,58.4999973220826
323,301,40115,6,0,L|352:364,1,58.4999973220826
247,292,40226,2,0,L|304:331,1,58.4999973220826
177,316,40337,2,0,L|246:322,1,58.4999973220826
129,372,40448,2,0,L|192:342,1,58.4999973220826
22,309,40560,6,0,P|74:242|183:220,1,175.499991966248
158,217,40782,2,0,P|75:192|21:125,1,175.499991966248
146,89,41004,2,0,L|182:43,7,58.4999973220826
262,100,41448,2,0,L|316:78,11,58.4999973220826
342,174,42115,6,0,L|399:182,11,58.4999973220826
354,271,42782,2,0,L|399:307,7,58.4999973220826
272,329,43226,6,0,L|293:383,1,58.4999973220826
246,330,43337,2,0,L|267:384,1,58.4999973220826
136,304,43448,6,0,L|157:358,1,58.4999973220826
110,305,43559,2,0,L|131:359,1,58.4999973220826
218,246,43671,6,0,L|196:191,1,58.4999973220826
244,245,43782,2,0,L|222:190,1,58.4999973220826
354,271,43893,6,0,L|332:216,1,58.4999973220826
380,270,44004,2,0,L|358:215,1,58.4999973220826
506,254,44115,6,0,L|450:125,1,116.999994644165
323,18,44337,2,0,L|379:147,1,116.999994644165
486,273,44560,6,0,L|430:144,1,116.999994644165
303,37,44782,2,0,L|359:166,1,116.999994644165
424,315,45004,6,0,L|453:381,2,58.4999973220826
285,292,45226,2,0,L|277:363,2,58.4999973220826
155,238,45448,2,0,L|112:296,2,58.4999973220826
239,124,45671,6,0,L|280:68,3,58.4999973220826
316,160,45893,2,0,L|323:91,3,58.4999973220826
400,155,46115,2,0,L|372:91,3,58.4999973220826
469,113,46337,2,0,L|413:72,3,58.4999973220826
485,220,46560,6,0,L|510:283,1,58.4999973220826
431,240,46671,2,0,L|484:282,1,58.4999973220826
394,284,46782,2,0,L|461:293,1,58.4999973220826
384,339,46893,2,0,L|447:314,1,58.4999973220826
326,353,47004,6,0,L|301:290,1,58.4999973220826
271,343,47115,2,0,L|280:275,1,58.4999973220826
227,306,47226,2,0,L|269:252,1,58.4999973220826
207,252,47337,2,0,L|270:227,1,58.4999973220826
203,189,47448,2,0,L|270:198,1,58.4999973220826
227,127,47560,2,0,L|280:169,1,58.4999973220826
277,86,47671,6,0,L|397:243,1,175.499991966248
383,225,47893,2,0,L|489:85,1,175.499991966248
415,26,48115,2,0,L|370:87,7,58.4999973220826
277,86,48560,2,0,L|322:147,11,58.4999973220826
261,230,49226,6,0,L|216:291,11,58.4999973220826
162,191,49893,2,0,L|92:221,7,58.4999973220826
104,108,50337,6,0,L|28:99,1,58.4999973220826
99,77,50448,2,0,L|23:68,1,58.4999973220826
201,33,50560,6,0,L|259:26,1,58.4999973220826
196,64,50671,2,0,L|254:57,1,58.4999973220826
249,191,50782,6,0,L|173:182,1,58.4999973220826
244,160,50893,2,0,L|168:151,1,58.4999973220826
346,116,51004,6,0,L|421:107,1,58.4999973220826
341,147,51115,2,0,L|416:138,1,58.4999973220826
331,237,51226,6,0,L|311:367,1,116.999994644165
82,314,51448,2,0,L|99:198,1,116.999994644165
452,174,51671,6,0,L|432:304,1,116.999994644165
203,251,51893,2,0,L|220:135,1,116.999994644165
364,56,52115,6,0,L|442:17,2,58.4999973220826
247,51,52337,2,0,L|295:-21,2,58.4999973220826
139,98,52560,2,0,L|144:10,2,58.4999973220826
79,198,52782,6,0,L|73:285,3,58.4999973220826
147,205,53004,2,0,L|98:277,3,58.4999973220826
203,251,53226,2,0,L|125:290,3,58.4999973220826
228,318,53448,2,0,L|140:312,3,58.4999973220826
325,325,53671,6,0,L|412:330,1,58.4999973220826
345,268,53782,2,0,L|417:316,1,58.4999973220826
395,229,53893,2,0,L|433:307,1,58.4999973220826
430,175,54004,2,0,L|456:122,1,58.4999973220826
398,108,54115,2,0,L|409:50,1,58.4999973220826
324,90,54226,2,0,L|320:31,1,58.4999973220826
254,114,54337,2,0,L|221:65,1,58.4999973220826
218,171,54448,2,0,L|160:159,1,58.4999973220826
230,241,54560,2,0,L|191:284,3,58.4999973220826
311,189,54782,6,0,P|326:256|301:303,1,116.999994644165
77,208,55004,2,0,P|62:141|87:94,1,116.999994644165
346,193,55226,6,0,P|361:260|336:307,1,116.999994644165
112,212,55448,2,0,P|97:145|122:98,1,116.999994644165
398,108,55671,6,0,L|477:109,2,58.4999973220826
80,305,56004,2,0,L|1:304,2,58.4999973220826
346,193,56337,6,0,P|361:260|292:341,1,175.499991966248
263,249,56560,2,0,L|239:191,3,58.4999973220826
177,226,56782,2,0,L|185:163,3,58.4999973220826
113,164,57004,2,0,L|151:114,3,58.4999973220826
90,76,57226,6,0,B|155:58|155:58|214:97,1,116.999994644165
346,193,57448,2,0,L|415:242,2,58.4999973220826
312,55,57671,2,0,L|243:6,2,58.4999973220826
177,226,57893,2,0,B|123:185|123:185|112:240|53:271|53:271|106:248|179:327|112:387|27:385|14:291,1,409.499981254578
177,226,60761,6,0,L|226:260,3,45
232,161,60984,2,0,L|257:214,3,45
312,135,61206,2,0,L|307:194,3,45
392,145,61428,2,0,L|357:193,3,45
177,226,64317,6,0,B|224:258|224:258|271:255,1,90
328,201,64539,2,0,B|280:169|280:169|234:172,1,90
162,180,64761,6,0,B|189:237|189:237|235:260,1,90
319,240,64983,2,0,B|292:183|292:183|246:160,1,90
172,129,65206,6,0,B|167:198|167:198|199:245,1,90
290,272,65428,2,0,B|295:204|295:204|263:156,1,90
210,86,65650,6,0,B|168:149|168:149|171:193,1,90
244,287,65872,2,0,B|286:225|286:225|284:188,1,90
270,66,66095,6,0,B|195:103|195:103|174:146,1,90
191,276,66317,2,0,B|266:240|266:240|284:203,1,90
338,80,66539,6,0,P|247:74|247:74,1,90
148,237,66761,2,0,P|239:244|239:244,1,90
395,131,66983,6,0,P|312:75|312:75,1,90
128,176,67205,2,0,P|212:232|212:232,1,90
422,211,67428,6,0,P|374:111|374:111,1,90
182,187,67872,6,0,B|191:206|143:106,1,90
383,130,68095,2,0,B|374:111|422:211,1,90
202,226,68318,6,0,B|212:232|128:176,1,90
321,81,68540,2,0,B|312:75|395:131,1,90
238,243,68762,6,0,B|239:244|148:237,1,90
249,74,68984,2,0,B|247:74|338:80,1,90
269,234,69206,6,0,B|266:240|266:240|191:276,1,90
192,109,69428,2,0,B|195:103|195:103|270:66,1,90
285,210,69651,6,0,B|286:225|286:225|244:287,1,90
169,163,69873,2,0,B|168:149|168:149|210:86,1,90
283,186,70095,6,0,B|295:204|295:204|290:272,1,90
179,216,70317,2,0,B|167:198|167:198|172:129,1,90
267,171,70540,6,0,B|292:183|292:183|319:240,1,90
213,249,70762,2,0,B|189:237|189:237|162:180,1,90
309,80,70983,2,0,L|364:80,2,45
86,236,71206,2,0,L|157:380,1,135
256,192,71428,12,0,74095,0:0:0:0:
