osu file format v14

[General]
AudioFilename: Senseless Massacre Short edit.mp3
AudioLeadIn: 0
PreviewTime: 40504
Countdown: 0
SampleSet: Normal
StackLeniency: 0.7
Mode: 0
LetterboxInBreaks: 1
WidescreenStoryboard: 0

[Editor]
Bookmarks: 71428
DistanceSpacing: 2.4
BeatDivisor: 4
GridSize: 4
TimelineZoom: 1.62

[Metadata]
Title:Senseless Massacre (Cut Ver.)
TitleUnicode:Senseless Massacre (Cut Ver.)
Artist:Rings of Saturn
ArtistUnicode:Rings of Saturn
Creator:HML
Version:Hard
Source:
Tags:stream deathcore technical death metal english Lugal Ki En mapper headphonewearer MrKosiej Chaotic Neutral Flare-kun Flarekun Fenza Broly Irate
BeatmapID:1079031
BeatmapSetID:507278

[Difficulty]
HPDrainRate:5.5
CircleSize:3.5
OverallDifficulty:7
ApproachRate:8
SliderMultiplier:1.2
SliderTickRate:1

[Events]
//Background and Video events
0,0,"BG.jpg",0,0
//Break Periods
2,58092,60011
//Storyboard Layer 0 (Background)
//Storyboard Layer 1 (Fail)
//Storyboard Layer 2 (Pass)
//Storyboard Layer 3 (Foreground)
//Storyboard Layer 4 (Overlay)
//Storyboard Sound Samples

[TimingPoints]
1449,222.222222222222,4,1,1,65,1,0
6782,-200,4,1,1,65,0,0
7671,-100,4,1,1,65,0,0
12115,-133.333333333333,4,1,1,65,0,0
13337,-200,4,1,1,65,0,0
14782,-133.333333333333,4,1,1,65,0,0
15671,-100,4,1,1,65,0,0
20448,-133.333333333333,4,1,1,65,0,0
20782,-133.333333333333,4,1,1,65,0,0
21893,-133.333333333333,4,1,1,65,0,0
22782,-100,4,1,1,65,0,0
39671,-133.333333333333,4,1,1,65,0,0
40448,-133.333333333333,4,2,1,5,0,0
40560,-100,4,1,2,65,0,1
42115,-100,4,1,1,65,0,1
42337,-100,4,1,2,65,0,1
43226,-100,4,1,1,65,0,1
44115,-100,4,1,1,65,0,0
44337,-111.111111111111,4,1,1,65,0,0
45004,-100,4,1,1,65,0,0
45893,-100,4,1,2,65,0,1
46560,-100,4,1,1,65,0,1
46782,-100,4,1,2,65,0,1
47671,-100,4,1,1,65,0,1
47893,-100,4,1,2,65,0,1
49226,-100,4,1,1,65,0,1
49448,-100,4,1,2,65,0,1
50337,-100,4,1,1,65,0,1
51226,-100,4,1,1,65,0,0
51448,-111.111111111111,4,1,1,65,0,0
52115,-100,4,1,1,65,0,0
53004,-100,4,1,2,65,0,1
54782,-100,4,1,1,65,0,0
56004,-133.333333333333,4,1,1,65,0,0
56337,-200,4,1,1,65,0,0
57448,-133.333333333333,4,1,1,65,0,0
58318,222.222222222222,4,1,1,65,1,0
58984,222.222222222222,4,1,1,65,1,0
64317,-100,4,1,3,65,0,0
69650,-100,4,1,1,65,0,0
73983,-100,4,1,1,20,0,0

[Colours]
Combo1 : 247,221,79
Combo2 : 64,136,255
Combo3 : 168,68,68
Combo4 : 154,79,255

[HitObjects]
217,174,1449,6,0,L|98:176,1,120,8|0,0:0|0:0,0:0:0:0:
50,65,1893,1,4,0:0:0:0:
181,48,2115,1,0,0:0:0:0:
296,112,2337,2,0,P|339:173|332:220,1,120,8|0,0:0|0:0,0:0:0:0:
280,294,2782,2,0,P|237:233|244:186,1,120,0|0,0:0|0:0,0:0:0:0:
149,220,3226,5,2,0:0:0:0:
57,235,3448,1,0,0:0:0:0:
95,155,3671,5,2,0:0:0:0:
187,140,3893,1,0,0:0:0:0:
138,60,4115,6,0,L|265:45,1,120,8|8,0:0|0:0,0:0:0:0:
410,112,4560,2,4,L|290:126,1,120,4|0,0:0|0:0,0:0:0:0:
95,155,5004,5,8,0:0:0:0:
212,248,5226,1,0,0:0:0:0:
80,283,5448,1,8,0:0:0:0:
187,140,5671,1,0,0:0:0:0:
168,340,5893,5,8,0:0:0:0:
20,212,6115,1,0,0:0:0:0:
140,80,6337,1,8,0:0:0:0:
296,188,6560,1,0,0:0:0:0:
80,283,6782,6,0,B|64:212|64:212|88:130|88:130|74:39,1,240,8|8,0:0|0:0,0:0:0:0:
384,120,8560,6,0,L|400:249,1,120,8|0,0:0|0:0,0:0:0:0:
280,296,9004,2,0,L|264:167,1,120,8|8,0:0|0:0,0:0:0:0:
415,44,9448,5,8,0:0:0:0:
428,174,9671,1,0,0:0:0:0:
311,235,9893,1,8,0:0:0:0:
298,105,10115,1,8,0:0:0:0:
392,280,10337,6,0,P|346:318|268:310,1,120,8|0,0:0|0:0,0:0:0:0:
191,158,10782,1,8,0:0:0:0:
368,68,11004,1,8,0:0:0:0:
311,235,11226,6,0,L|178:250,1,120,8|4,0:0|0:0,0:0:0:0:
264,108,11671,1,12,0:0:0:0:
344,336,11893,1,8,0:0:0:0:
167,329,12115,6,0,P|126:297|147:174,1,180.000006866455,4|4,0:0|0:0,0:0:0:0:
248,56,13004,1,8,0:0:0:0:
248,56,13337,6,0,L|312:58,1,60,4|0,0:0|0:0,0:0:0:0:
273,139,13671,2,0,L|89:135,1,180,8|8,0:0|0:0,0:0:0:0:
40,204,14560,1,0,0:0:0:0:
76,280,14782,6,0,L|178:283,2,90.0000034332277,8|8|10,0:0|0:0|0:0,0:0:0:0:
230,337,15671,6,0,P|297:346|356:326,1,120,8|8,0:0|0:0,0:0:0:0:
339,185,16115,2,0,P|272:176|213:196,1,120,8|8,0:0|0:0,0:0:0:0:
284,264,16560,1,8,0:0:0:0:
424,177,16782,1,8,0:0:0:0:
308,82,17004,2,0,L|183:83,1,120,8|0,0:0|0:0,0:0:0:0:
61,146,17448,5,6,0:0:0:0:
196,296,17671,2,0,L|188:171,1,120,6|6,0:0|0:0,0:0:0:0:
116,312,18115,6,0,P|144:364|204:376,1,120,10|0,0:0|0:0,0:0:0:0:
324,352,18560,1,8,0:0:0:0:
324,352,18782,2,0,L|327:232,1,120,0|8,0:0|0:0,0:0:0:0:
200,184,19226,6,0,L|77:190,1,120,4|4,0:0|0:0,0:0:0:0:
132,52,19671,2,0,L|251:46,1,120,4|4,0:0|0:0,0:0:0:0:
416,44,20115,1,8,0:0:0:0:
416,44,20448,6,0,L|422:136,1,90.0000034332277,4|0,0:0|0:0,0:0:0:0:
496,212,20782,2,0,P|384:236|332:104,1,270.000010299683,8|8,0:0|0:0,0:0:0:0:
260,64,21671,1,0,0:0:0:0:
260,64,21893,2,0,P|300:28|339:31,2,90.0000034332277,8|8|10,0:0|0:0|0:0,0:0:0:0:
160,40,22782,6,0,L|40:45,1,120,8|8,0:0|0:0,0:0:0:0:
72,199,23226,2,0,L|192:194,1,120,8|8,0:0|0:0,0:0:0:0:
117,289,23671,1,8,0:0:0:0:
30,128,23893,1,8,0:0:0:0:
218,99,24115,2,0,L|338:94,1,120,8|0,0:0|0:0,0:0:0:0:
400,196,24560,5,4,0:0:0:0:
312,280,24782,1,4,0:0:0:0:
432,312,25004,1,4,0:0:0:0:
200,344,25226,5,8,0:0:0:0:
200,344,25448,1,0,0:0:0:0:
200,172,25671,5,8,0:0:0:0:
200,172,25893,1,0,0:0:0:0:
350,258,26115,5,8,0:0:0:0:
350,258,26337,2,0,L|297:146,1,120,4|4,0:0|0:0,0:0:0:0:
432,52,26782,2,0,L|483:160,1,120,4|4,0:0|0:0,0:0:0:0:
320,253,27226,2,0,L|267:141,1,120,12|4,0:0|0:0,0:0:0:0:
402,47,27671,2,0,L|453:155,1,120,4|12,0:0|0:0,0:0:0:0:
319,252,28115,6,0,L|268:144,1,120,4|4,0:0|0:0,0:0:0:0:
134,241,28560,2,0,L|186:350,1,120,4|4,0:0|0:0,0:0:0:0:
289,247,29004,2,0,L|238:139,1,120,12|4,0:0|0:0,0:0:0:0:
104,236,29448,2,0,L|156:345,1,120,4|4,0:0|0:0,0:0:0:0:
287,337,29893,6,0,L|411:335,1,120,4|4,0:0|0:0,0:0:0:0:
215,246,30337,2,0,L|339:244,1,120,4|4,0:0|0:0,0:0:0:0:
149,140,30782,2,0,L|273:138,1,120,12|4,0:0|0:0,0:0:0:0:
82,38,31226,2,0,L|206:36,1,120,4|4,0:0|0:0,0:0:0:0:
424,136,31671,2,0,L|304:144,1,120,4|4,0:0|0:0,0:0:0:0:
288,296,32115,2,0,L|408:288,1,120,4|0,0:0|0:0,0:0:0:0:
248,368,32560,5,8,0:0:0:0:
109,331,32782,1,0,0:0:0:0:
228,184,33004,1,0,0:0:0:0:
100,304,33226,1,0,0:0:0:0:
219,157,33448,2,0,L|340:151,1,120,4|4,0:0|0:0,0:0:0:0:
299,273,33893,2,0,L|179:278,1,120,4|4,0:0|0:0,0:0:0:0:
282,59,34337,2,0,L|403:53,1,120,12|4,0:0|0:0,0:0:0:0:
472,176,34782,1,4,0:0:0:0:
320,230,35004,5,4,0:0:0:0:
208,105,35226,1,4,0:0:0:0:
372,86,35448,1,4,0:0:0:0:
320,230,35671,5,4,0:0:0:0:
282,59,35893,1,4,0:0:0:0:
427,127,36115,2,0,L|439:251,1,120,12|4,0:0|0:0,0:0:0:0:
196,300,36560,2,0,L|184:180,1,120,4|4,0:0|0:0,0:0:0:0:
248,41,37004,1,4,0:0:0:0:
338,109,37226,5,4,0:0:0:0:
253,244,37448,1,4,0:0:0:0:
228,134,37671,1,4,0:0:0:0:
363,218,37893,1,12,0:0:0:0:
231,330,38115,1,0,0:0:0:0:
152,180,38337,2,0,L|136:60,1,120,4|4,0:0|0:0,0:0:0:0:
284,92,38782,1,4,0:0:0:0:
363,218,39004,6,0,L|378:336,1,120,8|4,0:0|0:0,0:0:0:0:
76,285,39671,2,0,P|76:229|96:305,1,315.000012016297,8|0,0:0|0:0,0:0:0:0:
124,256,40560,6,0,L|248:248,1,120,2|2,0:0|0:0,0:0:0:0:
356,200,41004,5,2,0:0:0:0:
324,312,41226,1,2,0:0:0:0:
220,208,41448,1,8,0:0:0:0:
275,91,41670,1,2,0:0:0:0:
192,304,41893,1,2,0:0:0:0:
164,94,42115,6,0,P|224:74|284:98,1,120,2|2,0:0|0:0,0:0:0:0:
220,208,42560,5,2,0:0:0:0:
220,208,42782,2,0,P|160:228|100:204,1,120,2|2,0:0|0:0,0:0:0:0:
164,112,43226,5,2,0:0:0:0:
346,128,43448,1,2,0:0:0:0:
174,131,43671,5,4,0:0:0:0:
356,147,43893,1,4,0:0:0:0:
284,256,44115,5,2,0:0:0:0:
284,256,44337,2,0,L|64:280,1,215.999993408203,2|0,0:0|0:0,0:0:0:0:
104,168,45004,1,8,0:0:0:0:
104,168,45226,2,0,L|228:156,1,120,0|0,0:0|0:0,0:0:0:0:
403,262,45671,5,8,0:0:0:0:
407,121,45893,1,2,0:0:0:0:
387,247,46115,5,2,0:0:0:0:
391,106,46337,1,2,0:0:0:0:
256,96,46560,2,0,B|246:131|246:131|264:191|264:191|261:221,1,120,2|2,0:0|0:0,0:0:0:0:
180,288,47004,5,2,0:0:0:0:
57,219,47226,1,2,0:0:0:0:
172,136,47448,1,2,0:0:0:0:
72,100,47671,6,0,L|56:232,1,120,2|2,0:0|0:0,0:0:0:0:
48,336,48115,2,0,L|176:328,1,120,2|2,0:0|0:0,0:0:0:0:
288,304,48560,2,0,L|416:312,1,120,8|2,0:0|0:0,0:0:0:0:
393,197,49004,1,2,0:0:0:0:
450,119,49226,6,0,P|481:169|470:243,1,120,2|2,0:0|0:0,0:0:0:0:
408,304,49671,5,2,0:0:0:0:
408,304,49893,2,0,L|268:304,1,120,2|2,0:0|0:0,0:0:0:0:
200,304,50337,5,2,0:0:0:0:
191,159,50560,1,2,0:0:0:0:
188,288,50782,5,4,0:0:0:0:
179,143,51005,1,4,0:0:0:0:
300,184,51226,5,2,0:0:0:0:
300,184,51448,2,0,P|352:220|260:232,1,215.999993408203,2|0,0:0|0:0,0:0:0:0:
212,144,52115,5,8,0:0:0:0:
212,144,52337,2,0,P|248:100|324:96,1,120,0|0,0:0|0:0,0:0:0:0:
408,148,52782,5,8,0:0:0:0:
400,256,53004,1,2,0:0:0:0:
304,212,53226,1,2,0:0:0:0:
480,204,53448,1,2,0:0:0:0:
440,336,53671,6,0,L|308:344,1,120,2|8,0:0|0:0,0:0:0:0:
184,220,54115,2,0,L|303:212,1,120,8|8,0:0|0:0,0:0:0:0:
408,148,54560,1,8,0:0:0:0:
224,148,54782,2,0,P|121:168|140:288,1,240,4|4,0:0|0:0,0:0:0:0:
380,316,55671,1,8,0:0:0:0:
380,316,56004,6,0,L|380:216,1,90.0000034332277,4|0,0:0|0:0,0:0:0:0:
432,140,56337,2,0,L|248:144,1,180,8|4,0:0|0:0,0:0:0:0:
180,196,57226,1,0,0:0:0:0:
180,196,57448,2,0,P|216:224|276:224,2,90.0000034332277,8|8|2,0:0|0:0|0:0,0:0:0:0:
216,148,60761,6,0,L|340:136,1,120,8|8,0:0|0:0,0:0:0:0:
332,280,61206,2,0,L|212:291,1,120,8|10,0:0|0:0,0:0:0:0:
96,280,61650,5,4,0:0:0:0:
57,234,62095,1,4,0:0:0:0:
39,177,62539,1,4,0:0:0:0:
43,117,62983,1,4,0:0:0:0:
70,64,63428,1,4,0:0:0:0:
70,64,63650,6,0,L|124:56,3,40,0|0|0|2,0:0|0:0|0:0|0:0,0:0:0:0:
232,56,64095,1,0,0:0:0:0:
232,56,64317,6,0,L|240:176,1,120,8|8,0:0|0:0,0:0:0:0:
428,168,64761,2,0,L|420:48,1,120,8|8,0:0|0:0,0:0:0:0:
252,64,65206,6,0,L|260:184,1,120,8|8,0:0|0:0,0:0:0:0:
448,176,65650,2,0,L|440:56,1,120,8|8,0:0|0:0,0:0:0:0:
268,72,66095,6,0,L|276:192,1,120,8|8,0:0|0:0,0:0:0:0:
464,184,66539,2,0,L|456:64,1,120,8|8,0:0|0:0,0:0:0:0:
284,84,66983,6,0,L|156:92,1,120,8|8,0:0|0:0,0:0:0:0:
160,276,67428,2,0,L|279:268,1,120,8|8,0:0|0:0,0:0:0:0:
144,184,67872,6,0,P|92:204|68:264,1,120,8|8,0:0|0:0,0:0:0:0:
256,180,68317,2,0,L|256:56,1,120,8|8,0:0|0:0,0:0:0:0:
40,72,68761,2,0,L|160:104,1,120,8|8,0:0|0:0,0:0:0:0:
320,56,69206,2,0,L|444:84,1,120,8|8,0:0|0:0,0:0:0:0:
408,256,69650,6,0,L|284:280,1,120,8|8,0:0|0:0,0:0:0:0:
284,112,70095,2,0,L|401:89,1,120,8|8,0:0|0:0,0:0:0:0:
428,264,70539,6,0,L|304:288,1,120,8|0,0:0|0:0,0:0:0:0:
304,120,70984,2,0,L|421:97,1,120,8|8,0:0|0:0,0:0:0:0:
448,272,71428,5,0,0:0:0:0:
256,192,71650,12,0,74095,0:0:0:0:
