osu file format v14

[General]
AudioFilename: Senseless Massacre Short edit.mp3
AudioLeadIn: 0
PreviewTime: 40504
Countdown: 0
SampleSet: Normal
StackLeniency: 0.7
Mode: 0
LetterboxInBreaks: 1
WidescreenStoryboard: 0

[Editor]
Bookmarks: 12115,53671,55782
DistanceSpacing: 2.4
BeatDivisor: 4
GridSize: 8
TimelineZoom: 2

[Metadata]
Title:Senseless Massacre (Cut Ver.)
TitleUnicode:Senseless Massacre (Cut Ver.)
Artist:Rings of Saturn
ArtistUnicode:Rings of Saturn
Creator:HML
Version:Fenza's Genocide
Source:
Tags:stream deathcore technical death metal english Lugal Ki En mapper headphonewearer MrKosiej Chaotic Neutral Flare-kun Flarekun Fenza Broly Irate
BeatmapID:1080393
BeatmapSetID:507278

[Difficulty]
HPDrainRate:6
CircleSize:3
OverallDifficulty:9.2
ApproachRate:10
SliderMultiplier:1.8
SliderTickRate:1

[Events]
//Background and Video events
0,0,"BG.jpg",0,0
//Break Periods
//Storyboard Layer 0 (Background)
//Storyboard Layer 1 (Fail)
//Storyboard Layer 2 (Pass)
//Storyboard Layer 3 (Foreground)
//Storyboard Layer 4 (Overlay)
//Storyboard Sound Samples

[TimingPoints]
1449,222.222222222222,4,1,1,65,1,0
7893,-100,4,2,0,35,0,0
8560,-100,4,1,1,65,0,0
12115,-133.333333333333,4,1,1,65,0,0
14782,-100,4,1,1,65,0,0
29004,-76.9230769230769,4,1,1,65,0,0
29448,-100,4,1,1,65,0,0
34337,-76.9230769230769,4,1,1,65,0,0
34782,-100,4,1,1,65,0,0
37004,-76.9230769230769,4,1,1,65,0,0
37448,-100,4,1,1,65,0,0
40560,-76.9230769230769,4,1,1,65,0,1
44115,-76.9230769230769,4,1,1,65,0,0
45893,-100,4,1,1,65,0,1
51226,-76.9230769230769,4,1,1,65,0,0
53004,-76.9230769230769,4,1,1,65,0,1
54782,-76.9230769230769,4,1,1,65,0,0
54837,-100,4,1,1,65,0,0
58318,222.222222222222,4,2,0,35,1,0
58318,-200,4,2,0,35,0,0
58984,222.222222222222,4,2,1,50,1,0
58984,-200,4,2,1,50,0,0
60317,-133.333333333333,4,2,1,50,0,0
60761,-100,4,1,1,65,0,0
61649,-200,4,1,1,65,0,0
63872,-149.253731343284,4,1,1,65,0,0
64094,-119.047619047619,4,1,1,65,0,0
64316,-100,4,1,1,65,0,0

[Colours]
Combo1 : 247,221,79
Combo2 : 64,136,255
Combo3 : 168,68,68
Combo4 : 154,79,255

[HitObjects]
164,140,1449,5,8,0:0:0:0:
165,151,1504,1,0,0:0:0:0:
166,162,1560,1,0,0:0:0:0:
167,173,1615,1,0,0:0:0:0:
169,187,1671,2,0,L|173:235,3,45,8|0|0|0,0:0|0:0|0:0|0:0,0:0:0:0:
248,171,1893,5,8,0:0:0:0:
248,182,1948,1,0,0:0:0:0:
249,193,2004,1,4,0:0:0:0:
250,204,2059,1,0,0:0:0:0:
251,215,2115,1,6,0:0:0:0:
252,227,2170,1,4,0:0:0:0:
252,238,2226,1,4,0:0:0:0:
253,249,2281,1,4,0:0:0:0:
256,268,2337,6,0,B|261:312|261:312|288:352,1,90,8|0,0:0|0:0,0:0:0:0:
380,276,2560,1,8,0:0:0:0:
181,346,2671,1,4,0:0:0:0:
181,346,2726,1,4,0:0:0:0:
181,346,2782,2,0,B|130:355|130:355|81:345,1,90,8|0,0:0|0:0,0:0:0:0:
120,149,3004,1,8,0:0:0:0:
122,171,3059,1,0,0:0:0:0:
124,193,3115,1,2,0:0:0:0:
127,216,3170,1,0,0:0:0:0:
132,242,3226,6,0,P|82:235|33:255,1,90,12|0,0:0|0:0,0:0:0:0:
366,370,3448,2,0,P|416:377|465:357,1,90,10|0,0:0|0:0,0:0:0:0:
95,320,3671,2,0,P|44:326|2:358,1,90,10|0,0:0|0:0,0:0:0:0:
406,284,3893,2,0,P|456:277|498:245,1,90,10|0,0:0|0:0,0:0:0:0:
161,108,4115,6,0,L|103:137,3,45,14|0|4|0,0:0|0:0|0:0|0:0,0:0:0:0:
265,159,4337,2,0,L|323:188,3,45,8|0|4|0,0:0|0:0|0:0|0:0,0:0:0:0:
161,210,4560,5,12,0:0:0:0:
140,218,4615,1,4,0:0:0:0:
117,220,4671,1,4,0:0:0:0:
95,217,4726,1,4,0:0:0:0:
74,209,4782,1,12,0:0:0:0:
57,195,4837,1,4,0:0:0:0:
43,177,4893,1,6,0:0:0:0:
34,157,4948,1,4,0:0:0:0:
33,129,5004,6,0,B|46:81|46:81|83:48,1,90,14|0,0:0|0:0,0:0:0:0:
265,159,5226,1,8,0:0:0:0:
120,128,5337,1,8,0:0:0:0:
267,67,5448,2,0,B|315:80|315:80|348:117,1,90,8|2,0:0|0:0,0:0:0:0:
117,220,5671,2,0,B|69:207|69:207|36:169,1,90,8|2,0:0|0:0,0:0:0:0:
174,23,5893,5,14,0:0:0:0:
265,159,6004,1,8,0:0:0:0:
120,128,6115,1,14,0:0:0:0:
267,67,6226,1,8,0:0:0:0:
243,213,6337,5,14,0:0:0:0:
136,69,6448,1,8,0:0:0:0:
286,114,6560,1,14,0:0:0:0:
135,175,6671,1,8,0:0:0:0:
220,24,6782,5,8,0:0:0:0:
244,10,6837,1,0,0:0:0:0:
272,4,6893,1,0,0:0:0:0:
300,4,6948,1,0,0:0:0:0:
327,10,7004,1,6,0:0:0:0:
352,24,7059,1,0,0:0:0:0:
372,43,7115,1,0,0:0:0:0:
388,66,7170,1,0,0:0:0:0:
398,97,7226,5,12,0:0:0:0:
377,115,7281,1,0,0:0:0:0:
362,139,7337,1,0,0:0:0:0:
355,166,7392,1,0,0:0:0:0:
355,194,7448,1,6,0:0:0:0:
364,221,7503,1,0,0:0:0:0:
380,244,7559,1,0,0:0:0:0:
401,262,7614,1,0,0:0:0:0:
427,273,7670,5,14,0:0:0:0:
452,174,7893,5,2,0:0:0:0:
473,353,8115,5,2,0:0:0:0:
307,281,8337,5,2,0:0:0:0:
127,360,8560,5,14,0:0:0:0:
127,360,8615,1,0,0:0:0:0:
127,360,8671,1,0,0:0:0:0:
50,236,8782,2,0,B|38:278|38:278|48:337,1,90,8|0,0:0|0:0,0:0:0:0:
179,150,9004,2,0,B|153:114|153:114|101:84,1,90,8|0,0:0|0:0,0:0:0:0:
188,304,9226,2,0,B|231:300|231:300|283:269,1,90,8|0,0:0|0:0,0:0:0:0:
357,54,9448,5,14,0:0:0:0:
357,54,9504,1,0,0:0:0:0:
357,54,9560,1,0,0:0:0:0:
239,6,9671,2,0,B|227:48|227:48|238:107,1,90,8|0,0:0|0:0,0:0:0:0:
381,209,9893,2,0,B|350:178|350:178|293:158,1,90,8|0,0:0|0:0,0:0:0:0:
134,230,10115,2,0,B|176:218|176:218|221:179,1,90,8|0,0:0|0:3,0:3:0:0:
52,160,10337,5,14,0:0:0:0:
52,160,10393,1,0,0:0:0:0:
52,160,10448,1,8,0:0:0:0:
236,93,10560,2,0,B|192:92|192:92|137:117,1,90,8|0,0:0|0:3,0:3:0:0:
358,294,10782,2,0,B|401:294|401:294|456:269,1,90,8|0,0:0|0:3,0:3:0:0:
392,66,11004,1,10,0:0:0:0:
392,66,11060,1,0,0:0:0:0:
392,66,11115,1,8,0:0:0:0:
211,188,11226,6,0,B|189:228|189:228|190:278,1,90,12|0,0:0|0:0,0:0:0:0:
443,275,11448,2,0,B|465:235|465:235|464:185,1,90,8|0,0:0|0:0,0:0:0:0:
236,93,11671,1,14,0:0:0:0:
208,88,11726,1,0,0:0:0:0:
180,92,11782,1,6,0:0:0:0:
154,103,11837,1,0,0:0:0:0:
133,121,11893,1,14,0:0:0:0:
117,144,11948,1,0,0:0:0:0:
108,171,12004,1,6,0:0:0:0:
107,199,12059,1,0,0:0:0:0:
114,226,12115,5,14,0:0:0:0:
211,188,12226,1,2,0:0:0:0:
195,291,12337,2,0,P|170:315|130:328,1,67.5000025749208,2|0,0:0|0:0,0:0:0:0:
33,226,12560,1,10,0:0:0:0:
32,217,12615,1,4,0:0:0:0:
32,209,12671,1,4,0:0:0:0:
32,200,12726,1,4,0:0:0:0:
31,188,12782,2,0,L|28:111,1,67.5000025749208,12|0,0:0|0:0,0:0:0:0:
125,34,13004,5,14,0:0:0:0:
211,188,13115,2,0,P|243:193|286:188,1,67.5000025749208,6|0,0:0|0:0,0:0:0:0:
250,64,13337,1,6,0:0:0:0:
250,64,13393,1,4,0:0:0:0:
250,64,13448,1,14,0:0:0:0:
32,22,13671,2,0,B|50:57|3:72|34:136,1,101.250003862381,8|0,0:0|0:0,0:0:0:0:
102,94,13893,5,14,0:0:0:0:
103,102,13948,1,0,0:0:0:0:
104,110,14004,1,4,0:0:0:0:
104,119,14059,1,0,0:0:0:0:
103,142,14115,6,0,L|103:182,3,33.7500012874604,8|0|4|0,0:0|0:0|0:0|0:0,0:0:0:0:
10,282,14337,2,0,B|7:247|7:247|15:206,1,67.5000025749208,12|0,0:0|0:0,0:0:0:0:
173,304,14560,1,2,0:0:0:0:
90,256,14671,1,4,0:0:0:0:
174,119,14782,6,0,B|189:160|189:160|178:225,1,90,12|0,0:0|0:0,0:0:0:0:
17,368,15004,2,0,B|2:327|2:327|13:262,1,90,12|0,0:0|0:0,0:0:0:0:
266,35,15226,6,0,B|274:65|255:101|255:101|256:122|269:144|269:144|271:175|254:226,1,180,14|0,0:0|0:0,0:0:0:0:
56,88,15671,5,14,0:0:0:0:
56,88,15726,1,0,0:0:0:0:
56,88,15782,1,8,0:0:0:0:
176,48,15893,2,0,B|178:97|178:97|161:149,1,90,10|2,0:0|0:0,0:0:0:0:
58,301,16115,1,14,0:0:0:0:
57,278,16170,1,0,0:0:0:0:
59,256,16226,1,4,0:0:0:0:
63,233,16281,1,0,0:0:0:0:
70,211,16337,2,0,B|113:205|113:205|164:226,1,90,10|0,0:0|0:0,0:0:0:0:
449,328,16560,6,0,B|408:345|408:345|352:344,1,90,14|0,0:0|0:0,0:0:0:0:
165,135,16782,2,0,B|206:118|206:118|262:119,1,90,14|0,0:0|0:0,0:0:0:0:
484,239,17004,2,0,B|440:248|440:248|385:237,1,90,14|0,0:0|0:0,0:0:0:0:
114,224,17226,2,0,B|157:214|157:214|212:225,1,90,14|0,0:0|0:0,0:0:0:0:
325,80,17448,5,6,0:0:0:0:
306,58,17503,1,2,0:0:0:0:
282,44,17559,1,6,0:0:0:0:
255,38,17614,1,2,0:0:0:0:
227,42,17670,1,6,0:0:0:0:
203,55,17725,1,0,0:0:0:0:
183,76,17781,1,2,0:0:0:0:
172,101,17836,1,0,0:0:0:0:
170,140,17893,6,0,P|170:160|176:191,1,45,10|0,0:0|0:0,0:0:0:0:
255,163,18004,2,0,P|255:143|249:112,1,45,2|0,0:0|0:0,0:0:0:0:
232,244,18115,2,0,B|279:242|279:242|319:220,1,90,12|0,0:0|0:0,0:0:0:0:
400,91,18337,5,14,0:0:0:0:
401,262,18448,1,0,0:0:0:0:
337,146,18560,1,14,0:0:0:0:
484,239,18671,1,4,0:0:0:0:
322,64,18782,2,0,B|279:38|279:38|232:36,1,90,14|0,0:0|0:0,0:0:0:0:
114,170,19004,1,8,0:0:0:0:
250,118,19115,1,8,0:0:0:0:
85,89,19226,5,12,0:0:0:0:
56,106,19281,1,0,0:0:0:0:
36,133,19337,1,4,0:0:0:0:
27,166,19392,1,0,0:0:0:0:
30,199,19448,2,0,B|55:241|55:241|101:262,1,90,12|0,0:0|0:0,0:0:0:0:
324,266,19671,5,12,0:0:0:0:
322,232,19726,1,0,0:0:0:0:
309,201,19782,1,4,0:0:0:0:
285,177,19837,1,0,0:0:0:0:
255,163,19893,2,0,B|206:163|206:163|165:192,1,90,12|0,0:0|0:0,0:0:0:0:
181,377,20115,5,10,0:0:0:0:
181,377,20226,1,2,0:0:0:0:
241,246,20448,1,4,0:0:0:0:
239,257,20503,1,4,0:0:0:0:
238,268,20559,1,14,0:0:0:0:
225,83,20782,2,0,B|204:79|183:92|183:92|165:83|165:83|133:62|74:81,1,135,8|0,0:0|0:0,0:0:0:0:
121,155,21004,5,12,0:0:0:0:
121,166,21059,1,0,0:0:0:0:
121,177,21115,1,6,0:0:0:0:
122,188,21170,1,0,0:0:0:0:
123,214,21226,6,0,L|125:260,3,45,10|0|4|0,0:0|0:0|0:0|0:0,0:0:0:0:
221,161,21448,2,0,B|229:205|229:205|220:259,1,90,14|0,0:0|0:0,0:0:0:0:
65,327,21671,1,8,0:0:0:0:
123,214,21782,1,8,0:0:0:0:
243,329,21893,6,0,B|282:305|282:305|305:261,1,90,10|2,0:0|0:0,0:0:0:0:
96,130,22115,2,0,B|57:154|57:154|34:198,1,90,10|2,0:0|0:0,0:0:0:0:
380,325,22337,2,0,P|400:257|318:171,1,180,14|0,0:0|0:0,0:0:0:0:
123,214,22782,5,8,0:0:0:0:
123,214,22837,1,0,0:0:0:0:
123,214,22893,2,0,P|135:235|168:257,1,45,2|0,0:0|0:0,0:0:0:0:
217,73,23004,2,0,B|229:121|229:121|219:168,1,90,8|0,0:0|0:0,0:0:0:0:
39,170,23226,2,0,B|74:135|74:135|120:120,1,90,8|0,0:0|0:0,0:0:0:0:
229,288,23448,1,8,0:0:0:0:
207,283,23503,1,0,0:0:0:0:
186,275,23559,1,4,0:0:0:0:
166,263,23614,1,0,0:0:0:0:
150,248,23670,5,6,0:0:0:0:
30,297,23782,1,8,0:0:0:0:
39,170,23893,2,0,B|30:121|30:121|47:51,1,90,8|0,0:0|0:0,0:0:0:0:
274,35,24115,1,14,0:0:0:0:
132,367,24337,1,14,0:0:0:0:
113,123,24560,5,14,0:0:0:0:
140,119,24615,1,0,0:0:0:0:
168,122,24671,1,4,0:0:0:0:
194,132,24726,1,0,0:0:0:0:
218,148,24782,1,14,0:0:0:0:
236,169,24837,1,0,0:0:0:0:
249,194,24893,1,4,0:0:0:0:
255,221,24948,1,0,0:0:0:0:
254,260,25004,2,0,L|253:313,3,45,14|0|4|0,0:0|0:0|0:0|0:0,0:0:0:0:
122,215,25226,5,12,0:0:0:0:
122,215,25337,1,8,0:0:0:0:
122,327,25448,5,14,0:0:0:0:
94,323,25503,1,0,0:0:0:0:
67,313,25559,1,0,0:0:0:0:
45,297,25614,1,0,0:0:0:0:
27,275,25670,1,0,0:0:0:0:
15,250,25725,1,0,0:0:0:0:
10,222,25781,1,0,0:0:0:0:
13,194,25836,1,0,0:0:0:0:
22,168,25892,1,8,0:0:0:0:
38,144,25947,1,0,0:0:0:0:
59,126,26003,1,0,0:0:0:0:
85,114,26059,1,0,0:0:0:0:
112,108,26114,1,2,0:0:0:0:
140,110,26170,1,0,0:0:0:0:
167,119,26225,1,0,0:0:0:0:
190,134,26281,1,0,0:0:0:0:
210,156,26337,6,0,B|234:155|251:164|251:164|272:156|272:156|304:179|351:155,1,135,14|0,0:0|0:0,0:0:0:0:
311,89,26559,2,0,P|382:93|409:180,1,135,14|0,0:0|0:0,0:0:0:0:
394,221,26781,2,0,B|347:239|347:239|297:229,1,90,14|0,0:0|0:0,0:0:0:0:
133,190,27003,1,12,0:0:0:0:
128,210,27226,5,14,0:0:0:0:
401,302,27448,1,12,0:0:0:0:
102,352,27671,1,12,0:0:0:0:
413,142,27893,1,12,0:0:0:0:
147,115,28115,5,8,0:0:0:0:
102,116,28226,1,0,0:0:0:0:
63,138,28337,1,6,0:0:0:0:
40,176,28448,1,0,0:0:0:0:
37,221,28560,5,14,0:0:0:0:
43,241,28671,1,4,0:0:0:0:
128,210,28782,5,14,0:0:0:0:
133,229,28894,1,4,0:0:0:0:
222,193,29004,6,0,B|268:175|302:196|302:196|317:186|317:186|379:223|379:150|474:205,1,233.999989288331,14|0,0:0|0:0,0:0:0:0:
444,190,29282,1,0,0:0:0:0:
444,190,29337,1,6,0:0:0:0:
420,348,29448,5,6,0:0:0:0:
413,338,29503,1,2,0:0:0:0:
408,328,29559,1,2,0:0:0:0:
404,317,29614,1,2,0:0:0:0:
401,306,29670,1,2,0:0:0:0:
401,295,29725,1,2,0:0:0:0:
402,284,29781,1,2,0:0:0:0:
405,273,29836,1,2,0:0:0:0:
413,258,29893,6,0,B|385:261|363:276|363:276|352:269|352:269|320:290|254:268,1,135,14|0,0:0|0:0,0:0:0:0:
312,203,30115,2,0,B|264:201|264:201|212:238,1,90,12|0,0:0|0:0,0:0:0:0:
43,352,30337,1,10,0:0:0:0:
128,353,30448,1,8,0:0:0:0:
213,354,30560,1,10,0:0:0:0:
59,38,30782,6,0,B|50:79|50:79|56:133,1,90,14|0,0:0|0:0,0:0:0:0:
135,201,31004,1,8,0:0:0:0:
140,89,31115,1,2,0:0:0:0:
140,89,31171,1,0,0:0:0:0:
140,89,31226,1,10,0:0:0:0:
83,272,31448,2,0,P|137:288|190:264,1,90,14|4,0:0|0:0,0:0:0:0:
216,167,31671,5,14,0:0:0:0:
258,180,31782,1,0,0:0:0:0:
288,213,31893,1,6,0:0:0:0:
297,256,32004,1,0,0:0:0:0:
284,298,32115,2,0,B|252:331|252:331|201:349,1,90,14|0,0:0|0:0,0:0:0:0:
135,201,32337,1,10,0:0:0:0:
130,190,32392,1,0,0:0:0:0:
127,179,32448,1,2,0:0:0:0:
125,168,32503,1,0,0:0:0:0:
123,143,32560,6,0,L|126:88,7,45,14|0|4|0|6|0|4|0,0:0|0:0|0:0|0:0|0:0|0:0|0:0|0:0,0:0:0:0:
203,71,33004,2,0,L|252:46,7,45,14|0|2|0|6|0|2|0,0:0|0:0|0:0|0:0|0:0|0:0|0:0|0:0,0:0:0:0:
305,104,33448,5,14,0:0:0:0:
342,128,33559,1,0,0:0:0:0:
386,135,33670,1,14,0:0:0:0:
429,124,33781,1,0,0:0:0:0:
463,95,33892,5,14,0:0:0:0:
467,76,34004,1,4,0:0:0:0:
479,198,34115,5,14,0:0:0:0:
482,178,34227,1,4,0:0:0:0:
494,300,34337,6,0,B|459:294|437:306|437:306|410:287|410:287|383:309|314:321|255:264,1,233.999989288331,14|0,0:0|0:0,0:0:0:0:
232,203,34671,1,8,0:0:0:0:
343,213,34782,5,14,0:0:0:0:
121,67,35004,2,0,B|117:87|125:104|125:104|118:122|118:122|149:157|122:220,1,135,10|0,0:0|0:0,0:0:0:0:
52,173,35226,5,14,0:0:0:0:
48,217,35337,1,0,0:0:0:0:
68,257,35448,1,10,0:0:0:0:
105,281,35559,1,0,0:0:0:0:
149,282,35670,5,14,0:0:0:0:
161,264,35782,1,4,0:0:0:0:
245,279,35893,5,14,0:0:0:0:
256,260,36005,1,4,0:0:0:0:
342,284,36115,6,0,L|367:244,3,45,14|0|2|0,0:0|0:0|0:0|0:0,0:0:0:0:
324,141,36337,2,0,L|299:181,3,45,14|0|2|0,0:0|0:0|0:0|0:0,0:0:0:0:
406,172,36560,5,14,0:0:0:0:
412,144,36615,1,0,0:0:0:0:
409,116,36671,1,2,0:0:0:0:
398,91,36726,1,0,0:0:0:0:
378,71,36782,1,14,0:0:0:0:
353,58,36837,1,0,0:0:0:0:
326,54,36893,1,2,0:0:0:0:
298,59,36948,1,0,0:0:0:0:
263,79,37004,6,0,B|227:75|206:88|206:88|190:73|190:73|162:97|102:102|77:50,1,175.499991966248,14|0,0:0|0:0,0:0:0:0:
140,9,37226,2,0,P|59:11|25:108,1,175.499991966248,14|0,0:0|0:0,0:0:0:0:
74,158,37448,5,10,0:0:0:0:
68,245,37559,1,8,0:0:0:0:
62,333,37670,1,10,0:0:0:0:
343,333,37893,6,0,L|352:230,1,90,14|0,0:0|0:0,0:0:0:0:
252,163,38115,1,8,0:0:0:0:
231,288,38226,1,2,0:0:0:0:
231,288,38282,1,0,0:0:0:0:
231,288,38337,1,10,0:0:0:0:
161,20,38560,6,0,L|152:123,1,90,8|0,0:0|0:0,0:0:0:0:
63,69,38782,5,14,0:0:0:0:
54,89,38837,1,0,0:0:0:0:
51,111,38893,1,2,0:0:0:0:
53,134,38948,1,0,0:0:0:0:
61,155,39004,1,14,0:0:0:0:
74,173,39059,1,0,0:0:0:0:
91,188,39115,1,2,0:0:0:0:
111,198,39170,1,0,0:0:0:0:
146,201,39226,6,0,P|178:198|208:187,3,45,14|0|2|0,0:0|0:0|0:0|0:0,0:0:0:0:
197,103,39448,2,0,P|165:106|135:117,3,45,14|0|2|0,0:0|0:0|0:0|0:0,0:0:0:0:
276,160,39671,6,0,P|291:109|282:57,1,90,14|0,0:0|0:0,0:0:0:0:
89,39,39893,1,14,0:0:0:0:
69,59,39948,1,0,0:0:0:0:
57,84,40004,1,4,0:0:0:0:
54,112,40059,1,0,0:0:0:0:
59,139,40115,1,6,0:0:0:0:
72,164,40170,1,0,0:0:0:0:
92,183,40226,1,4,0:0:0:0:
117,196,40281,1,0,0:0:0:0:
145,200,40337,5,14,0:0:0:0:
152,109,40448,1,8,0:0:0:0:
74,277,40560,6,0,L|2:297,3,58.4999973220826,14|0|0|0,0:0|0:0|0:0|0:0,0:0:0:0:
122,346,40782,2,0,L|50:366,3,58.4999973220826,14|0|0|0,0:0|0:0|0:0|0:0,0:0:0:0:
145,200,41004,5,14,0:0:0:0:
152,210,41059,1,0,0:0:0:0:
159,220,41115,1,0,0:0:0:0:
166,230,41170,1,0,0:0:0:0:
173,240,41226,1,6,0:0:0:0:
180,250,41281,1,0,0:0:0:0:
187,260,41337,1,0,0:0:0:0:
194,268,41392,1,0,0:0:0:0:
206,262,41448,5,14,0:0:0:0:
217,258,41503,1,0,0:0:0:0:
229,255,41559,1,0,0:0:0:0:
241,252,41615,1,0,0:0:0:0:
253,251,41670,1,6,0:0:0:0:
266,251,41726,1,0,0:0:0:0:
278,252,41781,1,0,0:0:0:0:
290,254,41837,1,0,0:0:0:0:
302,258,41892,1,6,0:0:0:0:
313,263,41948,1,0,0:0:0:0:
324,269,42003,1,0,0:0:0:0:
334,276,42059,1,0,0:0:0:0:
363,313,42115,6,0,L|359:376,11,58.4999973220826,14|0|0|0|6|0|0|0|6|0|0|0,0:0|0:0|0:0|0:0|0:0|0:0|0:0|0:0|0:0|0:0|0:0|0:0,0:0:0:0:
447,269,42782,2,0,L|443:332,7,58.4999973220826,14|0|0|0|6|0|0|0,0:0|0:0|0:0|0:0|0:0|0:0|0:0|0:0,0:0:0:0:
357,165,43226,6,0,L|286:162,3,58.4999973220826,14|0|0|0,0:0|0:0|0:0|0:0,0:0:0:0:
407,86,43448,2,0,L|336:83,3,58.4999973220826,14|0|0|0,0:0|0:0|0:0|0:0,0:0:0:0:
212,165,43671,6,0,L|173:224,3,58.4999973220826,14|0|0|0,0:0|0:0|0:0|0:0,0:0:0:0:
256,247,43893,2,0,L|217:306,3,58.4999973220826,14|0|0|0,0:0|0:0|0:0|0:0,0:0:0:0:
252,86,44115,6,0,P|223:78|180:85,1,58.4999973220826,14|0,0:0|0:0,0:0:0:0:
145,17,44226,2,0,P|123:38|108:78,1,58.4999973220826,10|0,0:0|0:0,0:0:0:0:
31,75,44337,2,0,P|38:104|66:137,1,58.4999973220826,10|0,0:0|0:0,0:0:0:0:
24,202,44448,2,0,P|53:210|96:203,1,58.4999973220826,10|0,0:0|0:0,0:0:0:0:
130,271,44560,6,0,P|151:249|166:209,3,58.4999973220826,12|0|2|0,0:0|0:0|0:0|0:0,0:0:0:0:
242,213,44782,2,0,P|234:183|206:150,3,58.4999973220826,14|0|2|0,0:0|0:0|0:0|0:0,0:0:0:0:
135,138,45004,5,14,0:0:0:0:
153,98,45059,1,4,0:0:0:0:
189,73,45115,1,4,0:0:0:0:
232,70,45170,1,4,0:0:0:0:
271,88,45226,6,0,P|299:94|335:86,3,58.4999973220826,14|0|4|0,0:0|0:0|0:0|0:0,0:0:0:0:
302,8,45448,2,0,P|331:3|360:10,3,58.4999973220826,14|0|4|0,0:0|0:0|0:0|0:0,0:0:0:0:
413,82,45671,5,14,0:0:0:0:
408,125,45726,1,4,0:0:0:0:
382,159,45782,1,4,0:0:0:0:
341,175,45837,1,4,0:0:0:0:
299,168,45893,6,0,L|284:226,1,45,14|0,0:0|0:0,0:0:0:0:
252,169,46004,2,0,L|268:226,1,45,10|0,0:0|0:0,0:0:0:0:
211,193,46115,2,0,L|253:234,1,45,10|0,0:0|0:0,0:0:0:0:
187,234,46226,2,0,L|244:249,1,45,10|0,0:0|0:0,0:0:0:0:
230,367,46337,6,0,L|245:309,1,45,14|0,0:0|0:0,0:0:0:0:
276,366,46448,2,0,L|259:308,1,45,10|0,0:0|0:0,0:0:0:0:
317,342,46559,2,0,L|274:300,1,45,10|0,0:0|0:0,0:0:0:0:
341,300,46671,2,0,L|283:285,1,45,10|0,0:0|0:0,0:0:0:0:
83,170,46782,6,0,L|115:201,1,45,14|0,0:0|0:0,0:0:0:0:
60,210,46893,2,0,L|118:224,1,45,10|0,0:0|0:0,0:0:0:0:
61,257,47004,2,0,L|118:240,1,45,10|0,0:0|0:0,0:0:0:0:
85,299,47115,2,0,L|126:256,1,45,10|0,0:0|0:0,0:0:0:0:
327,141,47227,6,0,L|271:159,1,45,14|0,0:0|0:0,0:0:0:0:
303,101,47338,2,0,L|261:143,1,45,10|0,0:0|0:0,0:0:0:0:
262,78,47449,2,0,L|247:135,1,45,10|0,0:0|0:0,0:0:0:0:
214,78,47560,2,0,L|225:128,1,45,10|0,0:0|0:0,0:0:0:0:
297,288,47671,6,0,L|341:300,3,45,14|0|0|0,0:0|0:0|0:0|0:0,0:0:0:0:
356,216,47893,2,0,L|399:227,3,45,14|0|0|0,0:0|0:0|0:0|0:0,0:0:0:0:
268,200,48115,5,14,0:0:0:0:
252,206,48170,1,0,0:0:0:0:
238,216,48226,1,0,0:0:0:0:
226,228,48281,1,0,0:0:0:0:
217,241,48337,1,6,0:0:0:0:
210,257,48392,1,0,0:0:0:0:
206,273,48448,1,0,0:0:0:0:
206,290,48503,1,0,0:0:0:0:
208,309,48560,5,14,0:0:0:0:
197,297,48615,1,0,0:0:0:0:
186,288,48671,1,0,0:0:0:0:
173,281,48726,1,0,0:0:0:0:
159,275,48782,1,6,0:0:0:0:
144,272,48837,1,0,0:0:0:0:
129,271,48893,1,0,0:0:0:0:
114,273,48948,1,0,0:0:0:0:
100,277,49004,1,6,0:0:0:0:
86,283,49059,1,0,0:0:0:0:
73,291,49115,1,0,0:0:0:0:
62,300,49171,1,0,0:0:0:0:
38,333,49226,6,0,L|34:379,11,45,14|0|0|0|6|0|0|0|6|0|0|0,0:0|0:0|0:0|0:0|0:0|0:0|0:0|0:0|0:0|0:0|0:0|0:0,0:0:0:0:
133,306,49893,2,0,L|129:352,7,45,14|0|0|0|6|0|0|0,0:0|0:0|0:0|0:0|0:0|0:0|0:0|0:0,0:0:0:0:
262,330,50337,6,0,L|308:334,3,45,14|0|0|0,0:0|0:0|0:0|0:0,0:0:0:0:
235,235,50560,2,0,L|281:239,3,45,14|0|0|0,0:0|0:0|0:0|0:0,0:0:0:0:
152,170,50782,6,0,L|156:124,3,45,14|0|0|0,0:0|0:0|0:0|0:0,0:0:0:0:
57,197,51005,2,0,L|61:151,3,45,14|0|0|0,0:0|0:0|0:0|0:0,0:0:0:0:
273,295,51226,6,0,P|281:266|274:223,1,58.4999973220826,14|0,0:0|0:0,0:0:0:0:
342,188,51337,2,0,P|321:166|281:151,1,58.4999973220826,10|0,0:0|0:0,0:0:0:0:
284,74,51448,2,0,P|255:81|222:109,1,58.4999973220826,10|0,0:0|0:0,0:0:0:0:
157,68,51559,2,0,P|149:97|156:140,1,58.4999973220826,10|0,0:0|0:0,0:0:0:0:
88,173,51671,6,0,P|110:194|150:209,3,58.4999973220826,14|0|6|0,0:0|0:0|0:0|0:0,0:0:0:0:
146,285,51893,2,0,P|176:277|209:249,3,58.4999973220826,6|0|6|0,0:0|0:0|0:0|0:0,0:0:0:0:
220,173,52115,5,14,0:0:0:0:
259,189,52170,1,4,0:0:0:0:
286,224,52226,1,4,0:0:0:0:
293,266,52281,1,4,0:0:0:0:
278,307,52337,2,0,P|258:329|224:344,3,58.4999973220826,14|0|4|0,0:0|0:0|0:0|0:0,0:0:0:0:
58,356,52560,5,14,0:0:0:0:
52,312,52615,1,0,0:0:0:0:
68,272,52671,1,6,0:0:0:0:
102,245,52726,1,0,0:0:0:0:
145,238,52782,2,0,P|173:245|203:267,3,58.4999973220826,14|0|6|0,0:0|0:0|0:0|0:0,0:0:0:0:
124,82,53004,6,0,L|134:160,1,58.4999973220826,14|0,0:0|0:0,0:0:0:0:
175,64,53115,2,0,L|164:141,1,58.4999973220826,10|0,0:0|0:0,0:0:0:0:
228,59,53226,2,0,L|197:131,1,58.4999973220826,10|0,0:0|0:0,0:0:0:0:
280,67,53337,2,0,L|231:129,1,58.4999973220826,10|0,0:0|0:0,0:0:0:0:
328,88,53448,2,0,L|265:135,1,58.4999973220826,10|0,0:0|0:0,0:0:0:0:
368,120,53560,2,0,L|295:149,1,58.4999973220826,10|0,0:0|0:0,0:0:0:0:
398,161,53671,5,14,0:0:0:0:
397,170,53726,1,0,0:0:0:0:
396,180,53782,1,6,0:0:0:0:
395,190,53837,1,0,0:0:0:0:
394,199,53893,1,6,0:0:0:0:
393,209,53948,1,0,0:0:0:0:
392,219,54004,1,6,0:0:0:0:
391,228,54059,1,0,0:0:0:0:
390,238,54115,1,6,0:0:0:0:
390,248,54170,1,0,0:0:0:0:
389,258,54226,1,6,0:0:0:0:
388,267,54282,1,0,0:0:0:0:
388,287,54337,5,14,0:0:0:0:
367,266,54392,1,0,0:0:0:0:
340,255,54448,1,6,0:0:0:0:
311,253,54503,1,0,0:0:0:0:
283,263,54559,1,6,0:0:0:0:
261,281,54614,1,0,0:0:0:0:
247,306,54670,1,6,0:0:0:0:
242,335,54725,1,0,0:0:0:0:
249,363,54781,5,14,0:0:0:0:
148,346,54893,1,0,0:0:0:0:
47,329,55004,2,0,B|34:283|34:283|38:231,1,90,14|0,0:0|0:0,0:0:0:0:
134,171,55226,1,14,0:0:0:0:
145,171,55281,1,0,0:0:0:0:
156,171,55337,1,4,0:0:0:0:
167,171,55392,1,0,0:0:0:0:
180,171,55448,2,0,B|236:171|236:171|277:195,1,90,12|0,0:0|0:0,0:0:0:0:
148,346,55671,5,14,0:0:0:0:
41,150,55782,2,0,B|66:107|66:107|110:77,1,90,8|0,0:0|0:0,0:0:0:0:
238,90,56004,1,8,0:0:0:0:
238,90,56060,1,8,0:0:0:0:
238,90,56115,1,10,0:0:0:0:
208,261,56337,2,0,B|233:278|254:271|254:271|262:276|262:276|297:251|372:272,1,135,12|0,0:0|0:0,0:0:0:0:
401,320,56560,5,14,0:0:0:0:
412,300,56615,1,0,0:0:0:0:
419,279,56671,1,2,0:0:0:0:
420,257,56726,1,0,0:0:0:0:
415,231,56782,2,0,P|402:206|382:187,3,45,10|0|4|0,0:0|0:0|0:0|0:0,0:0:0:0:
305,183,57004,2,0,P|330:133|410:111,1,135,14|0,0:0|0:0,0:0:0:0:
475,162,57226,1,12,0:0:0:0:
446,25,57337,1,4,0:0:0:0:
300,55,57448,6,0,B|254:70|254:70|217:102,1,90,14|0,0:0|0:0,0:0:0:0:
333,352,57671,2,0,B|343:304|343:304|333:256,1,90,14|0,0:0|0:0,0:0:0:0:
85,37,57893,2,0,B|90:64|79:82|79:82|86:92|86:92|62:117|58:169|86:213,1,180,14|0,0:0|0:0,0:0:0:0:
298,144,58318,6,0,L|300:47,2,90,2|0|0,0:0|0:0|0:0,0:0:0:0:
152,154,58984,6,0,L|172:260,1,90,2|0,0:0|0:0,0:0:0:0:
168,242,59428,1,2,0:0:0:0:
377,230,59650,6,0,L|357:336,1,90,2|0,0:0|0:0,0:0:0:0:
360,318,60094,1,2,0:0:0:0:
54,346,60317,6,0,L|201:335,1,135.000005149842,2|0,0:0|0:0,0:0:0:0:
377,230,60761,5,14,0:0:0:0:
354,231,60816,1,0,0:0:0:0:
332,233,60872,1,4,0:0:0:0:
309,234,60927,1,0,0:0:0:0:
283,234,60983,2,0,L|226:239,3,45,12|0|0|0,0:0|0:0|0:0|0:0,0:0:0:0:
170,152,61205,1,14,0:0:0:0:
192,149,61260,1,0,0:0:0:0:
214,147,61316,1,0,0:0:0:0:
237,145,61371,1,0,0:0:0:0:
261,141,61427,2,0,B|277:98|277:98|264:38,1,90,14|0,0:0|0:0,0:0:0:0:
50,34,61649,5,12,0:0:0:0:
50,34,61872,1,4,0:0:0:0:
356,139,62094,5,12,0:0:0:0:
356,139,62317,1,4,0:0:0:0:
50,244,62538,6,0,L|52:346,1,90,12|0,0:0|0:0,0:0:0:0:
216,117,62983,2,0,L|126:67,1,90,12|0,0:0|0:0,0:0:0:0:
242,324,63427,5,12,0:0:0:0:
496,141,63649,1,8,0:0:0:0:
470,143,63723,1,8,0:0:0:0:
445,145,63797,1,8,0:0:0:0:
413,176,63872,6,0,L|313:182,1,90.4499957215121,10|0,0:0|0:0,0:0:0:0:
259,229,64094,6,0,L|379:222,1,113.399996539307,8|0,0:0|0:0,0:0:0:0:
247,146,64316,6,0,B|202:164|202:164|174:208,1,90,14|0,0:0|0:0,0:0:0:0:
391,307,64538,2,0,B|436:289|436:289|464:245,1,90,12|0,0:0|0:0,0:0:0:0:
427,123,64760,1,8,0:0:0:0:
259,229,64872,1,8,0:0:0:0:
344,42,64983,1,12,0:0:0:0:
372,222,65094,1,8,0:0:0:0:
211,15,65205,6,0,B|163:8|163:8|110:27,1,90,14|0,0:0|0:0,0:0:0:0:
222,312,65427,2,0,B|270:319|270:319|323:300,1,90,12|0,0:0|0:0,0:0:0:0:
427,123,65649,1,12,0:0:0:0:
259,229,65761,1,8,0:0:0:0:
372,222,65872,1,12,0:0:0:0:
193,138,65983,1,8,0:0:0:0:
344,42,66094,6,0,B|349:87|349:87|336:152,1,90,14|0,0:0|0:0,0:0:0:0:
105,140,66316,2,0,B|149:128|149:128|215:142,1,90,12|0,0:0|0:0,0:0:0:0:
158,310,66538,2,0,B|147:265|147:265|153:212,1,90,12|0,0:0|0:0,0:0:0:0:
254,11,66761,2,0,B|265:56|265:56|259:109,1,90,12|0,0:0|0:0,0:0:0:0:
234,255,66983,5,14,0:0:0:0:
182,60,67094,1,4,0:0:0:0:
151,221,67205,1,12,0:0:0:0:
306,168,67316,1,4,0:0:0:0:
121,130,67427,5,12,0:0:0:0:
121,130,67538,1,4,0:0:0:0:
162,314,67649,5,12,0:0:0:0:
162,314,67761,1,4,0:0:0:0:
306,168,67872,5,14,0:0:0:0:
317,168,67927,1,0,0:0:0:0:
328,168,67983,1,0,0:0:0:0:
339,168,68038,1,0,0:0:0:0:
354,168,68094,2,0,B|407:168|407:168|467:199,1,90,14|0,0:0|0:0,0:0:0:0:
373,258,68317,5,14,0:0:0:0:
382,263,68372,1,0,0:0:0:0:
392,269,68428,1,0,0:0:0:0:
401,275,68483,1,0,0:0:0:0:
414,282,68539,2,0,B|459:308|459:308|496:365,1,90,14|0,0:0|0:0,0:0:0:0:
284,245,68761,5,14,0:0:0:0:
253,231,68817,1,0,0:0:0:0:
231,206,68872,1,0,0:0:0:0:
222,173,68928,1,0,0:0:0:0:
228,139,68983,2,0,B|256:100|256:100|301:80,1,90,14|0,0:0|0:0,0:0:0:0:
453,38,69206,6,0,L|450:95,1,45,14|0,0:0|0:0,0:0:0:0:
373,93,69317,2,0,L|370:150,1,45,12|0,0:0|0:0,0:0:0:0:
457,164,69428,2,0,L|454:221,1,45,14|0,0:0|0:0,0:0:0:0:
377,219,69539,2,0,L|374:276,1,45,12|0,0:0|0:0,0:0:0:0:
461,290,69650,6,0,L|458:347,3,45,14|0|4|0,0:0|0:0|0:0|0:0,0:0:0:0:
346,343,69873,2,0,L|298:311,3,45,12|0|4|0,0:0|0:0|0:0|0:0,0:0:0:0:
244,224,70095,2,0,L|247:166,3,45,14|0|4|0,0:0|0:0|0:0|0:0,0:0:0:0:
296,76,70317,2,0,L|346:50,3,45,14|0|4|0,0:0|0:0|0:0|0:0,0:0:0:0:
450,47,70540,5,14,0:0:0:0:
459,53,70595,1,0,0:0:0:0:
468,59,70651,1,4,0:0:0:0:
478,65,70706,1,0,0:0:0:0:
487,73,70762,5,14,0:0:0:0:
486,95,70817,1,0,0:0:0:0:
486,117,70873,1,4,0:0:0:0:
485,140,70928,1,0,0:0:0:0:
481,161,70983,5,14,0:0:0:0:
450,147,71040,1,8,0:0:0:0:
416,149,71096,1,8,0:0:0:0:
387,166,71151,1,8,0:0:0:0:
369,193,71207,1,14,0:0:0:0:
364,226,71262,1,2,0:0:0:0:
375,258,71318,1,2,0:0:0:0:
399,282,71373,1,2,0:0:0:0:
431,292,71428,5,14,0:0:0:0:
256,192,71483,12,2,74094,0:0:0:0:
