osu file format v14

[General]
AudioFilename: Senseless Massacre Short edit.mp3
AudioLeadIn: 0
PreviewTime: 40504
Countdown: 0
SampleSet: Normal
StackLeniency: 0.7
Mode: 0
LetterboxInBreaks: 1
WidescreenStoryboard: 0

[Editor]
Bookmarks: 67428
DistanceSpacing: 1
BeatDivisor: 4
GridSize: 4
TimelineZoom: 1.8

[Metadata]
Title:Senseless Massacre (Cut Ver.)
TitleUnicode:Senseless Massacre (Cut Ver.)
Artist:Rings of Saturn
ArtistUnicode:Rings of Saturn
Creator:HML
Version:Easy
Source:
Tags:stream deathcore technical death metal english Lugal Ki En mapper headphonewearer MrKosiej Chaotic Neutral Flare-kun Flarekun Fenza Broly Irate
BeatmapID:1079029
BeatmapSetID:507278

[Difficulty]
HPDrainRate:3
CircleSize:3
OverallDifficulty:3.5
ApproachRate:3
SliderMultiplier:0.499999999999999
SliderTickRate:1

[Events]
//Background and Video events
0,0,"BG.jpg",0,0
//Break Periods
2,58093,59321
2,61849,62877
//Storyboard Layer 0 (Background)
//Storyboard Layer 1 (Fail)
//Storyboard Layer 2 (Pass)
//Storyboard Layer 3 (Foreground)
//Storyboard Layer 4 (Overlay)
//Storyboard Sound Samples

[TimingPoints]
1449,222.222222222222,4,1,1,65,1,0
40560,-100,4,1,2,65,0,1
42115,-100,4,1,1,65,0,1
42782,-100,4,1,2,65,0,1
43226,-100,4,1,1,65,0,1
44115,-100,4,1,1,65,0,0
45893,-100,4,1,2,65,0,1
49226,-100,4,1,1,65,0,1
49893,-100,4,1,2,65,0,1
50337,-100,4,1,1,65,0,1
51226,-100,4,1,1,65,0,0
53004,-100,4,1,2,65,0,1
54782,-100,4,1,1,65,0,0
58318,222.222222222222,4,1,1,65,1,0
58984,222.222222222222,4,1,1,65,1,0
64317,-100,4,1,3,65,0,0
69650,-100,4,1,1,65,0,0
73983,-100,4,1,1,20,0,0

[Colours]
Combo1 : 247,221,79
Combo2 : 64,136,255
Combo3 : 168,68,68
Combo4 : 154,79,255

[HitObjects]
64,148,1449,6,0,P|148:108|240:160,1,200,8|8,0:0|0:0,0:0:0:0:
316,216,2782,2,0,P|368:224|416:204,1,99.9999999999998,0|2,0:0|0:0,0:0:0:0:
356,124,3671,1,2,0:0:0:0:
256,120,4115,2,0,L|156:128,1,99.9999999999998,8|4,0:0|0:0,0:0:0:0:
148,228,5004,6,0,P|188:244|248:232,1,99.9999999999998,8|8,0:0|0:0,0:0:0:0:
344,232,5893,2,0,P|388:228|440:260,1,99.9999999999998,8|8,0:0|0:0,0:0:0:0:
364,324,6782,2,0,L|164:328,1,200,8|8,0:0|0:0,0:0:0:0:
104,132,8560,6,0,P|148:108|204:112,1,99.9999999999998,8|8,0:0|0:0,0:0:0:0:
296,128,9448,2,0,L|312:228,1,99.9999999999998,8|8,0:0|0:0,0:0:0:0:
256,312,10337,1,8,0:0:0:0:
156,300,10782,1,8,0:0:0:0:
212,216,11226,1,8,0:0:0:0:
311,226,11671,1,12,0:0:0:0:
408,200,12115,6,0,L|411:305,1,99.9999999999998,4|4,0:0|0:0,0:0:0:0:
312,324,13004,1,8,0:0:0:0:
212,216,13671,2,0,P|269:138|372:117,1,200,8|0,0:0|0:0,0:0:0:0:
416,132,14782,2,0,L|420:232,1,99.9999999999998,8|10,0:0|0:0,0:0:0:0:
376,320,15671,6,0,L|272:328,2,99.9999999999998,8|8|8,0:0|0:0|0:0,0:0:0:0:
320,236,17004,2,0,L|216:244,1,99.9999999999998,8|6,0:0|0:0,0:0:0:0:
200,144,17893,1,6,0:0:0:0:
304,144,18337,2,0,P|384:168|400:272,1,200,0|4,0:0|0:0,0:0:0:0:
324,336,19671,5,4,0:0:0:0:
316,236,20115,1,8,0:0:0:0:
196,144,20782,2,0,P|252:64|340:84,1,200,8|0,0:0|0:0,0:0:0:0:
376,120,21893,2,0,L|404:220,1,99.9999999999998,8|10,0:0|0:0,0:0:0:0:
324,276,22782,6,0,L|296:176,1,99.9999999999998,8|8,0:0|0:0,0:0:0:0:
236,100,23671,1,8,0:0:0:0:
328,68,24115,1,8,0:0:0:0:
428,60,24560,2,0,L|452:164,1,99.9999999999998,4|4,0:0|0:0,0:0:0:0:
412,188,25226,2,0,L|260:200,1,150,8|0,0:0|0:0,0:0:0:0:
164,192,26337,6,0,P|128:148|200:40,1,200,4|12,0:0|0:0,0:0:0:0:
260,172,27893,2,0,L|272:352,1,175,12|8,0:0|0:0,0:0:0:0:
196,356,29004,2,0,B|196:324|164:304|164:304|172:284|172:284|144:248|172:172,1,200,12|4,0:0|0:0,0:0:0:0:
76,144,30337,2,0,L|80:248,1,99.9999999999998,4|12,0:0|0:0,0:0:0:0:
0,136,31448,6,0,P|12:96|64:68,1,99.9999999999998,4|4,0:0|0:0,0:0:0:0:
112,64,32115,2,0,L|220:72,1,99.9999999999998,4|8,0:0|0:0,0:0:0:0:
392,156,33448,6,0,L|188:164,1,200,4|12,0:0|0:0,0:0:0:0:
260,28,35004,2,0,L|440:20,1,175,4|8,0:0|0:0,0:0:0:0:
448,96,36115,2,0,L|464:195,1,99.9999999999998,12|4,0:0|0:0,0:0:0:0:
420,284,37004,6,0,L|210:289,1,200,4|12,0:0|0:0,0:0:0:0:
168,292,38115,2,0,P|148:240|152:188,1,99.9999999999998,4|4,0:0|0:0,0:0:0:0:
220,124,39004,2,0,L|324:124,1,99.9999999999998,8|0,0:0|0:0,0:0:0:0:
368,128,39671,2,0,P|316:224|284:228,1,150,8|0,0:0|0:0,0:0:0:0:
236,232,40560,5,2,0:0:0:0:
136,240,41004,2,0,L|124:84,1,150,2|2,0:0|0:0,0:0:0:0:
224,82,42115,2,0,L|236:238,1,150,2|2,0:0|0:0,0:0:0:0:
300,308,43226,6,0,P|336:268|336:216,1,99.9999999999998,2|4,0:0|0:0,0:0:0:0:
288,136,44115,2,0,L|184:128,1,99.9999999999998,2|4,0:0|0:0,0:0:0:0:
88,140,45004,1,8,0:0:0:0:
76,240,45448,1,0,0:0:0:0:
124,328,45893,2,0,L|232:332,1,99.9999999999998,2|2,0:0|0:0,0:0:0:0:
276,332,46560,2,0,P|328:256|308:152,1,200,2|2,0:0|0:0,0:0:0:0:
268,128,47671,5,2,0:0:0:0:
184,180,48115,2,0,L|180:336,1,150,2|2,0:0|0:0,0:0:0:0:
280,312,49226,2,0,L|283:162,1,150,2|2,0:0|0:0,0:0:0:0:
208,96,50337,6,0,P|148:108|124:140,1,99.9999999999998,2|4,0:0|0:0,0:0:0:0:
208,192,51226,2,0,L|316:200,1,99.9999999999998,2|4,0:0|0:0,0:0:0:0:
404,224,52115,1,8,0:0:0:0:
400,324,52560,1,0,0:0:0:0:
308,288,53004,2,0,L|200:292,1,99.9999999999998,2|2,0:0|0:0,0:0:0:0:
160,284,53671,2,0,P|132:188|180:104,1,200,2|8,0:0|0:0,0:0:0:0:
228,92,54782,5,4,0:0:0:0:
316,144,55226,2,0,L|320:248,1,99.9999999999998,4|8,0:0|0:0,0:0:0:0:
180,296,56337,2,0,P|136:236|156:116,1,200,8|0,0:0|0:0,0:0:0:0:
200,96,57448,1,8,0:0:0:0:
300,96,57893,1,2,0:0:0:0:
440,88,60761,6,0,P|464:144|456:192,2,99.9999999999998,8|8|4,0:0|0:0|0:0,0:0:0:0:
72,316,64317,6,0,L|72:212,1,99.9999999999998,8|8,0:0|0:0,0:0:0:0:
164,180,65206,2,0,L|164:284,1,99.9999999999998,8|8,0:0|0:0,0:0:0:0:
256,320,66095,2,0,B|284:352|284:352|296:236|296:236|316:176|316:176|312:92,1,299.999999999999,8|8,0:0|0:0,0:0:0:0:
212,104,67872,6,0,L|108:116,1,99.9999999999998,8|8,0:0|0:0,0:0:0:0:
124,216,68761,1,8,0:0:0:0:
224,204,69206,1,8,0:0:0:0:
180,292,69650,6,0,P|76:292|32:212,1,200,8|8,0:0|0:0,0:0:0:0:
32,116,70983,1,8,0:0:0:0:
256,192,71428,12,2,74095,0:0:0:0:
