osu file format v14

[General]
AudioFilename: Eviscerate.ogg
AudioLeadIn: 1500
PreviewTime: 190893
Countdown: 0
SampleSet: Normal
StackLeniency: 0.7
Mode: 1
LetterboxInBreaks: 0
WidescreenStoryboard: 1

[Editor]
DistanceSpacing: 1
BeatDivisor: 4
GridSize: 16
TimelineZoom: 3.799999

[Metadata]
Title:Eviscerate
TitleUnicode:Eviscerate
Artist:Rings of Saturn
ArtistUnicode:Rings of Saturn
Creator:Xay
Version:Oniscerate
Source:
Tags:lugal ki en technical death power metal xayphon xlm stepmania
BeatmapID:1621260
BeatmapSetID:477477

[Difficulty]
HPDrainRate:5
CircleSize:4
OverallDifficulty:6
ApproachRate:5
SliderMultiplier:1.4
SliderTickRate:1

[Events]
//Background and Video events
0,0,"Eviscerate.jpg",0,0
//Break Periods
//Storyboard Layer 0 (Background)
//Storyboard Layer 1 (Fail)
//Storyboard Layer 2 (Pass)
//Storyboard Layer 3 (Foreground)
//Storyboard Sound Samples

[TimingPoints]
1860,260.87,4,1,0,85,1,0
75947,600,4,1,0,85,1,0
85547,260.87,4,1,0,85,1,0

[HitObjects]
192,112,1855,5,8,0:0:0:0:
128,80,1925,1,8,0:0:0:0:
96,64,1990,1,0,0:0:0:0:
80,128,2055,1,8,0:0:0:0:
128,160,2120,1,0,0:0:0:0:
224,160,2186,1,8,0:0:0:0:
208,144,2251,1,8,0:0:0:0:
240,128,2316,1,8,0:0:0:0:
256,128,2381,1,0,0:0:0:0:
288,112,2446,1,0,0:0:0:0:
336,128,2512,1,0,0:0:0:0:
336,128,2577,1,8,0:0:0:0:
64,96,2642,1,0,0:0:0:0:
192,96,2707,1,8,0:0:0:0:
208,48,2773,1,8,0:0:0:0:
144,48,2838,1,0,0:0:0:0:
144,80,2903,1,8,0:0:0:0:
256,208,2968,1,8,0:0:0:0:
176,144,3033,1,8,0:0:0:0:
96,160,3099,1,0,0:0:0:0:
96,160,3164,1,0,0:0:0:0:
144,192,3229,1,8,0:0:0:0:
64,96,3294,1,0,0:0:0:0:
64,64,3360,1,8,0:0:0:0:
64,64,3425,1,0,0:0:0:0:
64,64,3490,1,8,0:0:0:0:
64,64,3555,1,8,0:0:0:0:
96,96,3620,1,0,0:0:0:0:
96,96,3686,1,8,0:0:0:0:
112,96,3751,1,0,0:0:0:0:
224,160,3816,1,0,0:0:0:0:
176,128,3881,1,0,0:0:0:0:
272,80,3946,1,8,0:0:0:0:
224,64,4012,1,8,0:0:0:0:
160,48,4077,1,0,0:0:0:0:
144,48,4142,1,8,0:0:0:0:
112,32,4207,1,8,0:0:0:0:
112,32,4273,1,0,0:0:0:0:
80,64,4338,1,0,0:0:0:0:
80,64,4403,1,0,0:0:0:0:
288,160,4468,1,8,0:0:0:0:
240,128,4533,1,8,0:0:0:0:
112,160,4599,1,8,0:0:0:0:
176,176,4664,1,8,0:0:0:0:
160,144,4729,1,0,0:0:0:0:
224,96,4794,1,8,0:0:0:0:
128,64,4860,1,0,0:0:0:0:
96,80,4925,1,0,0:0:0:0:
128,80,4990,1,8,0:0:0:0:
176,176,5773,1,0,0:0:0:0:
320,208,5903,1,0,0:0:0:0:
256,96,6033,1,8,0:0:0:0:
176,96,6099,1,8,0:0:0:0:
128,112,6164,1,0,0:0:0:0:
224,128,6229,1,8,0:0:0:0:
144,160,6294,1,0,0:0:0:0:
128,160,6360,1,0,0:0:0:0:
256,224,6425,1,8,0:0:0:0:
160,208,6490,1,8,0:0:0:0:
112,208,6555,1,0,0:0:0:0:
176,240,6620,1,8,0:0:0:0:
352,224,6686,1,0,0:0:0:0:
320,176,6751,1,0,0:0:0:0:
304,272,6816,1,0,0:0:0:0:
240,176,6946,1,0,0:0:0:0:
240,176,7077,1,8,0:0:0:0:
384,272,7142,1,8,0:0:0:0:
240,160,7207,1,8,0:0:0:0:
240,160,7338,1,4,0:0:0:0:
160,96,7599,1,4,0:0:0:0:
256,112,7860,1,8,0:0:0:0:
208,96,7925,1,8,0:0:0:0:
208,96,7990,1,8,0:0:0:0:
368,192,8120,1,8,0:0:0:0:
240,176,8186,1,0,0:0:0:0:
112,160,8251,1,0,0:0:0:0:
112,160,8316,1,0,0:0:0:0:
128,176,8381,1,8,0:0:0:0:
176,192,8446,1,0,0:0:0:0:
48,80,8512,1,0,0:0:0:0:
32,80,8577,1,0,0:0:0:0:
32,80,8642,1,8,0:0:0:0:
288,96,8707,1,0,0:0:0:0:
208,80,8773,1,0,0:0:0:0:
192,80,8838,1,0,0:0:0:0:
336,208,8903,1,8,0:0:0:0:
256,176,8968,1,8,0:0:0:0:
224,160,9033,1,8,0:0:0:0:
208,160,9099,1,8,0:0:0:0:
160,208,9164,1,0,0:0:0:0:
336,128,9229,1,8,0:0:0:0:
272,128,9294,1,0,0:0:0:0:
208,128,9360,1,8,0:0:0:0:
160,128,9425,1,0,0:0:0:0:
160,160,9490,1,0,0:0:0:0:
256,192,9555,1,0,0:0:0:0:
208,144,9620,1,8,0:0:0:0:
176,64,9686,1,8,0:0:0:0:
128,64,9751,1,0,0:0:0:0:
112,64,9816,1,8,0:0:0:0:
112,64,9881,1,8,0:0:0:0:
96,64,9946,1,0,0:0:0:0:
288,224,10077,1,0,0:0:0:0:
288,112,10207,1,8,0:0:0:0:
240,96,10273,1,8,0:0:0:0:
176,96,10338,1,8,0:0:0:0:
176,96,10403,1,8,0:0:0:0:
240,192,10468,1,0,0:0:0:0:
256,208,10599,1,4,0:0:0:0:
352,176,10729,1,8,0:0:0:0:
256,144,10794,1,8,0:0:0:0:
176,144,10860,1,8,0:0:0:0:
176,144,10925,1,8,0:0:0:0:
160,160,10990,1,0,0:0:0:0:
112,144,11120,1,4,0:0:0:0:
320,224,11251,1,8,0:0:0:0:
144,64,11316,1,0,0:0:0:0:
112,64,11381,1,8,0:0:0:0:
96,64,11446,1,8,0:0:0:0:
96,80,11512,1,0,0:0:0:0:
240,128,11773,1,4,0:0:0:0:
384,208,12033,1,8,0:0:0:0:
224,176,12099,1,0,0:0:0:0:
112,160,12164,1,8,0:0:0:0:
112,128,12229,1,8,0:0:0:0:
176,144,12294,1,0,0:0:0:0:
144,64,12360,1,8,0:0:0:0:
288,96,12425,1,8,0:0:0:0:
48,80,12490,1,8,0:0:0:0:
128,128,12555,1,0,0:0:0:0:
144,144,12620,1,8,0:0:0:0:
144,128,12686,1,0,0:0:0:0:
208,224,12751,1,8,0:0:0:0:
208,128,12816,1,0,0:0:0:0:
400,208,12881,1,0,0:0:0:0:
304,160,12946,1,8,0:0:0:0:
256,80,13077,1,0,0:0:0:0:
192,80,13142,1,0,0:0:0:0:
160,80,13207,1,0,0:0:0:0:
192,160,13338,1,8,0:0:0:0:
128,160,13468,1,8,0:0:0:0:
256,208,13599,1,0,0:0:0:0:
192,160,13664,1,0,0:0:0:0:
160,144,13729,1,0,0:0:0:0:
304,144,13860,1,0,0:0:0:0:
176,64,13925,1,8,0:0:0:0:
80,64,13990,1,0,0:0:0:0:
96,128,14120,1,8,0:0:0:0:
160,224,14186,1,0,0:0:0:0:
80,192,14251,1,0,0:0:0:0:
288,80,14381,1,8,0:0:0:0:
224,80,14446,1,0,0:0:0:0:
160,96,14512,1,8,0:0:0:0:
208,160,14577,1,0,0:0:0:0:
272,160,14642,1,8,0:0:0:0:
272,160,14707,1,8,0:0:0:0:
336,160,14773,1,8,0:0:0:0:
272,208,14838,1,0,0:0:0:0:
208,192,14903,1,8,0:0:0:0:
160,192,14968,1,8,0:0:0:0:
128,176,15033,1,0,0:0:0:0:
80,96,15099,1,8,0:0:0:0:
144,48,15164,1,0,0:0:0:0:
256,80,15229,1,8,0:0:0:0:
208,64,15294,1,8,0:0:0:0:
176,64,15360,1,0,0:0:0:0:
176,96,15425,1,0,0:0:0:0:
240,160,15490,1,0,0:0:0:0:
128,128,15555,1,8,0:0:0:0:
96,128,15620,1,8,0:0:0:0:
96,176,15686,1,0,0:0:0:0:
96,176,15751,1,0,0:0:0:0:
160,192,15816,1,8,0:0:0:0:
144,192,15881,1,0,0:0:0:0:
112,192,15946,1,8,0:0:0:0:
320,160,16012,1,8,0:0:0:0:
224,128,16077,1,0,0:0:0:0:
160,112,16142,1,8,0:0:0:0:
160,160,16207,1,0,0:0:0:0:
160,48,16273,1,0,0:0:0:0:
288,96,16338,1,0,0:0:0:0:
192,80,16403,1,0,0:0:0:0:
80,112,16468,1,8,0:0:0:0:
64,96,16533,1,8,0:0:0:0:
64,96,16599,1,0,0:0:0:0:
96,144,16664,1,8,0:0:0:0:
176,176,16729,1,0,0:0:0:0:
256,176,16794,1,8,0:0:0:0:
224,128,16860,1,8,0:0:0:0:
176,128,16925,1,8,0:0:0:0:
128,128,16990,1,0,0:0:0:0:
112,128,17055,1,8,0:0:0:0:
112,128,17120,1,0,0:0:0:0:
96,128,17186,1,0,0:0:0:0:
352,160,17251,1,8,0:0:0:0:
128,192,17316,1,0,0:0:0:0:
224,224,17381,1,0,0:0:0:0:
176,224,17446,1,0,0:0:0:0:
272,64,17512,1,8,0:0:0:0:
208,64,17577,1,0,0:0:0:0:
128,64,17642,1,8,0:0:0:0:
128,64,17707,1,8,0:0:0:0:
144,128,17773,1,0,0:0:0:0:
336,208,17903,1,0,0:0:0:0:
240,160,18033,1,4,0:0:0:0:
256,240,18164,1,0,0:0:0:0:
352,128,18294,1,8,0:0:0:0:
224,96,18360,1,0,0:0:0:0:
192,96,18425,1,8,0:0:0:0:
160,112,18490,1,8,0:0:0:0:
128,176,18555,1,0,0:0:0:0:
80,96,18686,1,4,0:0:0:0:
288,160,18816,1,8,0:0:0:0:
208,160,18881,1,8,0:0:0:0:
192,160,18946,1,8,0:0:0:0:
160,160,19012,1,8,0:0:0:0:
144,176,19077,1,0,0:0:0:0:
272,272,19207,1,4,0:0:0:0:
256,80,19338,1,8,0:0:0:0:
112,64,19403,1,8,0:0:0:0:
112,64,19468,1,8,0:0:0:0:
96,80,19533,1,8,0:0:0:0:
80,144,19599,1,0,0:0:0:0:
336,192,19664,1,8,0:0:0:0:
240,160,19729,1,8,0:0:0:0:
192,144,19794,1,8,0:0:0:0:
160,160,19860,1,0,0:0:0:0:
192,96,19925,1,8,0:0:0:0:
176,80,19990,1,0,0:0:0:0:
352,112,20055,1,0,0:0:0:0:
272,64,20120,1,0,0:0:0:0:
304,112,20186,1,8,0:0:0:0:
240,96,20251,1,0,0:0:0:0:
192,96,20316,1,8,0:0:0:0:
176,144,20381,1,8,0:0:0:0:
320,224,20446,1,0,0:0:0:0:
160,176,20512,1,0,0:0:0:0:
112,160,20577,1,0,0:0:0:0:
96,128,20642,1,8,0:0:0:0:
112,96,20707,1,8,0:0:0:0:
128,80,20773,1,0,0:0:0:0:
112,80,20838,1,0,0:0:0:0:
272,144,20903,1,8,0:0:0:0:
208,112,20968,1,8,0:0:0:0:
176,96,21033,1,0,0:0:0:0:
144,96,21099,1,0,0:0:0:0:
112,112,21164,1,8,0:0:0:0:
160,176,21229,1,0,0:0:0:0:
160,192,21294,1,8,0:0:0:0:
64,64,21360,1,8,0:0:0:0:
48,64,21425,1,0,0:0:0:0:
48,80,21490,1,0,0:0:0:0:
511,323,21555,1,0,0:0:0:0:
272,160,21686,1,8,0:0:0:0:
153,79,21946,1,0,0:0:0:0:
170,91,22012,1,0,0:0:0:0:
171,92,22077,1,0,0:0:0:0:
240,178,22207,1,8,0:0:0:0:
344,120,22273,1,0,0:0:0:0:
247,88,22338,1,0,0:0:0:0:
134,170,22468,1,0,0:0:0:0:
93,117,22533,1,8,0:0:0:0:
51,187,22599,1,0,0:0:0:0:
272,160,22729,1,0,0:0:0:0:
341,249,22794,1,8,0:0:0:0:
300,200,22860,1,8,0:0:0:0:
169,189,22990,1,8,0:0:0:0:
204,72,23055,1,8,0:0:0:0:
101,78,23120,1,0,0:0:0:0:
240,178,23251,1,0,0:0:0:0:
147,69,23316,1,0,0:0:0:0:
120,103,23381,1,0,0:0:0:0:
330,107,23512,1,8,0:0:0:0:
221,82,23577,1,8,0:0:0:0:
206,80,23642,1,8,0:0:0:0:
272,160,23773,1,0,0:0:0:0:
129,162,24033,1,8,0:0:0:0:
101,127,24099,1,0,0:0:0:0:
95,121,24164,1,8,0:0:0:0:
240,178,24294,1,8,0:0:0:0:
163,80,24360,1,0,0:0:0:0:
121,46,24425,1,0,0:0:0:0:
277,57,24555,1,0,0:0:0:0:
227,57,24620,1,0,0:0:0:0:
181,65,24686,1,8,0:0:0:0:
182,64,24751,1,8,0:0:0:0:
272,160,24816,1,0,0:0:0:0:
60,153,24881,1,8,0:0:0:0:
91,154,24946,1,0,0:0:0:0:
151,169,25077,1,0,0:0:0:0:
108,143,25142,1,0,0:0:0:0:
108,142,25207,1,0,0:0:0:0:
240,178,25338,1,8,0:0:0:0:
115,72,25599,1,0,0:0:0:0:
171,88,25664,1,0,0:0:0:0:
156,93,25729,1,0,0:0:0:0:
272,160,25860,1,8,0:0:0:0:
271,95,26120,1,8,0:0:0:0:
222,54,26186,1,0,0:0:0:0:
177,138,26251,1,0,0:0:0:0:
240,178,26381,1,8,0:0:0:0:
351,166,26446,1,8,0:0:0:0:
159,163,26512,1,0,0:0:0:0:
289,183,26642,1,0,0:0:0:0:
125,99,26707,1,8,0:0:0:0:
115,144,26773,1,0,0:0:0:0:
344,253,26903,1,8,0:0:0:0:
231,125,26968,1,0,0:0:0:0:
195,116,27033,1,8,0:0:0:0:
149,68,27164,1,0,0:0:0:0:
75,101,27229,1,8,0:0:0:0:
75,101,27294,1,8,0:0:0:0:
272,160,27425,1,8,0:0:0:0:
237,79,27490,1,8,0:0:0:0:
128,154,27555,1,0,0:0:0:0:
356,156,27686,1,0,0:0:0:0:
328,138,27751,1,8,0:0:0:0:
214,120,27816,1,8,0:0:0:0:
359,235,27881,1,0,0:0:0:0:
240,178,27947,1,0,0:0:0:0:
236,132,28207,1,8,0:0:0:0:
165,144,28273,1,0,0:0:0:0:
173,144,28338,1,0,0:0:0:0:
344,253,28468,1,0,0:0:0:0:
177,213,28533,1,8,0:0:0:0:
88,223,28599,1,0,0:0:0:0:
97,125,28729,1,0,0:0:0:0:
109,102,28794,1,0,0:0:0:0:
117,89,28860,1,8,0:0:0:0:
168,77,28925,1,8,0:0:0:0:
272,160,28990,1,0,0:0:0:0:
303,76,29055,1,8,0:0:0:0:
222,74,29120,1,0,0:0:0:0:
391,162,29251,1,0,0:0:0:0:
281,143,29316,1,0,0:0:0:0:
279,143,29381,1,0,0:0:0:0:
240,178,29512,1,8,0:0:0:0:
203,107,29773,1,0,0:0:0:0:
136,138,29838,1,0,0:0:0:0:
130,142,29903,1,0,0:0:0:0:
344,253,30033,1,8,0:0:0:0:
285,115,30294,1,8,0:0:0:0:
220,73,30360,1,8,0:0:0:0:
151,171,30425,1,0,0:0:0:0:
206,179,30490,1,0,0:0:0:0:
236,160,30555,1,8,0:0:0:0:
254,159,30620,1,8,0:0:0:0:
389,219,30686,1,0,0:0:0:0:
304,196,30751,1,0,0:0:0:0:
277,195,30816,1,0,0:0:0:0:
339,165,30881,1,0,0:0:0:0:
313,144,30947,1,0,0:0:0:0:
227,143,31012,1,0,0:0:0:0:
127,64,31077,1,8,0:0:0:0:
111,81,31142,1,8,0:0:0:0:
114,81,31207,1,8,0:0:0:0:
177,90,31273,1,0,0:0:0:0:
132,97,31338,1,8,0:0:0:0:
130,97,31403,1,8,0:0:0:0:
110,96,31468,1,0,0:0:0:0:
111,92,31533,1,0,0:0:0:0:
111,91,31599,1,8,0:0:0:0:
99,90,31664,1,8,0:0:0:0:
101,96,31729,1,8,0:0:0:0:
87,107,31794,1,0,0:0:0:0:
84,138,31860,1,8,0:0:0:0:
272,176,31925,1,8,0:0:0:0:
174,133,31990,1,8,0:0:0:0:
246,104,32055,1,0,0:0:0:0:
232,99,32120,1,0,0:0:0:0:
336,116,32381,1,0,0:0:0:0:
170,247,32447,1,0,0:0:0:0:
266,217,32512,1,0,0:0:0:0:
182,184,32642,1,8,0:0:0:0:
149,141,32707,1,8,0:0:0:0:
131,138,32773,1,8,0:0:0:0:
132,99,32903,1,0,0:0:0:0:
232,80,32968,1,0,0:0:0:0:
162,72,33033,1,0,0:0:0:0:
358,164,33164,1,8,0:0:0:0:
298,135,33229,1,0,0:0:0:0:
237,119,33294,1,0,0:0:0:0:
212,231,33425,1,8,0:0:0:0:
204,177,33490,1,8,0:0:0:0:
144,189,33555,1,8,0:0:0:0:
141,147,33686,1,0,0:0:0:0:
332,163,33947,1,8,0:0:0:0:
257,145,34012,1,8,0:0:0:0:
226,136,34077,1,8,0:0:0:0:
251,222,34207,1,4,0:0:0:0:
157,174,34468,1,0,0:0:0:0:
125,128,34533,1,0,0:0:0:0:
106,115,34599,1,0,0:0:0:0:
189,102,34729,1,0,0:0:0:0:
107,66,34794,1,8,0:0:0:0:
105,74,34860,1,0,0:0:0:0:
299,158,34990,1,0,0:0:0:0:
236,145,35055,1,0,0:0:0:0:
153,164,35120,1,0,0:0:0:0:
376,243,35251,1,8,0:0:0:0:
264,225,35316,1,8,0:0:0:0:
138,216,35381,1,8,0:0:0:0:
148,89,35512,1,0,0:0:0:0:
278,92,35577,1,8,0:0:0:0:
220,64,35642,1,0,0:0:0:0:
320,183,35773,1,8,0:0:0:0:
147,166,35838,1,0,0:0:0:0:
107,158,35903,1,0,0:0:0:0:
190,179,36033,1,0,0:0:0:0:
185,183,36099,1,8,0:0:0:0:
172,203,36164,1,8,0:0:0:0:
344,297,36294,1,4,0:0:0:0:
251,119,36555,1,0,0:0:0:0:
149,88,36620,1,8,0:0:0:0:
99,99,36686,1,0,0:0:0:0:
188,187,36816,1,8,0:0:0:0:
92,170,36881,1,0,0:0:0:0:
94,195,36947,1,8,0:0:0:0:
316,193,37077,1,0,0:0:0:0:
246,168,37142,1,0,0:0:0:0:
363,130,37207,1,8,0:0:0:0:
145,96,37599,1,8,0:0:0:0:
53,72,37664,1,8,0:0:0:0:
52,117,37729,1,8,0:0:0:0:
257,248,38120,1,0,0:0:0:0:
30,213,38186,1,0,0:0:0:0:
107,227,38251,1,0,0:0:0:0:
192,168,38642,1,8,0:0:0:0:
235,67,38707,1,0,0:0:0:0:
176,68,38773,1,8,0:0:0:0:
81,52,38838,1,8,0:0:0:0:
93,102,38903,1,0,0:0:0:0:
95,111,38968,1,0,0:0:0:0:
96,113,39033,1,8,0:0:0:0:
97,121,39099,1,8,0:0:0:0:
89,124,39164,1,0,0:0:0:0:
103,131,39229,1,8,0:0:0:0:
103,133,39294,1,0,0:0:0:0:
136,161,39360,1,8,0:0:0:0:
255,176,39425,1,0,0:0:0:0:
186,83,39555,1,8,0:0:0:0:
78,62,39620,1,8,0:0:0:0:
78,62,39686,1,0,0:0:0:0:
242,67,39816,1,8,0:0:0:0:
217,60,39881,1,8,0:0:0:0:
274,172,39947,1,0,0:0:0:0:
191,133,40012,1,0,0:0:0:0:
124,109,40077,1,8,0:0:0:0:
124,109,40142,1,8,0:0:0:0:
123,125,40207,1,0,0:0:0:0:
255,205,40338,1,0,0:0:0:0:
373,217,40403,1,0,0:0:0:0:
366,143,40468,1,8,0:0:0:0:
245,102,40533,1,8,0:0:0:0:
238,99,40599,1,8,0:0:0:0:
266,167,40664,1,0,0:0:0:0:
176,194,40729,1,0,0:0:0:0:
135,163,40794,1,8,0:0:0:0:
72,153,40860,1,8,0:0:0:0:
190,95,40925,1,8,0:0:0:0:
162,139,40990,1,0,0:0:0:0:
140,127,41055,1,8,0:0:0:0:
164,120,41120,1,8,0:0:0:0:
334,224,41251,1,0,0:0:0:0:
312,163,41316,1,0,0:0:0:0:
256,153,41381,1,8,0:0:0:0:
234,153,41447,1,8,0:0:0:0:
211,186,41512,1,0,0:0:0:0:
62,168,41577,1,8,0:0:0:0:
66,109,41642,1,8,0:0:0:0:
159,128,41773,1,0,0:0:0:0:
159,122,41838,1,8,0:0:0:0:
209,124,41903,1,8,0:0:0:0:
349,97,42033,1,8,0:0:0:0:
271,87,42099,1,8,0:0:0:0:
265,92,42164,1,8,0:0:0:0:
271,205,42294,1,0,0:0:0:0:
201,174,42360,1,0,0:0:0:0:
181,178,42425,1,0,0:0:0:0:
111,77,42816,1,0,0:0:0:0:
161,104,42881,1,8,0:0:0:0:
258,107,42947,1,8,0:0:0:0:
67,152,43012,1,0,0:0:0:0:
188,162,43077,1,8,0:0:0:0:
276,204,43142,1,8,0:0:0:0:
242,155,43207,1,0,0:0:0:0:
216,153,43273,1,8,0:0:0:0:
157,168,43338,1,0,0:0:0:0:
178,101,43403,1,8,0:0:0:0:
155,96,43468,1,8,0:0:0:0:
109,95,43533,1,8,0:0:0:0:
115,107,43599,1,0,0:0:0:0:
270,102,43664,1,8,0:0:0:0:
205,81,43729,1,8,0:0:0:0:
205,81,43794,1,8,0:0:0:0:
329,253,43860,1,0,0:0:0:0:
201,151,43990,1,8,0:0:0:0:
141,153,44055,1,8,0:0:0:0:
140,168,44120,1,0,0:0:0:0:
280,165,44251,1,8,0:0:0:0:
206,158,44316,1,8,0:0:0:0:
192,160,44381,1,0,0:0:0:0:
260,92,44447,1,8,0:0:0:0:
176,92,44512,1,8,0:0:0:0:
156,94,44577,1,0,0:0:0:0:
228,129,44642,1,0,0:0:0:0:
250,229,44707,1,0,0:0:0:0:
151,208,44773,1,0,0:0:0:0:
374,217,44903,1,8,0:0:0:0:
280,165,44968,1,8,0:0:0:0:
235,152,45033,1,8,0:0:0:0:
158,148,45164,1,0,0:0:0:0:
142,150,45229,1,8,0:0:0:0:
107,168,45294,1,0,0:0:0:0:
226,213,45425,1,0,0:0:0:0:
181,168,45490,1,0,0:0:0:0:
206,94,45555,1,8,0:0:0:0:
123,97,45620,1,8,0:0:0:0:
95,115,45686,1,0,0:0:0:0:
270,95,45751,1,8,0:0:0:0:
246,67,45816,1,8,0:0:0:0:
182,57,45881,1,8,0:0:0:0:
176,60,45947,1,0,0:0:0:0:
121,57,46012,1,0,0:0:0:0:
121,57,46077,1,8,0:0:0:0:
201,178,46142,1,8,0:0:0:0:
127,135,46207,1,0,0:0:0:0:
191,117,46273,1,0,0:0:0:0:
223,163,46338,1,8,0:0:0:0:
258,119,46403,1,8,0:0:0:0:
300,124,46468,1,0,0:0:0:0:
286,105,46533,1,8,0:0:0:0:
182,57,46599,1,0,0:0:0:0:
35,146,46664,1,8,0:0:0:0:
121,231,46729,1,0,0:0:0:0:
176,160,46794,1,0,0:0:0:0:
144,144,46860,1,0,0:0:0:0:
144,144,46990,1,0,0:0:0:0:
144,144,47055,1,8,0:0:0:0:
144,144,47120,1,0,0:0:0:0:
144,160,47251,1,8,0:0:0:0:
144,160,47316,1,0,0:0:0:0:
144,144,47381,1,0,0:0:0:0:
208,96,47512,1,0,0:0:0:0:
96,64,47642,1,0,0:0:0:0:
144,160,47773,1,8,0:0:0:0:
320,96,47838,1,0,0:0:0:0:
256,64,47903,1,0,0:0:0:0:
352,256,48033,1,0,0:0:0:0:
320,224,48164,1,0,0:0:0:0:
176,224,48294,1,8,0:0:0:0:
160,208,48425,1,8,0:0:0:0:
304,176,48555,1,0,0:0:0:0:
176,144,48620,1,0,0:0:0:0:
0,112,48686,1,0,0:0:0:0:
384,192,48816,1,0,0:0:0:0:
224,128,48947,1,8,0:0:0:0:
176,208,49077,1,0,0:0:0:0:
160,176,49142,1,8,0:0:0:0:
112,160,49207,1,0,0:0:0:0:
112,160,49338,1,8,0:0:0:0:
112,160,49403,1,0,0:0:0:0:
112,160,49468,1,0,0:0:0:0:
320,272,49599,1,0,0:0:0:0:
112,224,49729,1,0,0:0:0:0:
288,176,49860,1,8,0:0:0:0:
272,176,49925,1,0,0:0:0:0:
240,160,49990,1,0,0:0:0:0:
336,272,50120,1,0,0:0:0:0:
240,240,50251,1,0,0:0:0:0:
288,64,50381,1,8,0:0:0:0:
192,128,50447,1,8,0:0:0:0:
80,112,50512,1,0,0:0:0:0:
160,80,50642,1,8,0:0:0:0:
224,176,50707,1,0,0:0:0:0:
144,176,50773,1,0,0:0:0:0:
304,160,50903,1,0,0:0:0:0:
272,144,50968,1,8,0:0:0:0:
224,176,51033,1,0,0:0:0:0:
240,96,51164,1,8,0:0:0:0:
160,96,51229,1,0,0:0:0:0:
96,112,51294,1,0,0:0:0:0:
336,96,51360,1,8,0:0:0:0:
272,96,51425,1,8,0:0:0:0:
368,240,51490,1,0,0:0:0:0:
208,208,51555,1,0,0:0:0:0:
320,224,51686,1,8,0:0:0:0:
128,176,51816,1,0,0:0:0:0:
208,112,51947,1,8,0:0:0:0:
160,96,52012,1,8,0:0:0:0:
144,176,52077,1,0,0:0:0:0:
80,112,52207,1,0,0:0:0:0:
80,208,52338,1,0,0:0:0:0:
192,240,52468,1,8,0:0:0:0:
128,224,52599,1,8,0:0:0:0:
272,160,52729,1,0,0:0:0:0:
240,128,52794,1,0,0:0:0:0:
192,128,52860,1,8,0:0:0:0:
112,160,52990,1,0,0:0:0:0:
128,80,53120,1,0,0:0:0:0:
256,80,53186,1,8,0:0:0:0:
192,96,53251,1,0,0:0:0:0:
208,160,53381,1,0,0:0:0:0:
128,208,53447,1,8,0:0:0:0:
224,224,53512,1,0,0:0:0:0:
224,96,53642,1,0,0:0:0:0:
320,160,53773,1,0,0:0:0:0:
256,112,53838,1,8,0:0:0:0:
240,80,53903,1,8,0:0:0:0:
272,176,54034,1,0,0:0:0:0:
128,112,54164,1,0,0:0:0:0:
192,160,54294,1,0,0:0:0:0:
160,112,54360,1,8,0:0:0:0:
160,112,54425,1,8,0:0:0:0:
352,176,54555,1,8,0:0:0:0:
320,128,54620,1,0,0:0:0:0:
224,112,54686,1,8,0:0:0:0:
208,112,54751,1,8,0:0:0:0:
144,128,54816,1,0,0:0:0:0:
160,128,54881,1,8,0:0:0:0:
160,128,54947,1,0,0:0:0:0:
160,128,55012,1,0,0:0:0:0:
144,160,55077,1,8,0:0:0:0:
208,128,55142,1,0,0:0:0:0:
208,112,55207,1,8,0:0:0:0:
160,112,55273,1,0,0:0:0:0:
160,96,55338,1,8,0:0:0:0:
176,96,55403,1,8,0:0:0:0:
176,96,55468,1,8,0:0:0:0:
160,96,55534,1,8,0:0:0:0:
144,128,55599,1,0,0:0:0:0:
320,160,55664,1,0,0:0:0:0:
272,96,55729,1,8,0:0:0:0:
240,96,55794,1,8,0:0:0:0:
224,160,55860,1,0,0:0:0:0:
192,144,55925,1,8,0:0:0:0:
192,144,55990,1,8,0:0:0:0:
96,64,56055,1,8,0:0:0:0:
160,176,56120,1,0,0:0:0:0:
128,160,56186,1,0,0:0:0:0:
288,224,56251,1,0,0:0:0:0:
224,80,56381,1,8,0:0:0:0:
176,64,56447,1,8,0:0:0:0:
144,80,56512,1,8,0:0:0:0:
144,80,56642,1,8,0:0:0:0:
144,80,56707,1,8,0:0:0:0:
144,80,56773,1,8,0:0:0:0:
272,144,57164,1,12,0:0:0:0:
112,176,57686,1,4,0:0:0:0:
272,112,58207,1,12,0:0:0:0:
192,128,58729,1,4,0:0:0:0:
128,80,59251,1,8,0:0:0:0:
112,80,59316,1,8,0:0:0:0:
96,128,59381,1,8,0:0:0:0:
208,80,59447,1,8,0:0:0:0:
288,192,59512,1,0,0:0:0:0:
336,96,59773,1,4,0:0:0:0:
64,176,60034,1,8,0:0:0:0:
128,112,60099,1,8,0:0:0:0:
144,160,60164,1,8,0:0:0:0:
256,112,60229,1,8,0:0:0:0:
176,64,60294,1,0,0:0:0:0:
320,128,60360,1,8,0:0:0:0:
224,80,60425,1,8,0:0:0:0:
192,80,60490,1,0,0:0:0:0:
192,96,60555,1,8,0:0:0:0:
176,96,60620,1,8,0:0:0:0:
176,96,60686,1,0,0:0:0:0:
128,112,60751,1,0,0:0:0:0:
320,176,60816,1,8,0:0:0:0:
208,144,60881,1,0,0:0:0:0:
192,144,60947,1,8,0:0:0:0:
128,128,61012,1,8,0:0:0:0:
320,272,61077,1,0,0:0:0:0:
224,240,61142,1,0,0:0:0:0:
160,240,61207,1,0,0:0:0:0:
256,208,61599,1,0,0:0:0:0:
192,160,61664,1,0,0:0:0:0:
160,144,61729,1,0,0:0:0:0:
304,144,61860,1,0,0:0:0:0:
176,64,61925,1,8,0:0:0:0:
80,64,61990,1,0,0:0:0:0:
96,128,62120,1,8,0:0:0:0:
160,224,62186,1,0,0:0:0:0:
80,192,62251,1,0,0:0:0:0:
288,64,62381,1,8,0:0:0:0:
224,80,62447,1,0,0:0:0:0:
144,96,62512,1,8,0:0:0:0:
160,112,62577,1,8,0:0:0:0:
192,144,62642,1,0,0:0:0:0:
272,128,62707,1,8,0:0:0:0:
240,128,62773,1,0,0:0:0:0:
224,112,62838,1,8,0:0:0:0:
224,112,62903,1,8,0:0:0:0:
224,112,62968,1,0,0:0:0:0:
224,112,63034,1,0,0:0:0:0:
224,112,63099,1,8,0:0:0:0:
224,112,63164,1,0,0:0:0:0:
224,112,63229,1,8,0:0:0:0:
224,112,63294,1,8,0:0:0:0:
224,112,63360,1,8,0:0:0:0:
224,112,63425,1,0,0:0:0:0:
224,112,63490,1,8,0:0:0:0:
352,160,63555,1,0,0:0:0:0:
224,208,63620,1,0,0:0:0:0:
256,80,63686,1,8,0:0:0:0:
112,96,63751,1,0,0:0:0:0:
112,96,63816,1,0,0:0:0:0:
272,208,63881,1,0,0:0:0:0:
192,144,63947,1,8,0:0:0:0:
144,128,64012,1,8,0:0:0:0:
128,128,64077,1,8,0:0:0:0:
160,112,64142,1,0,0:0:0:0:
160,112,64207,1,8,0:0:0:0:
160,112,64273,1,8,0:0:0:0:
272,160,64338,1,0,0:0:0:0:
240,96,64403,1,0,0:0:0:0:
160,64,64468,1,8,0:0:0:0:
160,64,64534,1,8,0:0:0:0:
368,160,64599,1,8,0:0:0:0:
144,176,64664,1,0,0:0:0:0:
224,192,64729,1,8,0:0:0:0:
192,160,64794,1,0,0:0:0:0:
32,144,64860,1,0,0:0:0:0:
96,96,64925,1,0,0:0:0:0:
96,96,64990,1,8,0:0:0:0:
176,112,65055,1,0,0:0:0:0:
192,112,65120,1,0,0:0:0:0:
224,128,65186,1,0,0:0:0:0:
272,112,65251,1,8,0:0:0:0:
256,96,65316,1,8,0:0:0:0:
208,64,65381,1,0,0:0:0:0:
128,64,65447,1,8,0:0:0:0:
176,224,65512,1,0,0:0:0:0:
304,208,65577,1,0,0:0:0:0:
176,160,65642,1,8,0:0:0:0:
80,144,65707,1,0,0:0:0:0:
96,80,65773,1,8,0:0:0:0:
208,128,65838,1,8,0:0:0:0:
208,128,65903,1,0,0:0:0:0:
336,96,65968,1,8,0:0:0:0:
240,64,66034,1,0,0:0:0:0:
128,128,66099,1,8,0:0:0:0:
96,208,66164,1,8,0:0:0:0:
176,192,66229,1,0,0:0:0:0:
256,224,66294,1,8,0:0:0:0:
288,208,66360,1,0,0:0:0:0:
192,176,66425,1,0,0:0:0:0:
192,160,66490,1,0,0:0:0:0:
304,144,66555,1,8,0:0:0:0:
160,64,66599,1,8,0:0:0:0:
96,48,66642,1,8,0:0:0:0:
80,96,66686,1,0,0:0:0:0:
240,128,66816,1,0,0:0:0:0:
144,96,66947,1,8,0:0:0:0:
176,224,67077,1,8,0:0:0:0:
160,96,67120,1,8,0:0:0:0:
224,64,67164,1,8,0:0:0:0:
176,64,67207,1,0,0:0:0:0:
224,160,67338,1,0,0:0:0:0:
304,112,67468,1,8,0:0:0:0:
288,80,67599,1,8,0:0:0:0:
336,192,67664,1,8,0:0:0:0:
320,144,67729,1,8,0:0:0:0:
304,144,67794,1,8,0:0:0:0:
256,192,67860,1,0,0:0:0:0:
176,192,67990,1,0,0:0:0:0:
160,144,68120,1,12,0:0:0:0:
256,112,68251,1,0,0:0:0:0:
176,80,68381,1,8,0:0:0:0:
128,128,68447,1,8,0:0:0:0:
80,80,68512,1,8,0:0:0:0:
80,80,68577,1,8,0:0:0:0:
96,128,68642,1,0,0:0:0:0:
320,192,68707,1,8,0:0:0:0:
160,144,68773,1,8,0:0:0:0:
240,160,68838,1,0,0:0:0:0:
208,96,68903,1,0,0:0:0:0:
224,96,68968,1,8,0:0:0:0:
240,80,69034,1,0,0:0:0:0:
240,64,69099,1,8,0:0:0:0:
240,80,69164,1,8,0:0:0:0:
176,64,69229,1,0,0:0:0:0:
80,64,69294,1,8,0:0:0:0:
64,64,69360,1,8,0:0:0:0:
96,160,69425,1,0,0:0:0:0:
304,208,69490,1,8,0:0:0:0:
256,240,69555,1,0,0:0:0:0:
176,176,69686,1,0,0:0:0:0:
144,144,69751,1,8,0:0:0:0:
320,144,69816,1,0,0:0:0:0:
224,64,69947,1,0,0:0:0:0:
128,64,70012,1,8,0:0:0:0:
224,128,70077,1,0,0:0:0:0:
288,192,70207,1,0,0:0:0:0:
240,192,70273,1,8,0:0:0:0:
208,192,70338,1,0,0:0:0:0:
192,192,70468,1,0,0:0:0:0:
192,192,70534,1,8,0:0:0:0:
192,192,70599,1,0,0:0:0:0:
128,96,70729,1,8,0:0:0:0:
96,96,70794,1,0,0:0:0:0:
80,96,70860,1,8,0:0:0:0:
80,112,70925,1,0,0:0:0:0:
128,128,70990,1,8,0:0:0:0:
224,112,71055,1,8,0:0:0:0:
176,112,71120,1,0,0:0:0:0:
176,96,71186,1,8,0:0:0:0:
176,96,71251,1,8,0:0:0:0:
160,96,71316,1,0,0:0:0:0:
160,96,71381,1,0,0:0:0:0:
160,96,71447,1,8,0:0:0:0:
176,80,71512,1,8,0:0:0:0:
160,80,71577,1,8,0:0:0:0:
112,80,71642,1,0,0:0:0:0:
112,80,71707,1,0,0:0:0:0:
160,96,71773,1,8,0:0:0:0:
240,160,71838,1,0,0:0:0:0:
128,160,71903,1,0,0:0:0:0:
64,128,71968,1,0,0:0:0:0:
240,240,72034,1,8,0:0:0:0:
320,96,72099,1,8,0:0:0:0:
208,96,72164,1,0,0:0:0:0:
144,160,72229,1,0,0:0:0:0:
160,208,72294,1,8,0:0:0:0:
320,176,72360,1,0,0:0:0:0:
240,96,72425,1,8,0:0:0:0:
224,80,72490,1,8,0:0:0:0:
128,96,72555,1,0,0:0:0:0:
336,192,72620,1,0,0:0:0:0:
224,160,72686,1,8,0:0:0:0:
176,144,72751,1,8,0:0:0:0:
96,64,72816,1,0,0:0:0:0:
96,64,72881,1,8,0:0:0:0:
160,64,72947,1,8,0:0:0:0:
160,64,73012,1,8,0:0:0:0:
240,96,73077,1,0,0:0:0:0:
304,80,73142,1,0,0:0:0:0:
240,48,73207,1,8,0:0:0:0:
112,128,73273,1,8,0:0:0:0:
224,192,73338,1,0,0:0:0:0:
176,144,73403,1,0,0:0:0:0:
160,144,73468,1,8,0:0:0:0:
128,144,73534,1,8,0:0:0:0:
288,176,73599,1,0,0:0:0:0:
256,144,73664,1,8,0:0:0:0:
240,96,73729,1,8,0:0:0:0:
224,96,73794,1,8,0:0:0:0:
256,144,73860,1,0,0:0:0:0:
336,128,73925,1,8,0:0:0:0:
272,80,73990,1,0,0:0:0:0:
96,80,74055,1,8,0:0:0:0:
176,96,74120,1,0,0:0:0:0:
160,128,74186,1,8,0:0:0:0:
112,128,74251,1,0,0:0:0:0:
112,128,74316,1,8,0:0:0:0:
208,192,74381,1,0,0:0:0:0:
160,144,74447,1,8,0:0:0:0:
144,128,74512,1,8,0:0:0:0:
144,112,74577,1,0,0:0:0:0:
144,112,74642,1,8,0:0:0:0:
224,112,74707,1,8,0:0:0:0:
176,64,74773,1,0,0:0:0:0:
304,192,74838,1,8,0:0:0:0:
336,96,74903,1,0,0:0:0:0:
256,64,74968,1,8,0:0:0:0:
208,192,75034,1,0,0:0:0:0:
160,96,75099,1,8,0:0:0:0:
144,96,75164,1,0,0:0:0:0:
112,96,75229,1,8,0:0:0:0:
96,80,75294,1,0,0:0:0:0:
96,80,75360,1,8,0:0:0:0:
96,80,75425,1,0,0:0:0:0:
272,160,75490,1,8,0:0:0:0:
240,160,75555,1,8,0:0:0:0:
192,160,75620,1,0,0:0:0:0:
192,160,75686,1,8,0:0:0:0:
192,160,75751,1,8,0:0:0:0:
192,160,75816,1,0,0:0:0:0:
336,224,75881,1,8,0:0:0:0:
320,176,75947,1,0,0:0:0:0:
272,192,76247,1,8,0:0:0:0:
240,176,76547,1,0,0:0:0:0:
320,128,76697,1,8,0:0:0:0:
288,224,76847,1,8,0:0:0:0:
336,256,76997,1,8,0:0:0:0:
176,160,77147,1,0,0:0:0:0:
256,144,77447,1,8,0:0:0:0:
272,208,77747,1,0,0:0:0:0:
208,176,78047,1,0,0:0:0:0:
320,272,78347,1,8,0:0:0:0:
176,144,78647,1,8,0:0:0:0:
288,208,78947,1,0,0:0:0:0:
240,176,79247,1,8,0:0:0:0:
320,192,79547,1,0,0:0:0:0:
192,128,79847,1,0,0:0:0:0:
304,96,80147,1,8,0:0:0:0:
272,96,80247,1,8,0:0:0:0:
224,96,80347,1,0,0:0:0:0:
160,96,80447,1,0,0:0:0:0:
160,96,80547,1,8,0:0:0:0:
144,160,80647,1,0,0:0:0:0:
64,144,80747,1,12,0:0:0:0:
288,160,81047,1,12,0:0:0:0:
240,176,81347,1,0,0:0:0:0:
192,128,81647,1,0,0:0:0:0:
256,96,81947,1,8,0:0:0:0:
240,96,82097,1,8,0:0:0:0:
224,192,82247,1,0,0:0:0:0:
128,96,82347,1,8,0:0:0:0:
128,80,82447,1,8,0:0:0:0:
128,80,82547,1,0,0:0:0:0:
144,80,82647,1,8,0:0:0:0:
144,80,82747,1,8,0:0:0:0:
272,128,82847,1,0,0:0:0:0:
160,112,82947,1,8,0:0:0:0:
160,112,83047,1,8,0:0:0:0:
208,192,83147,1,0,0:0:0:0:
144,96,83447,1,8,0:0:0:0:
144,80,83747,1,8,0:0:0:0:
288,144,84047,1,0,0:0:0:0:
176,112,84147,1,0,0:0:0:0:
176,112,84247,1,0,0:0:0:0:
208,176,84347,1,8,0:0:0:0:
304,176,84647,1,0,0:0:0:0:
288,96,84747,1,8,0:0:0:0:
48,96,84847,1,8,0:0:0:0:
272,176,84947,1,8,0:0:0:0:
192,80,85147,1,8,0:0:0:0:
128,80,85247,1,0,0:0:0:0:
144,80,85347,1,8,0:0:0:0:
144,80,85447,1,8,0:0:0:0:
176,176,85547,1,4,0:0:0:0:
272,112,86068,1,8,0:0:0:0:
320,208,86329,1,0,0:0:0:0:
272,224,87112,1,8,0:0:0:0:
192,144,87894,1,0,0:0:0:0:
288,208,88155,1,8,0:0:0:0:
240,112,88677,1,0,0:0:0:0:
304,208,88938,1,0,0:0:0:0:
160,128,89003,1,0,0:0:0:0:
144,128,89068,1,0,0:0:0:0:
128,112,89133,1,0,0:0:0:0:
96,112,89199,1,8,0:0:0:0:
304,80,89460,1,0,0:0:0:0:
208,112,89720,1,4,0:0:0:0:
368,208,89981,1,0,0:0:0:0:
96,80,90242,1,12,0:0:0:0:
240,112,90503,1,0,0:0:0:0:
144,80,90633,1,0,0:0:0:0:
192,192,90894,1,0,0:0:0:0:
64,144,91025,1,0,0:0:0:0:
320,192,91286,1,12,0:0:0:0:
240,176,91547,1,0,0:0:0:0:
176,160,91807,1,0,0:0:0:0:
256,80,91938,1,8,0:0:0:0:
96,80,92068,1,0,0:0:0:0:
128,128,92199,1,0,0:0:0:0:
288,144,92329,1,8,0:0:0:0:
240,160,92460,1,8,0:0:0:0:
176,192,92590,1,0,0:0:0:0:
224,80,92720,1,0,0:0:0:0:
96,64,92851,1,8,0:0:0:0:
144,144,92981,1,0,0:0:0:0:
96,144,93112,1,0,0:0:0:0:
304,256,93242,1,8,0:0:0:0:
288,176,93373,1,0,0:0:0:0:
336,96,93438,1,0,0:0:0:0:
160,64,93503,1,8,0:0:0:0:
224,80,93568,1,0,0:0:0:0:
224,80,93633,1,8,0:0:0:0:
224,80,93699,1,8,0:0:0:0:
176,96,93764,1,0,0:0:0:0:
112,96,93829,1,8,0:0:0:0:
144,128,93894,1,0,0:0:0:0:
288,224,94155,1,0,0:0:0:0:
128,208,94416,1,12,0:0:0:0:
144,128,94677,1,0,0:0:0:0:
208,96,94764,1,0,0:0:0:0:
192,80,94851,1,0,0:0:0:0:
240,112,94938,1,0,0:0:0:0:
240,240,95199,1,0,0:0:0:0:
384,176,95460,1,12,0:0:0:0:
224,128,95720,1,0,0:0:0:0:
128,208,95981,1,0,0:0:0:0:
384,192,96112,1,0,0:0:0:0:
288,208,96242,1,0,0:0:0:0:
144,128,96503,1,12,0:0:0:0:
272,112,96764,1,0,0:0:0:0:
208,144,97025,1,0,0:0:0:0:
192,80,97112,1,0,0:0:0:0:
80,128,97199,1,0,0:0:0:0:
160,112,97286,1,8,0:0:0:0:
112,80,97373,1,8,0:0:0:0:
144,160,97460,1,0,0:0:0:0:
336,224,97547,1,8,0:0:0:0:
288,176,97807,1,0,0:0:0:0:
224,64,98068,1,8,0:0:0:0:
144,64,98133,1,0,0:0:0:0:
176,144,98199,1,8,0:0:0:0:
128,128,98264,1,0,0:0:0:0:
112,144,98329,1,0,0:0:0:0:
96,144,98394,1,8,0:0:0:0:
80,176,98460,1,0,0:0:0:0:
80,176,98525,1,8,0:0:0:0:
80,176,98590,1,8,0:0:0:0:
80,176,98655,1,0,0:0:0:0:
80,176,98720,1,8,0:0:0:0:
80,176,98786,1,8,0:0:0:0:
80,176,98851,1,0,0:0:0:0:
80,176,98916,1,0,0:0:0:0:
80,176,98981,1,8,0:0:0:0:
64,176,99047,1,0,0:0:0:0:
80,176,99112,1,8,0:0:0:0:
80,176,99177,1,8,0:0:0:0:
64,176,99242,1,8,0:0:0:0:
64,176,99307,1,0,0:0:0:0:
208,144,99373,1,8,0:0:0:0:
160,128,99438,1,8,0:0:0:0:
176,176,99503,1,0,0:0:0:0:
176,176,99568,1,0,0:0:0:0:
240,192,99633,1,8,0:0:0:0:
176,208,99699,1,0,0:0:0:0:
144,208,99764,1,8,0:0:0:0:
144,208,99829,1,0,0:0:0:0:
208,176,99894,1,8,0:0:0:0:
192,160,99960,1,8,0:0:0:0:
144,160,100025,1,0,0:0:0:0:
144,160,100090,1,8,0:0:0:0:
144,160,100155,1,8,0:0:0:0:
144,160,100220,1,8,0:0:0:0:
144,160,100286,1,0,0:0:0:0:
144,160,100351,1,0,0:0:0:0:
144,160,100416,1,0,0:0:0:0:
144,160,100481,1,8,0:0:0:0:
144,160,100547,1,0,0:0:0:0:
144,160,100612,1,8,0:0:0:0:
144,160,100677,1,8,0:0:0:0:
256,144,100742,1,0,0:0:0:0:
192,112,100807,1,8,0:0:0:0:
96,80,100873,1,0,0:0:0:0:
96,64,100938,1,8,0:0:0:0:
96,64,101003,1,0,0:0:0:0:
96,64,101068,1,8,0:0:0:0:
96,64,101133,1,8,0:0:0:0:
96,64,101199,1,0,0:0:0:0:
96,64,101264,1,8,0:0:0:0:
96,64,101329,1,0,0:0:0:0:
96,64,101394,1,8,0:0:0:0:
96,64,101460,1,8,0:0:0:0:
96,64,101525,1,0,0:0:0:0:
96,64,101590,1,8,0:0:0:0:
96,64,101655,1,0,0:0:0:0:
208,80,101720,1,0,0:0:0:0:
128,80,101786,1,8,0:0:0:0:
144,80,101851,1,0,0:0:0:0:
144,112,101916,1,0,0:0:0:0:
160,160,101981,1,8,0:0:0:0:
160,160,102047,1,8,0:0:0:0:
176,144,102112,1,0,0:0:0:0:
160,144,102177,1,0,0:0:0:0:
320,144,102242,1,8,0:0:0:0:
288,48,102307,1,8,0:0:0:0:
240,48,102373,1,8,0:0:0:0:
224,48,102438,1,8,0:0:0:0:
192,96,102503,1,0,0:0:0:0:
240,112,102568,1,8,0:0:0:0:
224,128,102633,1,0,0:0:0:0:
160,112,102699,1,8,0:0:0:0:
160,112,102764,1,0,0:0:0:0:
160,112,102829,1,0,0:0:0:0:
160,112,102894,1,0,0:0:0:0:
160,112,102960,1,0,0:0:0:0:
160,112,103025,1,8,0:0:0:0:
112,80,103090,1,8,0:0:0:0:
64,48,103155,1,8,0:0:0:0:
64,48,103220,1,8,0:0:0:0:
224,80,103286,1,0,0:0:0:0:
176,64,103351,1,8,0:0:0:0:
176,64,103416,1,0,0:0:0:0:
176,64,103481,1,0,0:0:0:0:
272,160,103547,1,8,0:0:0:0:
320,96,103612,1,8,0:0:0:0:
240,80,103677,1,8,0:0:0:0:
240,80,103742,1,8,0:0:0:0:
224,80,103807,1,0,0:0:0:0:
128,112,103873,1,8,0:0:0:0:
128,112,103938,1,0,0:0:0:0:
128,112,104003,1,0,0:0:0:0:
128,112,104068,1,8,0:0:0:0:
176,128,104133,1,8,0:0:0:0:
176,112,104199,1,8,0:0:0:0:
160,112,104264,1,0,0:0:0:0:
160,112,104329,1,8,0:0:0:0:
192,80,104394,1,8,0:0:0:0:
160,64,104460,1,8,0:0:0:0:
128,64,104525,1,8,0:0:0:0:
208,160,104590,1,0,0:0:0:0:
368,160,104655,1,0,0:0:0:0:
208,160,104720,1,0,0:0:0:0:
304,112,104786,1,0,0:0:0:0:
272,160,104851,1,8,0:0:0:0:
208,208,104916,1,8,0:0:0:0:
160,144,104981,1,8,0:0:0:0:
144,144,105047,1,8,0:0:0:0:
128,144,105112,1,0,0:0:0:0:
320,80,105177,1,0,0:0:0:0:
272,80,105242,1,0,0:0:0:0:
240,80,105307,1,0,0:0:0:0:
80,96,105373,1,8,0:0:0:0:
336,240,105438,1,0,0:0:0:0:
240,208,105503,1,0,0:0:0:0:
224,208,105568,1,0,0:0:0:0:
320,176,105633,1,8,0:0:0:0:
240,144,105699,1,0,0:0:0:0:
160,96,105764,1,8,0:0:0:0:
176,80,105829,1,0,0:0:0:0:
208,80,105894,1,8,0:0:0:0:
208,64,105960,1,0,0:0:0:0:
208,64,106025,1,0,0:0:0:0:
144,80,106090,1,8,0:0:0:0:
144,80,106155,1,8,0:0:0:0:
128,80,106220,1,8,0:0:0:0:
128,80,106286,1,0,0:0:0:0:
128,80,106351,1,0,0:0:0:0:
128,80,106416,1,8,0:0:0:0:
192,176,106481,1,0,0:0:0:0:
272,128,106547,1,8,0:0:0:0:
192,128,106612,1,0,0:0:0:0:
144,128,106677,1,8,0:0:0:0:
112,144,106742,1,8,0:0:0:0:
96,144,106807,1,8,0:0:0:0:
96,144,106873,1,8,0:0:0:0:
96,144,106938,1,0,0:0:0:0:
96,144,107003,1,8,0:0:0:0:
96,144,107068,1,8,0:0:0:0:
96,144,107133,1,8,0:0:0:0:
96,144,107199,1,0,0:0:0:0:
96,128,107264,1,8,0:0:0:0:
96,128,107329,1,0,0:0:0:0:
320,160,107394,1,0,0:0:0:0:
208,128,107460,1,8,0:0:0:0:
320,112,107525,1,0,0:0:0:0:
256,80,107590,1,0,0:0:0:0:
192,96,107655,1,0,0:0:0:0:
160,96,107720,1,8,0:0:0:0:
336,64,107786,1,8,0:0:0:0:
256,48,107851,1,8,0:0:0:0:
208,64,107916,1,8,0:0:0:0:
192,64,107981,1,0,0:0:0:0:
192,208,108047,1,0,0:0:0:0:
288,160,108112,1,0,0:0:0:0:
256,160,108177,1,0,0:0:0:0:
176,144,108242,1,8,0:0:0:0:
176,128,108307,1,8,0:0:0:0:
176,128,108373,1,8,0:0:0:0:
352,208,108438,1,0,0:0:0:0:
256,160,108503,1,8,0:0:0:0:
256,144,108568,1,8,0:0:0:0:
256,144,108633,1,0,0:0:0:0:
176,80,108699,1,8,0:0:0:0:
80,64,108764,1,0,0:0:0:0:
80,64,108829,1,8,0:0:0:0:
80,64,108894,1,8,0:0:0:0:
80,64,108960,1,8,0:0:0:0:
80,80,109025,1,0,0:0:0:0:
400,96,109090,1,0,0:0:0:0:
272,80,109155,1,0,0:0:0:0:
160,160,109220,1,0,0:0:0:0:
192,144,109286,1,8,0:0:0:0:
272,160,109351,1,0,0:0:0:0:
336,192,109416,1,8,0:0:0:0:
272,160,109481,1,8,0:0:0:0:
224,176,109547,1,0,0:0:0:0:
304,64,109938,1,4,0:0:0:0:
272,224,110329,1,12,0:0:0:0:
160,112,110851,1,0,0:0:0:0:
80,128,110916,1,0,0:0:0:0:
80,128,110981,1,0,0:0:0:0:
80,128,111047,1,0,0:0:0:0:
80,144,111112,1,8,0:0:0:0:
224,64,111373,1,0,0:0:0:0:
96,64,111503,1,8,0:0:0:0:
192,192,111634,1,0,0:0:0:0:
160,96,111764,1,0,0:0:0:0:
128,144,111894,1,0,0:0:0:0:
368,144,112025,1,0,0:0:0:0:
256,176,112155,1,8,0:0:0:0:
288,96,112286,1,0,0:0:0:0:
160,80,112416,1,0,0:0:0:0:
304,256,112547,1,0,0:0:0:0:
224,128,112938,1,8,0:0:0:0:
144,128,113003,1,0,0:0:0:0:
128,128,113068,1,0,0:0:0:0:
128,128,113134,1,0,0:0:0:0:
128,128,113199,1,8,0:0:0:0:
240,176,113329,1,8,0:0:0:0:
272,80,113460,1,0,0:0:0:0:
256,80,113590,1,0,0:0:0:0:
240,192,113720,1,8,0:0:0:0:
144,176,113851,1,0,0:0:0:0:
384,176,113981,1,0,0:0:0:0:
192,160,114112,1,0,0:0:0:0:
256,144,114242,1,8,0:0:0:0:
272,240,114373,1,0,0:0:0:0:
208,176,114503,1,0,0:0:0:0:
192,144,114568,1,0,0:0:0:0:
192,144,114634,1,0,0:0:0:0:
368,272,114894,1,8,0:0:0:0:
304,160,115025,1,0,0:0:0:0:
160,64,115090,1,0,0:0:0:0:
160,64,115155,1,0,0:0:0:0:
128,96,115220,1,0,0:0:0:0:
128,176,115286,1,8,0:0:0:0:
208,192,115547,1,0,0:0:0:0:
80,128,115677,1,8,0:0:0:0:
288,160,115807,1,0,0:0:0:0:
176,192,115938,1,8,0:0:0:0:
288,128,116068,1,0,0:0:0:0:
160,64,116112,1,0,0:0:0:0:
208,176,116329,1,8,0:0:0:0:
160,112,116373,1,8,0:0:0:0:
336,256,116460,1,8,0:0:0:0:
208,112,116590,1,0,0:0:0:0:
208,112,116634,1,0,0:0:0:0:
208,112,116851,1,0,0:0:0:0:
192,112,116894,1,0,0:0:0:0:
256,208,117112,1,0,0:0:0:0:
272,176,117155,1,0,0:0:0:0:
96,192,117242,1,0,0:0:0:0:
224,160,117373,1,8,0:0:0:0:
224,160,117416,1,8,0:0:0:0:
352,240,117634,1,0,0:0:0:0:
304,240,117677,1,0,0:0:0:0:
224,112,117764,1,8,0:0:0:0:
128,96,117894,1,0,0:0:0:0:
288,128,118025,1,0,0:0:0:0:
176,96,118155,1,0,0:0:0:0:
96,176,118286,1,0,0:0:0:0:
208,192,118416,1,8,0:0:0:0:
256,144,118547,1,0,0:0:0:0:
176,128,118677,1,0,0:0:0:0:
320,144,118742,1,0,0:0:0:0:
416,256,118807,1,0,0:0:0:0:
352,224,119068,1,8,0:0:0:0:
208,96,119199,1,0,0:0:0:0:
160,176,119264,1,0,0:0:0:0:
224,160,119329,1,0,0:0:0:0:
224,160,119394,1,0,0:0:0:0:
208,160,119460,1,8,0:0:0:0:
288,64,119720,1,0,0:0:0:0:
128,80,119851,1,8,0:0:0:0:
256,128,119981,1,0,0:0:0:0:
176,112,120112,1,0,0:0:0:0:
176,112,120242,1,0,0:0:0:0:
208,208,120373,1,0,0:0:0:0:
80,128,120503,1,8,0:0:0:0:
240,144,120634,1,0,0:0:0:0:
272,144,120764,1,0,0:0:0:0:
288,80,120894,1,0,0:0:0:0:
144,128,121286,1,8,0:0:0:0:
128,112,121351,1,8,0:0:0:0:
112,112,121416,1,0,0:0:0:0:
96,128,121481,1,0,0:0:0:0:
96,128,121547,1,8,0:0:0:0:
304,128,121807,1,8,0:0:0:0:
240,80,121938,1,8,0:0:0:0:
224,192,122068,1,0,0:0:0:0:
160,160,122199,1,0,0:0:0:0:
144,128,122329,1,0,0:0:0:0:
144,112,122460,1,0,0:0:0:0:
320,160,122590,1,8,0:0:0:0:
256,144,122720,1,0,0:0:0:0:
80,176,122851,1,0,0:0:0:0:
208,64,122916,1,0,0:0:0:0:
112,64,122981,1,0,0:0:0:0:
144,176,123242,1,8,0:0:0:0:
256,208,123373,1,0,0:0:0:0:
208,144,123438,1,0,0:0:0:0:
128,112,123503,1,0,0:0:0:0:
128,96,123568,1,0,0:0:0:0:
112,96,123634,1,8,0:0:0:0:
352,192,123894,1,8,0:0:0:0:
288,144,124025,1,8,0:0:0:0:
192,112,124155,1,0,0:0:0:0:
192,96,124286,1,0,0:0:0:0:
128,96,124416,1,0,0:0:0:0:
176,64,124547,1,0,0:0:0:0:
256,224,124677,1,8,0:0:0:0:
336,192,124807,1,0,0:0:0:0:
144,160,124938,1,0,0:0:0:0:
224,160,125003,1,0,0:0:0:0:
208,144,125068,1,8,0:0:0:0:
176,128,125134,1,8,0:0:0:0:
176,144,125199,1,0,0:0:0:0:
256,96,125329,1,8,0:0:0:0:
352,144,125460,1,8,0:0:0:0:
112,64,125525,1,8,0:0:0:0:
112,64,125590,1,8,0:0:0:0:
112,64,125655,1,8,0:0:0:0:
112,64,125720,1,0,0:0:0:0:
80,160,125981,1,4,0:0:0:0:
272,144,126112,1,8,0:0:0:0:
176,112,126242,1,8,0:0:0:0:
144,112,126373,1,0,0:0:0:0:
144,96,126503,1,8,0:0:0:0:
224,112,126764,1,8,0:0:0:0:
144,144,126829,1,0,0:0:0:0:
144,144,126894,1,8,0:0:0:0:
144,144,126960,1,8,0:0:0:0:
192,176,127025,1,0,0:0:0:0:
288,208,127090,1,0,0:0:0:0:
288,208,127155,1,0,0:0:0:0:
153,79,127547,1,0,0:0:0:0:
170,91,127612,1,0,0:0:0:0:
171,92,127677,1,0,0:0:0:0:
240,178,127807,1,8,0:0:0:0:
344,120,127873,1,8,0:0:0:0:
247,88,127938,1,8,0:0:0:0:
134,170,128068,1,0,0:0:0:0:
93,117,128134,1,8,0:0:0:0:
51,187,128199,1,0,0:0:0:0:
272,160,128329,1,8,0:0:0:0:
341,249,128394,1,8,0:0:0:0:
300,200,128460,1,8,0:0:0:0:
169,189,128590,1,0,0:0:0:0:
204,72,128655,1,0,0:0:0:0:
101,78,128720,1,8,0:0:0:0:
240,178,128851,1,0,0:0:0:0:
147,69,128916,1,8,0:0:0:0:
120,103,128981,1,0,0:0:0:0:
330,107,129112,1,0,0:0:0:0:
221,82,129177,1,8,0:0:0:0:
206,80,129242,1,8,0:0:0:0:
272,160,129373,1,0,0:0:0:0:
129,162,129634,1,8,0:0:0:0:
101,127,129699,1,0,0:0:0:0:
95,121,129764,1,8,0:0:0:0:
240,178,129894,1,8,0:0:0:0:
163,80,129960,1,0,0:0:0:0:
121,46,130025,1,0,0:0:0:0:
277,57,130155,1,0,0:0:0:0:
227,57,130220,1,0,0:0:0:0:
181,65,130286,1,8,0:0:0:0:
182,64,130351,1,8,0:0:0:0:
272,160,130416,1,0,0:0:0:0:
60,153,130481,1,8,0:0:0:0:
91,154,130547,1,0,0:0:0:0:
151,169,130677,1,0,0:0:0:0:
108,143,130742,1,0,0:0:0:0:
108,142,130807,1,0,0:0:0:0:
240,178,130938,1,8,0:0:0:0:
115,72,131199,1,0,0:0:0:0:
171,88,131264,1,0,0:0:0:0:
156,93,131329,1,0,0:0:0:0:
272,160,131460,1,8,0:0:0:0:
271,95,131720,1,8,0:0:0:0:
222,54,131786,1,8,0:0:0:0:
177,138,131851,1,0,0:0:0:0:
240,178,131981,1,8,0:0:0:0:
351,166,132047,1,0,0:0:0:0:
159,163,132112,1,8,0:0:0:0:
289,183,132242,1,0,0:0:0:0:
125,99,132307,1,8,0:0:0:0:
115,144,132373,1,0,0:0:0:0:
344,253,132503,1,8,0:0:0:0:
231,125,132568,1,0,0:0:0:0:
195,116,132634,1,8,0:0:0:0:
149,68,132764,1,0,0:0:0:0:
75,101,132829,1,8,0:0:0:0:
75,101,132894,1,8,0:0:0:0:
272,160,133025,1,8,0:0:0:0:
237,79,133090,1,8,0:0:0:0:
128,154,133155,1,0,0:0:0:0:
356,156,133286,1,0,0:0:0:0:
328,138,133351,1,8,0:0:0:0:
214,120,133416,1,8,0:0:0:0:
359,235,133481,1,0,0:0:0:0:
240,178,133547,1,0,0:0:0:0:
236,132,133807,1,8,0:0:0:0:
165,144,133873,1,0,0:0:0:0:
173,144,133938,1,0,0:0:0:0:
344,253,134068,1,0,0:0:0:0:
177,213,134134,1,8,0:0:0:0:
88,223,134199,1,0,0:0:0:0:
97,125,134329,1,0,0:0:0:0:
109,102,134394,1,0,0:0:0:0:
117,89,134460,1,8,0:0:0:0:
168,77,134525,1,8,0:0:0:0:
272,160,134590,1,0,0:0:0:0:
303,76,134655,1,8,0:0:0:0:
222,74,134720,1,0,0:0:0:0:
391,162,134851,1,0,0:0:0:0:
281,143,134916,1,0,0:0:0:0:
279,143,134981,1,0,0:0:0:0:
240,178,135112,1,8,0:0:0:0:
203,107,135373,1,0,0:0:0:0:
136,138,135438,1,0,0:0:0:0:
130,142,135503,1,0,0:0:0:0:
344,253,135634,1,8,0:0:0:0:
285,115,135894,1,8,0:0:0:0:
220,73,135960,1,8,0:0:0:0:
151,171,136025,1,0,0:0:0:0:
206,179,136090,1,0,0:0:0:0:
236,160,136155,1,8,0:0:0:0:
254,159,136220,1,8,0:0:0:0:
389,219,136286,1,0,0:0:0:0:
304,196,136351,1,0,0:0:0:0:
277,195,136416,1,0,0:0:0:0:
339,165,136481,1,0,0:0:0:0:
313,144,136547,1,0,0:0:0:0:
227,143,136612,1,0,0:0:0:0:
127,64,136677,1,8,0:0:0:0:
111,81,136742,1,8,0:0:0:0:
114,81,136807,1,8,0:0:0:0:
177,90,136873,1,0,0:0:0:0:
132,97,136938,1,8,0:0:0:0:
130,97,137003,1,8,0:0:0:0:
110,96,137068,1,0,0:0:0:0:
111,92,137134,1,0,0:0:0:0:
111,91,137199,1,8,0:0:0:0:
99,90,137264,1,8,0:0:0:0:
101,96,137329,1,8,0:0:0:0:
87,107,137394,1,0,0:0:0:0:
84,138,137460,1,8,0:0:0:0:
272,176,137525,1,8,0:0:0:0:
174,133,137590,1,8,0:0:0:0:
246,104,137655,1,0,0:0:0:0:
232,99,137721,1,0,0:0:0:0:
336,116,137981,1,0,0:0:0:0:
170,247,138047,1,0,0:0:0:0:
266,217,138112,1,0,0:0:0:0:
182,184,138242,1,8,0:0:0:0:
149,141,138307,1,8,0:0:0:0:
131,138,138373,1,8,0:0:0:0:
132,99,138503,1,0,0:0:0:0:
232,80,138568,1,0,0:0:0:0:
162,72,138634,1,0,0:0:0:0:
358,164,138764,1,8,0:0:0:0:
298,135,138829,1,0,0:0:0:0:
237,119,138894,1,0,0:0:0:0:
212,231,139025,1,8,0:0:0:0:
204,177,139090,1,8,0:0:0:0:
144,189,139155,1,8,0:0:0:0:
141,147,139286,1,0,0:0:0:0:
332,163,139547,1,8,0:0:0:0:
257,145,139612,1,8,0:0:0:0:
226,136,139677,1,8,0:0:0:0:
251,222,139807,1,4,0:0:0:0:
157,174,140068,1,0,0:0:0:0:
125,128,140134,1,0,0:0:0:0:
106,115,140199,1,0,0:0:0:0:
189,102,140329,1,0,0:0:0:0:
107,66,140394,1,8,0:0:0:0:
105,74,140460,1,0,0:0:0:0:
299,158,140590,1,0,0:0:0:0:
236,145,140655,1,0,0:0:0:0:
153,164,140721,1,0,0:0:0:0:
376,243,140851,1,8,0:0:0:0:
264,225,140916,1,8,0:0:0:0:
138,216,140981,1,8,0:0:0:0:
148,89,141112,1,0,0:0:0:0:
278,92,141177,1,8,0:0:0:0:
220,64,141242,1,0,0:0:0:0:
320,183,141373,1,8,0:0:0:0:
147,166,141438,1,0,0:0:0:0:
107,158,141503,1,0,0:0:0:0:
190,179,141634,1,0,0:0:0:0:
185,183,141699,1,8,0:0:0:0:
172,203,141764,1,8,0:0:0:0:
344,297,141894,1,4,0:0:0:0:
251,119,142155,1,0,0:0:0:0:
149,88,142221,1,8,0:0:0:0:
99,99,142286,1,0,0:0:0:0:
188,187,142416,1,8,0:0:0:0:
92,170,142481,1,0,0:0:0:0:
94,195,142547,1,8,0:0:0:0:
316,193,142677,1,0,0:0:0:0:
246,168,142742,1,0,0:0:0:0:
363,130,142807,1,8,0:0:0:0:
145,96,143199,1,8,0:0:0:0:
53,72,143264,1,8,0:0:0:0:
52,117,143329,1,8,0:0:0:0:
257,248,143721,1,0,0:0:0:0:
30,213,143786,1,0,0:0:0:0:
107,227,143851,1,0,0:0:0:0:
192,168,144242,1,8,0:0:0:0:
235,67,144307,1,0,0:0:0:0:
176,68,144373,1,8,0:0:0:0:
81,52,144438,1,8,0:0:0:0:
93,102,144503,1,0,0:0:0:0:
95,111,144568,1,0,0:0:0:0:
96,113,144634,1,8,0:0:0:0:
97,121,144699,1,8,0:0:0:0:
89,124,144764,1,0,0:0:0:0:
103,131,144829,1,8,0:0:0:0:
103,133,144894,1,0,0:0:0:0:
136,161,144960,1,8,0:0:0:0:
255,176,145025,1,0,0:0:0:0:
186,83,145155,1,8,0:0:0:0:
78,62,145221,1,8,0:0:0:0:
78,62,145286,1,0,0:0:0:0:
242,67,145416,1,8,0:0:0:0:
217,60,145481,1,8,0:0:0:0:
274,172,145547,1,0,0:0:0:0:
191,133,145612,1,0,0:0:0:0:
124,109,145677,1,8,0:0:0:0:
124,109,145742,1,8,0:0:0:0:
123,125,145807,1,0,0:0:0:0:
255,205,145938,1,0,0:0:0:0:
373,217,146003,1,0,0:0:0:0:
366,143,146068,1,8,0:0:0:0:
245,102,146134,1,0,0:0:0:0:
238,99,146199,1,0,0:0:0:0:
266,167,146264,1,8,0:0:0:0:
176,194,146329,1,0,0:0:0:0:
135,163,146394,1,8,0:0:0:0:
72,153,146460,1,8,0:0:0:0:
190,95,146525,1,8,0:0:0:0:
162,139,146590,1,0,0:0:0:0:
140,127,146655,1,8,0:0:0:0:
164,120,146721,1,8,0:0:0:0:
334,224,146851,1,0,0:0:0:0:
312,163,146916,1,0,0:0:0:0:
256,153,146981,1,8,0:0:0:0:
234,153,147047,1,8,0:0:0:0:
211,186,147112,1,0,0:0:0:0:
62,168,147177,1,8,0:0:0:0:
66,109,147242,1,0,0:0:0:0:
159,128,147373,1,0,0:0:0:0:
159,122,147438,1,8,0:0:0:0:
209,124,147503,1,8,0:0:0:0:
349,97,147634,1,8,0:0:0:0:
271,87,147699,1,8,0:0:0:0:
265,92,147764,1,8,0:0:0:0:
271,205,147894,1,0,0:0:0:0:
201,174,147960,1,0,0:0:0:0:
181,178,148025,1,0,0:0:0:0:
111,77,148416,1,0,0:0:0:0:
161,104,148481,1,8,0:0:0:0:
258,107,148547,1,8,0:0:0:0:
67,152,148612,1,0,0:0:0:0:
188,162,148677,1,8,0:0:0:0:
276,204,148742,1,8,0:0:0:0:
242,155,148807,1,0,0:0:0:0:
216,153,148873,1,8,0:0:0:0:
157,168,148938,1,0,0:0:0:0:
178,101,149003,1,8,0:0:0:0:
155,96,149068,1,8,0:0:0:0:
109,95,149134,1,8,0:0:0:0:
115,107,149199,1,0,0:0:0:0:
270,102,149264,1,8,0:0:0:0:
205,81,149329,1,8,0:0:0:0:
205,81,149394,1,8,0:0:0:0:
329,253,149460,1,0,0:0:0:0:
201,151,149590,1,8,0:0:0:0:
141,153,149655,1,8,0:0:0:0:
140,168,149721,1,0,0:0:0:0:
280,165,149851,1,8,0:0:0:0:
206,158,149916,1,0,0:0:0:0:
192,160,149981,1,8,0:0:0:0:
260,92,150047,1,8,0:0:0:0:
176,92,150112,1,0,0:0:0:0:
156,94,150177,1,8,0:0:0:0:
228,129,150242,1,0,0:0:0:0:
250,229,150307,1,0,0:0:0:0:
151,208,150373,1,0,0:0:0:0:
374,217,150503,1,8,0:0:0:0:
280,165,150568,1,8,0:0:0:0:
235,152,150634,1,8,0:0:0:0:
158,148,150764,1,0,0:0:0:0:
142,150,150829,1,8,0:0:0:0:
107,168,150894,1,0,0:0:0:0:
226,213,151025,1,0,0:0:0:0:
181,168,151090,1,0,0:0:0:0:
206,94,151155,1,8,0:0:0:0:
123,97,151221,1,8,0:0:0:0:
95,115,151286,1,0,0:0:0:0:
270,95,151351,1,8,0:0:0:0:
246,67,151416,1,0,0:0:0:0:
182,57,151481,1,8,0:0:0:0:
176,60,151547,1,0,0:0:0:0:
121,57,151612,1,8,0:0:0:0:
121,57,151677,1,8,0:0:0:0:
201,178,151742,1,0,0:0:0:0:
127,135,151807,1,8,0:0:0:0:
191,117,151873,1,0,0:0:0:0:
223,163,151938,1,8,0:0:0:0:
258,119,152003,1,8,0:0:0:0:
300,124,152068,1,8,0:0:0:0:
286,105,152134,1,0,0:0:0:0:
182,57,152199,1,0,0:0:0:0:
35,146,152264,1,8,0:0:0:0:
121,231,152329,1,0,0:0:0:0:
176,160,152394,1,0,0:0:0:0:
144,144,152460,1,0,0:0:0:0:
144,144,152590,1,0,0:0:0:0:
144,144,152655,1,8,0:0:0:0:
144,144,152721,1,0,0:0:0:0:
144,160,152851,1,0,0:0:0:0:
144,160,152916,1,8,0:0:0:0:
144,144,152981,1,0,0:0:0:0:
208,96,153112,1,0,0:0:0:0:
96,64,153242,1,0,0:0:0:0:
144,160,153373,1,0,0:0:0:0:
320,96,153438,1,8,0:0:0:0:
256,64,153503,1,0,0:0:0:0:
352,256,153634,1,0,0:0:0:0:
320,224,153764,1,0,0:0:0:0:
176,224,153894,1,8,0:0:0:0:
160,208,154025,1,8,0:0:0:0:
304,176,154155,1,0,0:0:0:0:
176,144,154221,1,0,0:0:0:0:
0,112,154286,1,0,0:0:0:0:
384,192,154416,1,0,0:0:0:0:
224,128,154547,1,8,0:0:0:0:
176,208,154677,1,0,0:0:0:0:
160,176,154742,1,8,0:0:0:0:
112,160,154807,1,0,0:0:0:0:
112,160,154938,1,8,0:0:0:0:
112,160,155003,1,0,0:0:0:0:
112,160,155068,1,0,0:0:0:0:
320,272,155199,1,0,0:0:0:0:
112,224,155329,1,0,0:0:0:0:
288,176,155460,1,8,0:0:0:0:
272,176,155525,1,0,0:0:0:0:
240,160,155590,1,8,0:0:0:0:
336,272,155721,1,0,0:0:0:0:
240,240,155851,1,0,0:0:0:0:
288,64,155981,1,8,0:0:0:0:
192,128,156047,1,8,0:0:0:0:
80,112,156112,1,0,0:0:0:0:
160,80,156242,1,8,0:0:0:0:
224,176,156307,1,0,0:0:0:0:
144,176,156373,1,0,0:0:0:0:
304,160,156503,1,0,0:0:0:0:
272,144,156568,1,8,0:0:0:0:
224,176,156634,1,0,0:0:0:0:
240,96,156764,1,8,0:0:0:0:
160,96,156829,1,0,0:0:0:0:
96,112,156894,1,8,0:0:0:0:
336,96,156960,1,8,0:0:0:0:
272,96,157025,1,0,0:0:0:0:
368,240,157090,1,0,0:0:0:0:
208,208,157155,1,0,0:0:0:0:
320,224,157286,1,8,0:0:0:0:
128,176,157416,1,0,0:0:0:0:
208,112,157547,1,8,0:0:0:0:
160,96,157612,1,8,0:0:0:0:
144,176,157677,1,0,0:0:0:0:
80,112,157807,1,0,0:0:0:0:
80,208,157938,1,0,0:0:0:0:
192,240,158068,1,8,0:0:0:0:
128,224,158199,1,8,0:0:0:0:
272,160,158329,1,8,0:0:0:0:
240,128,158394,1,8,0:0:0:0:
192,128,158460,1,0,0:0:0:0:
112,160,158590,1,0,0:0:0:0:
128,80,158721,1,0,0:0:0:0:
256,80,158786,1,8,0:0:0:0:
192,96,158851,1,0,0:0:0:0:
208,160,158981,1,0,0:0:0:0:
128,208,159047,1,8,0:0:0:0:
224,224,159112,1,0,0:0:0:0:
224,96,159242,1,0,0:0:0:0:
320,160,159373,1,0,0:0:0:0:
256,112,159438,1,8,0:0:0:0:
240,80,159503,1,8,0:0:0:0:
272,176,159634,1,0,0:0:0:0:
128,112,159764,1,0,0:0:0:0:
192,160,159894,1,0,0:0:0:0:
160,112,159960,1,8,0:0:0:0:
160,112,160025,1,8,0:0:0:0:
352,176,160155,1,8,0:0:0:0:
320,128,160221,1,0,0:0:0:0:
224,112,160286,1,8,0:0:0:0:
208,112,160351,1,8,0:0:0:0:
144,128,160416,1,8,0:0:0:0:
160,128,160481,1,0,0:0:0:0:
160,128,160547,1,0,0:0:0:0:
160,128,160612,1,0,0:0:0:0:
144,160,160677,1,8,0:0:0:0:
208,128,160742,1,0,0:0:0:0:
208,112,160807,1,8,0:0:0:0:
160,112,160873,1,8,0:0:0:0:
160,96,160938,1,8,0:0:0:0:
176,96,161003,1,0,0:0:0:0:
176,96,161068,1,8,0:0:0:0:
160,96,161134,1,8,0:0:0:0:
144,128,161199,1,0,0:0:0:0:
320,160,161264,1,0,0:0:0:0:
272,96,161329,1,8,0:0:0:0:
240,96,161394,1,0,0:0:0:0:
224,160,161460,1,8,0:0:0:0:
192,144,161525,1,8,0:0:0:0:
192,144,161590,1,8,0:0:0:0:
96,64,161655,1,8,0:0:0:0:
160,176,161721,1,0,0:0:0:0:
128,160,161786,1,0,0:0:0:0:
288,224,161851,1,0,0:0:0:0:
224,80,161981,1,8,0:0:0:0:
176,64,162047,1,8,0:0:0:0:
144,80,162112,1,8,0:0:0:0:
144,80,162242,1,8,0:0:0:0:
144,80,162307,1,8,0:0:0:0:
144,80,162373,1,8,0:0:0:0:
272,144,162764,1,12,0:0:0:0:
112,176,163286,1,4,0:0:0:0:
272,112,163808,1,12,0:0:0:0:
192,128,164329,1,4,0:0:0:0:
128,80,164851,1,8,0:0:0:0:
112,80,164916,1,8,0:0:0:0:
96,128,164981,1,0,0:0:0:0:
208,80,165047,1,8,0:0:0:0:
288,192,165112,1,0,0:0:0:0:
336,144,165373,1,4,0:0:0:0:
272,112,165634,1,12,0:0:0:0:
176,96,165894,1,8,0:0:0:0:
128,96,165960,1,8,0:0:0:0:
128,96,166025,1,8,0:0:0:0:
128,96,166090,1,8,0:0:0:0:
128,176,166155,1,0,0:0:0:0:
272,272,166416,1,4,0:0:0:0:
304,208,166612,1,8,0:0:0:0:
256,128,166677,1,0,0:0:0:0:
192,64,166742,1,0,0:0:0:0:
112,64,166808,1,8,0:0:0:0:
64,80,166873,1,8,0:0:0:0:
80,96,166938,1,8,0:0:0:0:
288,112,167068,1,8,0:0:0:0:
176,192,167199,1,8,0:0:0:0:
96,176,167264,1,0,0:0:0:0:
96,160,167329,1,8,0:0:0:0:
80,160,167394,1,0,0:0:0:0:
80,160,167460,1,8,0:0:0:0:
160,80,167590,1,8,0:0:0:0:
256,64,167721,1,8,0:0:0:0:
224,48,167786,1,0,0:0:0:0:
208,48,167851,1,8,0:0:0:0:
208,48,167916,1,0,0:0:0:0:
240,160,167981,1,0,0:0:0:0:
272,96,168242,1,0,0:0:0:0:
256,96,168503,1,0,0:0:0:0:
288,208,168634,1,8,0:0:0:0:
240,96,168764,1,0,0:0:0:0:
288,192,168894,1,8,0:0:0:0:
272,144,169025,1,0,0:0:0:0:
160,96,169090,1,8,0:0:0:0:
96,80,169155,1,8,0:0:0:0:
112,48,169221,1,8,0:0:0:0:
208,80,169286,1,0,0:0:0:0:
192,96,169351,1,0,0:0:0:0:
176,128,169416,1,0,0:0:0:0:
320,128,169481,1,0,0:0:0:0:
288,64,169547,1,8,0:0:0:0:
272,64,169612,1,8,0:0:0:0:
208,48,169677,1,8,0:0:0:0:
208,48,169742,1,8,0:0:0:0:
240,176,169808,1,0,0:0:0:0:
64,128,169873,1,0,0:0:0:0:
64,96,169938,1,8,0:0:0:0:
96,144,170003,1,0,0:0:0:0:
192,176,170068,1,8,0:0:0:0:
160,160,170134,1,0,0:0:0:0:
160,160,170199,1,8,0:0:0:0:
320,128,170329,1,0,0:0:0:0:
304,112,170394,1,8,0:0:0:0:
144,144,170460,1,0,0:0:0:0:
192,96,170590,1,8,0:0:0:0:
192,64,170655,1,0,0:0:0:0:
128,64,170721,1,8,0:0:0:0:
128,64,170786,1,0,0:0:0:0:
112,80,170851,1,8,0:0:0:0:
112,80,170916,1,8,0:0:0:0:
112,80,170981,1,0,0:0:0:0:
112,80,171047,1,8,0:0:0:0:
112,80,171112,1,0,0:0:0:0:
176,192,171242,1,0,0:0:0:0:
320,96,171373,1,8,0:0:0:0:
144,112,171438,1,0,0:0:0:0:
192,128,171503,1,8,0:0:0:0:
192,128,171568,1,8,0:0:0:0:
192,96,171634,1,0,0:0:0:0:
304,176,171764,1,0,0:0:0:0:
240,32,171894,1,8,0:0:0:0:
128,48,171960,1,8,0:0:0:0:
112,48,172025,1,0,0:0:0:0:
112,48,172090,1,8,0:0:0:0:
112,64,172155,1,0,0:0:0:0:
304,128,172221,1,0,0:0:0:0:
240,144,172286,1,8,0:0:0:0:
160,160,172416,1,0,0:0:0:0:
128,144,172547,1,0,0:0:0:0:
352,176,172677,1,8,0:0:0:0:
224,64,172808,1,8,0:0:0:0:
160,64,172938,1,0,0:0:0:0:
160,64,173068,1,8,0:0:0:0:
144,64,173199,1,0,0:0:0:0:
160,160,173264,1,8,0:0:0:0:
240,128,173329,1,0,0:0:0:0:
208,128,173394,1,8,0:0:0:0:
176,112,173460,1,0,0:0:0:0:
208,96,173525,1,8,0:0:0:0:
208,96,173590,1,8,0:0:0:0:
176,96,173655,1,0,0:0:0:0:
176,96,173721,1,8,0:0:0:0:
240,112,173786,1,8,0:0:0:0:
272,64,173851,1,0,0:0:0:0:
192,64,173916,1,8,0:0:0:0:
144,64,173981,1,0,0:0:0:0:
144,64,174047,1,8,0:0:0:0:
144,64,174112,1,0,0:0:0:0:
144,64,174177,1,0,0:0:0:0:
144,64,174242,1,8,0:0:0:0:
128,80,174308,1,0,0:0:0:0:
128,80,174373,1,8,0:0:0:0:
112,80,174438,1,0,0:0:0:0:
272,128,174503,1,8,0:0:0:0:
256,128,174568,1,8,0:0:0:0:
160,128,174634,1,0,0:0:0:0:
160,128,174699,1,0,0:0:0:0:
160,144,174764,1,8,0:0:0:0:
256,80,174829,1,0,0:0:0:0:
224,80,174894,1,8,0:0:0:0:
176,80,174960,1,8,0:0:0:0:
176,80,175025,1,8,0:0:0:0:
48,128,175090,1,0,0:0:0:0:
64,80,175155,1,8,0:0:0:0:
64,80,175221,1,8,0:0:0:0:
64,96,175286,1,0,0:0:0:0:
304,144,175416,1,8,0:0:0:0:
240,128,175547,1,8,0:0:0:0:
224,144,175612,1,8,0:0:0:0:
192,128,175677,1,8,0:0:0:0:
128,128,175808,1,0,0:0:0:0:
144,64,175873,1,8,0:0:0:0:
128,112,175938,1,8,0:0:0:0:
160,48,176003,1,8,0:0:0:0:
112,48,176068,1,0,0:0:0:0:
192,64,176134,1,0,0:0:0:0:
240,80,176199,1,8,0:0:0:0:
336,160,176264,1,8,0:0:0:0:
208,128,176329,1,0,0:0:0:0:
272,224,176394,1,0,0:0:0:0:
384,128,176460,1,0,0:0:0:0:
192,128,176525,1,0,0:0:0:0:
192,128,176590,1,0,0:0:0:0:
256,192,177112,1,0,0:0:0:0:
272,96,177373,1,0,0:0:0:0:
176,64,177438,1,8,0:0:0:0:
160,80,177503,1,0,0:0:0:0:
160,112,177634,1,0,0:0:0:0:
160,112,177699,1,8,0:0:0:0:
160,112,177764,1,0,0:0:0:0:
288,192,177894,1,8,0:0:0:0:
368,128,178025,1,8,0:0:0:0:
272,96,178155,1,0,0:0:0:0:
208,128,178286,1,0,0:0:0:0:
352,240,178416,1,4,0:0:0:0:
64,160,178547,1,0,0:0:0:0:
176,176,178677,1,0,0:0:0:0:
208,192,178742,1,8,0:0:0:0:
192,224,178808,1,0,0:0:0:0:
304,144,178938,1,4,0:0:0:0:
272,128,179068,1,0,0:0:0:0:
352,112,179199,1,8,0:0:0:0:
256,96,179264,1,0,0:0:0:0:
160,96,179329,1,8,0:0:0:0:
160,96,179394,1,8,0:0:0:0:
160,112,179460,1,0,0:0:0:0:
256,224,179525,1,0,0:0:0:0:
176,160,179590,1,0,0:0:0:0:
160,160,179655,1,0,0:0:0:0:
112,160,179721,1,0,0:0:0:0:
368,240,179851,1,0,0:0:0:0:
336,144,179981,1,8,0:0:0:0:
240,96,180112,1,0,0:0:0:0:
128,80,180242,1,8,0:0:0:0:
128,80,180373,1,8,0:0:0:0:
208,176,180503,1,0,0:0:0:0:
176,144,180568,1,0,0:0:0:0:
160,144,180634,1,0,0:0:0:0:
112,160,180764,1,0,0:0:0:0:
112,160,180829,1,8,0:0:0:0:
112,160,180894,1,0,0:0:0:0:
240,144,181547,1,4,0:0:0:0:
96,112,181677,1,0,0:0:0:0:
128,176,181808,1,0,0:0:0:0:
320,240,181938,1,0,0:0:0:0:
288,112,182068,1,0,0:0:0:0:
208,96,182134,1,8,0:0:0:0:
192,128,182199,1,0,0:0:0:0:
400,224,182329,1,0,0:0:0:0:
304,192,182460,1,0,0:0:0:0:
384,112,182590,1,8,0:0:0:0:
256,80,182655,1,0,0:0:0:0:
240,80,182721,1,8,0:0:0:0:
160,64,182786,1,0,0:0:0:0:
144,80,182851,1,8,0:0:0:0:
160,128,182916,1,8,0:0:0:0:
144,128,182981,1,0,0:0:0:0:
112,128,183047,1,8,0:0:0:0:
304,176,183112,1,8,0:0:0:0:
192,160,183177,1,0,0:0:0:0:
192,160,183242,1,8,0:0:0:0:
144,160,183308,1,8,0:0:0:0:
144,160,183373,1,8,0:0:0:0:
128,160,183438,1,0,0:0:0:0:
128,160,183503,1,8,0:0:0:0:
128,160,183568,1,8,0:0:0:0:
128,160,183634,1,0,0:0:0:0:
128,80,183699,1,0,0:0:0:0:
160,80,183764,1,0,0:0:0:0:
176,80,183829,1,0,0:0:0:0:
240,80,183894,1,0,0:0:0:0:
96,128,184677,1,0,0:0:0:0:
192,112,184742,1,8,0:0:0:0:
128,144,184808,1,0,0:0:0:0:
128,144,184938,1,0,0:0:0:0:
128,144,185003,1,8,0:0:0:0:
128,128,185068,1,0,0:0:0:0:
320,160,185199,1,8,0:0:0:0:
256,144,185329,1,8,0:0:0:0:
224,160,185460,1,0,0:0:0:0:
128,112,185590,1,0,0:0:0:0:
304,80,185721,1,4,0:0:0:0:
224,64,185851,1,0,0:0:0:0:
304,208,185981,1,8,0:0:0:0:
176,160,186047,1,8,0:0:0:0:
160,144,186112,1,8,0:0:0:0:
256,192,186242,1,0,0:0:0:0:
160,176,186373,1,0,0:0:0:0:
128,160,186503,1,8,0:0:0:0:
128,160,186568,1,8,0:0:0:0:
128,160,186634,1,8,0:0:0:0:
240,64,186699,1,8,0:0:0:0:
176,80,186764,1,0,0:0:0:0:
176,96,186829,1,0,0:0:0:0:
112,96,186894,1,8,0:0:0:0:
112,96,186960,1,8,0:0:0:0:
128,96,187025,1,0,0:0:0:0:
128,96,187155,1,0,0:0:0:0:
288,144,187286,1,8,0:0:0:0:
160,160,187416,1,0,0:0:0:0:
208,160,187547,1,8,0:0:0:0:
192,144,187677,1,8,0:0:0:0:
336,192,187808,1,0,0:0:0:0:
224,192,187873,1,0,0:0:0:0:
128,96,187938,1,0,0:0:0:0:
224,64,188068,1,0,0:0:0:0:
192,64,188134,1,8,0:0:0:0:
192,64,188199,1,0,0:0:0:0:
256,176,188851,1,4,0:0:0:0:
176,112,188981,1,0,0:0:0:0:
224,112,189112,1,0,0:0:0:0:
224,96,189242,1,0,0:0:0:0:
224,96,189373,1,0,0:0:0:0:
224,96,189438,1,8,0:0:0:0:
176,112,189503,1,0,0:0:0:0:
320,144,189634,1,0,0:0:0:0:
256,64,189764,1,0,0:0:0:0:
432,192,189895,1,8,0:0:0:0:
272,176,189960,1,0,0:0:0:0:
160,144,190025,1,8,0:0:0:0:
112,144,190090,1,0,0:0:0:0:
112,144,190155,1,8,0:0:0:0:
112,128,190221,1,8,0:0:0:0:
112,128,190286,1,0,0:0:0:0:
112,128,190351,1,0,0:0:0:0:
112,128,190416,1,8,0:0:0:0:
112,128,190481,1,0,0:0:0:0:
112,128,190547,1,8,0:0:0:0:
192,96,190612,1,0,0:0:0:0:
144,80,190677,1,0,0:0:0:0:
112,80,190742,1,8,0:0:0:0:
112,64,190808,1,8,0:0:0:0:
112,64,190873,1,8,0:0:0:0:
112,64,190938,1,0,0:0:0:0:
256,160,191068,1,0,0:0:0:0:
288,112,191199,1,8,0:0:0:0:
192,128,191329,1,0,0:0:0:0:
128,96,191460,1,8,0:0:0:0:
128,96,191590,1,8,0:0:0:0:
272,240,191721,1,0,0:0:0:0:
176,192,191786,1,8,0:0:0:0:
144,192,191851,1,0,0:0:0:0:
112,160,191916,1,8,0:0:0:0:
112,160,191981,1,0,0:0:0:0:
112,160,192047,1,0,0:0:0:0:
112,160,192112,1,8,0:0:0:0:
96,160,192177,1,0,0:0:0:0:
96,160,192242,1,8,0:0:0:0:
96,160,192308,1,8,0:0:0:0:
96,160,192373,1,0,0:0:0:0:
96,160,192438,1,8,0:0:0:0:
96,160,192503,1,8,0:0:0:0:
240,80,192634,1,8,0:0:0:0:
128,80,192764,1,0,0:0:0:0:
128,80,192895,1,0,0:0:0:0:
288,176,193025,1,8,0:0:0:0:
192,192,193090,1,0,0:0:0:0:
160,176,193155,1,0,0:0:0:0:
160,176,193221,1,0,0:0:0:0:
160,176,193286,1,8,0:0:0:0:
160,176,193351,1,8,0:0:0:0:
160,176,193416,1,0,0:0:0:0:
144,176,193481,1,0,0:0:0:0:
144,176,193547,1,8,0:0:0:0:
144,176,193612,1,8,0:0:0:0:
144,176,193677,1,8,0:0:0:0:
208,112,193742,1,0,0:0:0:0:
128,80,193808,1,8,0:0:0:0:
112,80,193873,1,8,0:0:0:0:
112,80,193938,1,0,0:0:0:0:
112,80,194003,1,0,0:0:0:0:
112,80,194068,1,8,0:0:0:0:
144,112,194134,1,8,0:0:0:0:
320,112,194199,1,8,0:0:0:0:
272,64,194264,1,8,0:0:0:0:
240,176,194329,1,8,0:0:0:0:
224,160,194395,1,8,0:0:0:0:
208,160,194460,1,8,0:0:0:0:
208,160,194525,1,8,0:0:0:0:
288,224,194590,1,0,0:0:0:0:
192,80,194655,1,8,0:0:0:0:
128,144,194721,1,8,0:0:0:0:
128,144,194786,1,0,0:0:0:0:
128,144,194851,1,8,0:0:0:0:
128,144,194916,1,8,0:0:0:0:
256,112,194981,1,0,0:0:0:0:
240,112,195047,1,8,0:0:0:0:
224,128,195112,1,0,0:0:0:0:
144,64,195177,1,0,0:0:0:0:
96,64,195242,1,8,0:0:0:0:
64,80,195308,1,0,0:0:0:0:
64,80,195373,1,8,0:0:0:0:
64,80,195438,1,0,0:0:0:0:
64,80,195503,1,8,0:0:0:0:
64,80,195568,1,0,0:0:0:0:
64,80,195634,1,8,0:0:0:0:
176,128,195699,1,8,0:0:0:0:
144,128,195764,1,0,0:0:0:0:
80,160,195829,1,0,0:0:0:0:
96,160,195895,1,0,0:0:0:0:
288,160,196025,1,0,0:0:0:0:
256,96,196155,1,8,0:0:0:0:
208,80,196286,1,0,0:0:0:0:
176,80,196416,1,8,0:0:0:0:
352,208,196547,1,8,0:0:0:0:
368,96,196677,1,8,0:0:0:0:
288,64,196742,1,0,0:0:0:0:
240,48,196808,1,0,0:0:0:0:
192,64,196873,1,8,0:0:0:0:
160,48,196938,1,8,0:0:0:0:
160,48,197003,1,0,0:0:0:0:
160,48,197068,1,8,0:0:0:0:
224,176,197134,1,8,0:0:0:0:
208,112,197199,1,0,0:0:0:0:
128,144,197329,1,0,0:0:0:0:
144,144,197460,1,8,0:0:0:0:
160,144,197590,1,0,0:0:0:0:
144,128,197721,1,8,0:0:0:0:
144,128,197851,1,8,0:0:0:0:
288,160,197981,1,0,0:0:0:0:
240,128,198112,1,8,0:0:0:0:
128,64,198242,1,8,0:0:0:0:
64,96,198308,1,8,0:0:0:0:
64,96,198373,1,0,0:0:0:0:
96,96,198438,1,8,0:0:0:0:
96,96,198503,1,8,0:0:0:0:
96,112,198568,1,0,0:0:0:0:
96,128,198634,1,8,0:0:0:0:
96,112,198699,1,8,0:0:0:0:
96,112,198764,1,0,0:0:0:0:
224,128,198829,1,0,0:0:0:0:
208,128,198895,1,8,0:0:0:0:
192,128,198960,1,8,0:0:0:0:
192,128,199025,1,0,0:0:0:0:
144,80,199090,1,0,0:0:0:0:
256,112,199155,1,8,0:0:0:0:
240,64,199221,1,8,0:0:0:0:
224,80,199286,1,0,0:0:0:0:
224,224,199416,1,0,0:0:0:0:
64,176,199547,1,8,0:0:0:0:
144,176,199677,1,0,0:0:0:0:
144,176,199808,1,12,0:0:0:0:
288,176,199938,1,8,0:0:0:0:
128,160,200068,1,0,0:0:0:0:
336,224,200199,1,0,0:0:0:0:
176,176,200329,1,4,0:0:0:0:
192,176,200460,1,0,0:0:0:0:
208,176,200590,1,8,0:0:0:0:
160,96,200655,1,8,0:0:0:0:
224,176,200721,1,8,0:0:0:0:
288,96,200786,1,8,0:0:0:0:
208,64,200851,1,0,0:0:0:0:
64,112,200916,1,8,0:0:0:0:
64,112,200981,1,8,0:0:0:0:
64,112,201047,1,8,0:0:0:0:
112,160,201112,1,0,0:0:0:0:
176,144,201177,1,0,0:0:0:0:
176,128,201242,1,0,0:0:0:0:
336,208,201308,1,0,0:0:0:0:
272,176,201373,1,0,0:0:0:0:
256,128,201503,1,0,0:0:0:0:
176,96,201634,1,8,0:0:0:0:
144,96,201764,1,0,0:0:0:0:
144,96,201895,1,12,0:0:0:0:
144,96,202025,1,8,0:0:0:0:
288,96,202155,1,8,0:0:0:0:
224,80,202242,1,8,0:0:0:0:
192,80,202329,1,8,0:0:0:0:
192,80,202416,1,0,0:0:0:0:
144,96,202503,1,0,0:0:0:0:
368,224,202590,1,0,0:0:0:0:
224,208,202677,1,8,0:0:0:0:
160,192,202764,1,8,0:0:0:0:
144,192,202851,1,8,0:0:0:0:
288,128,202938,1,0,0:0:0:0:
272,80,203003,1,8,0:0:0:0:
240,80,203068,1,8,0:0:0:0:
240,80,203134,1,8,0:0:0:0:
192,80,203199,1,0,0:0:0:0:
192,80,203264,1,0,0:0:0:0:
192,80,203329,1,8,0:0:0:0:
192,80,203395,1,0,0:0:0:0:
304,256,203460,1,0,0:0:0:0:
96,160,203590,1,0,0:0:0:0:
144,144,203721,1,8,0:0:0:0:
208,144,203851,1,0,0:0:0:0:
272,160,203981,1,12,0:0:0:0:
224,160,204112,1,8,0:0:0:0:
192,96,204242,1,0,0:0:0:0:
128,64,204373,1,0,0:0:0:0:
112,80,204503,1,4,0:0:0:0:
320,112,204634,1,0,0:0:0:0:
240,96,204764,1,8,0:0:0:0:
240,96,204829,1,8,0:0:0:0:
240,96,204895,1,8,0:0:0:0:
240,96,204960,1,8,0:0:0:0:
192,96,205025,1,0,0:0:0:0:
128,112,205090,1,8,0:0:0:0:
128,112,205155,1,8,0:0:0:0:
128,112,205221,1,8,0:0:0:0:
128,112,205286,1,0,0:0:0:0:
128,112,205351,1,0,0:0:0:0:
128,112,205416,1,0,0:0:0:0:
128,112,205481,1,0,0:0:0:0:
128,112,205547,1,0,0:0:0:0:
176,192,205677,1,0,0:0:0:0:
304,160,205808,1,8,0:0:0:0:
192,128,205938,1,0,0:0:0:0:
272,96,206068,1,12,0:0:0:0:
192,80,206199,1,8,0:0:0:0:
64,96,206329,1,0,0:0:0:0:
416,176,206416,1,8,0:0:0:0:
352,96,206503,1,8,0:0:0:0:
304,64,206590,1,0,0:0:0:0:
224,64,206677,1,8,0:0:0:0:
208,64,206764,1,8,0:0:0:0:
208,192,206851,1,0,0:0:0:0:
288,192,206938,1,8,0:0:0:0:
192,160,207025,1,8,0:0:0:0:
352,144,207112,1,0,0:0:0:0:
160,96,207177,1,0,0:0:0:0:
112,64,207242,1,0,0:0:0:0:
64,80,207308,1,8,0:0:0:0:
64,64,207373,1,0,0:0:0:0:
256,112,207438,1,8,0:0:0:0:
208,64,207503,1,8,0:0:0:0:
160,64,207568,1,8,0:0:0:0:
160,96,207634,1,0,0:0:0:0:
96,160,207764,1,0,0:0:0:0:
256,192,207895,1,8,0:0:0:0:
176,144,208025,1,0,0:0:0:0:
288,128,208155,1,12,0:0:0:0:
192,80,208286,1,8,0:0:0:0:
368,208,208416,1,0,0:0:0:0:
352,160,208547,1,0,0:0:0:0:
352,144,208677,1,4,0:0:0:0:
176,208,208808,1,0,0:0:0:0:
256,80,208938,1,8,0:0:0:0:
128,64,209003,1,8,0:0:0:0:
128,64,209068,1,8,0:0:0:0:
128,80,209134,1,8,0:0:0:0:
128,64,209199,1,0,0:0:0:0:
128,64,209264,1,0,0:0:0:0:
128,64,209329,1,8,0:0:0:0:
128,64,209395,1,8,0:0:0:0:
192,144,209460,1,8,0:0:0:0:
112,144,209525,1,0,0:0:0:0:
128,128,209590,1,0,0:0:0:0:
128,128,209655,1,8,0:0:0:0:
272,192,209721,1,0,0:0:0:0:
288,144,209851,1,0,0:0:0:0:
224,80,209981,1,8,0:0:0:0:
144,80,210112,1,0,0:0:0:0:
144,80,210242,1,12,0:0:0:0:
144,80,210373,1,8,0:0:0:0:
144,80,210503,1,0,0:0:0:0:
176,176,210590,1,0,0:0:0:0:
288,160,210677,1,0,0:0:0:0:
208,112,210764,1,8,0:0:0:0:
192,112,210851,1,8,0:0:0:0:
192,112,210938,1,8,0:0:0:0:
144,112,211025,1,0,0:0:0:0:
144,112,211112,1,0,0:0:0:0:
144,112,211199,1,0,0:0:0:0:
352,112,211286,1,8,0:0:0:0:
272,80,211351,1,0,0:0:0:0:
144,64,211416,1,8,0:0:0:0:
112,96,211481,1,8,0:0:0:0:
160,176,211547,1,0,0:0:0:0:
240,176,211612,1,0,0:0:0:0:
192,144,211677,1,8,0:0:0:0:
224,112,211742,1,8,0:0:0:0:
208,96,211808,1,0,0:0:0:0:
288,176,211938,1,0,0:0:0:0:
288,176,212068,1,8,0:0:0:0:
272,160,212199,1,0,0:0:0:0:
96,144,212329,1,12,0:0:0:0:
256,112,212460,1,8,0:0:0:0:
160,64,212590,1,0,0:0:0:0:
160,64,212721,1,0,0:0:0:0:
160,64,212851,1,4,0:0:0:0:
224,192,212981,1,0,0:0:0:0:
256,80,213112,1,8,0:0:0:0:
128,64,213177,1,8,0:0:0:0:
128,64,213242,1,8,0:0:0:0:
128,80,213308,1,8,0:0:0:0:
128,64,213373,1,0,0:0:0:0:
128,64,213438,1,0,0:0:0:0:
128,64,213503,1,8,0:0:0:0:
128,64,213568,1,8,0:0:0:0:
192,144,213634,1,8,0:0:0:0:
112,144,213699,1,0,0:0:0:0:
128,128,213764,1,0,0:0:0:0:
128,128,213829,1,8,0:0:0:0:
272,192,213895,1,0,0:0:0:0:
384,96,214025,1,0,0:0:0:0:
256,80,214155,1,8,0:0:0:0:
160,64,214286,1,0,0:0:0:0:
192,64,214416,1,12,0:0:0:0:
176,176,214547,1,8,0:0:0:0:
288,144,214677,1,0,0:0:0:0:
320,256,214742,1,0,0:0:0:0:
192,128,214808,1,0,0:0:0:0:
368,192,214938,1,8,0:0:0:0:
320,128,215003,1,8,0:0:0:0:
288,112,215068,1,8,0:0:0:0:
288,112,215134,1,8,0:0:0:0:
256,112,215199,1,0,0:0:0:0:
256,112,215264,1,0,0:0:0:0:
240,112,215329,1,0,0:0:0:0:
240,112,215395,1,0,0:0:0:0:
192,160,215460,1,8,0:0:0:0:
128,80,215525,1,8,0:0:0:0:
112,64,215590,1,8,0:0:0:0:
160,80,215655,1,0,0:0:0:0:
160,80,215721,1,8,0:0:0:0:
160,80,215786,1,8,0:0:0:0:
160,80,215851,1,0,0:0:0:0:
240,192,215916,1,0,0:0:0:0:
368,208,215982,1,8,0:0:0:0:
