osu file format v14

[General]
AudioFilename: Eviscerate.ogg
AudioLeadIn: 1500
PreviewTime: 190893
Countdown: 0
SampleSet: Normal
StackLeniency: 0.7
Mode: 1
LetterboxInBreaks: 0
WidescreenStoryboard: 1

[Editor]
DistanceSpacing: 1
BeatDivisor: 4
GridSize: 16
TimelineZoom: 3.799999

[Metadata]
Title:Eviscerate
TitleUnicode:Eviscerate
Artist:Rings of Saturn
ArtistUnicode:Rings of Saturn
Creator:Xay
Version:Inner Oni
Source:
Tags:lugal ki en technical death power metal xayphon xlm stepmania
BeatmapID:1630190
BeatmapSetID:477477

[Difficulty]
HPDrainRate:5
CircleSize:4
OverallDifficulty:6
ApproachRate:5
SliderMultiplier:1.4
SliderTickRate:1

[Events]
//Background and Video events
0,0,"Eviscerate.jpg",0,0
//Break Periods
//Storyboard Layer 0 (Background)
//Storyboard Layer 1 (Fail)
//Storyboard Layer 2 (Pass)
//Storyboard Layer 3 (Foreground)
//Storyboard Sound Samples

[TimingPoints]
1860,260.87,4,1,0,85,1,0
75947,600,4,1,0,85,1,0
85547,260.87,4,1,0,85,1,0

[HitObjects]
192,160,1860,5,8,0:0:0:0:
240,144,1925,1,8,0:0:0:0:
240,144,1990,1,0,0:0:0:0:
224,80,2055,1,0,0:0:0:0:
352,160,2120,1,8,0:0:0:0:
304,96,2186,1,8,0:0:0:0:
288,64,2251,1,8,0:0:0:0:
288,64,2316,1,8,0:0:0:0:
112,96,2381,1,0,0:0:0:0:
160,176,2446,1,8,0:0:0:0:
144,144,2512,1,0,0:0:0:0:
160,112,2577,1,8,0:0:0:0:
160,96,2642,1,0,0:0:0:0:
160,64,2707,1,0,0:0:0:0:
96,160,2773,1,0,0:0:0:0:
208,160,2838,1,0,0:0:0:0:
224,160,2903,1,8,0:0:0:0:
32,96,2968,1,8,0:0:0:0:
96,64,3033,1,0,0:0:0:0:
80,64,3099,1,0,0:0:0:0:
160,96,3164,1,8,0:0:0:0:
176,96,3229,1,8,0:0:0:0:
176,80,3294,1,8,0:0:0:0:
192,80,3360,1,8,0:0:0:0:
192,80,3425,1,0,0:0:0:0:
192,80,3490,1,8,0:0:0:0:
160,96,3555,1,0,0:0:0:0:
160,96,3620,1,8,0:0:0:0:
160,96,3686,1,0,0:0:0:0:
144,96,3751,1,0,0:0:0:0:
144,96,3816,1,0,0:0:0:0:
144,96,3881,1,0,0:0:0:0:
224,144,3946,5,8,0:0:0:0:
128,128,4012,1,0,0:0:0:0:
144,144,4077,1,0,0:0:0:0:
144,160,4142,1,0,0:0:0:0:
224,208,4207,1,8,0:0:0:0:
224,80,4273,1,8,0:0:0:0:
128,64,4338,1,0,0:0:0:0:
128,64,4403,1,0,0:0:0:0:
128,64,4468,1,8,0:0:0:0:
128,80,4533,1,8,0:0:0:0:
128,80,4599,1,8,0:0:0:0:
144,80,4664,1,8,0:0:0:0:
144,64,4729,1,0,0:0:0:0:
272,176,4794,1,0,0:0:0:0:
192,128,4860,1,0,0:0:0:0:
176,144,4925,1,0,0:0:0:0:
176,144,4990,1,8,0:0:0:0:
256,192,5773,1,0,0:0:0:0:
128,128,5903,1,0,0:0:0:0:
256,96,6033,1,8,0:0:0:0:
160,80,6099,1,8,0:0:0:0:
160,80,6164,1,0,0:0:0:0:
160,80,6294,1,0,0:0:0:0:
160,80,6425,1,8,0:0:0:0:
160,80,6490,1,8,0:0:0:0:
192,144,6555,1,0,0:0:0:0:
304,176,6686,1,0,0:0:0:0:
256,176,6751,1,8,0:0:0:0:
240,192,6816,1,0,0:0:0:0:
96,176,6946,1,0,0:0:0:0:
256,96,7077,1,8,0:0:0:0:
224,96,7142,1,8,0:0:0:0:
224,80,7207,1,8,0:0:0:0:
160,112,7338,1,4,0:0:0:0:
272,256,7599,1,4,0:0:0:0:
240,160,7860,1,8,0:0:0:0:
320,128,7925,1,8,0:0:0:0:
224,96,7990,1,0,0:0:0:0:
144,96,8120,1,0,0:0:0:0:
64,176,8186,1,0,0:0:0:0:
112,160,8251,1,0,0:0:0:0:
144,192,8316,1,0,0:0:0:0:
224,208,8381,1,8,0:0:0:0:
320,224,8446,1,8,0:0:0:0:
64,96,8512,1,0,0:0:0:0:
64,112,8577,1,0,0:0:0:0:
64,112,8642,1,8,0:0:0:0:
224,128,8773,1,0,0:0:0:0:
64,112,8903,1,8,0:0:0:0:
224,64,8968,1,8,0:0:0:0:
160,64,9033,1,8,0:0:0:0:
144,64,9099,1,8,0:0:0:0:
144,64,9164,1,0,0:0:0:0:
64,176,9294,1,0,0:0:0:0:
176,208,9425,1,0,0:0:0:0:
240,208,9555,1,0,0:0:0:0:
224,176,9686,1,8,0:0:0:0:
272,144,9751,1,8,0:0:0:0:
176,96,9816,1,0,0:0:0:0:
128,128,9946,1,4,0:0:0:0:
352,224,10077,1,4,0:0:0:0:
256,64,10207,1,8,0:0:0:0:
224,80,10273,1,0,0:0:0:0:
208,80,10338,1,8,0:0:0:0:
144,144,10468,1,4,0:0:0:0:
272,240,10599,1,4,0:0:0:0:
224,144,10729,1,8,0:0:0:0:
192,160,10794,1,0,0:0:0:0:
160,160,10860,1,8,0:0:0:0:
144,176,10990,1,4,0:0:0:0:
352,192,11120,1,4,0:0:0:0:
112,80,11251,1,8,0:0:0:0:
112,80,11316,1,8,0:0:0:0:
96,80,11381,1,0,0:0:0:0:
96,96,11512,1,4,0:0:0:0:
240,192,11773,1,4,0:0:0:0:
224,96,12033,1,8,0:0:0:0:
272,80,12099,1,8,0:0:0:0:
256,80,12164,1,0,0:0:0:0:
368,144,12294,1,8,0:0:0:0:
352,80,12360,1,0,0:0:0:0:
352,80,12425,1,0,0:0:0:0:
352,64,12490,1,0,0:0:0:0:
320,96,12555,1,8,0:0:0:0:
192,160,12620,1,0,0:0:0:0:
160,160,12686,1,0,0:0:0:0:
144,144,12751,1,0,0:0:0:0:
128,144,12816,1,8,0:0:0:0:
192,208,12881,1,8,0:0:0:0:
192,208,12946,1,8,0:0:0:0:
192,192,13012,1,8,0:0:0:0:
192,208,13077,1,0,0:0:0:0:
192,96,13142,1,0,0:0:0:0:
96,80,13207,1,0,0:0:0:0:
336,208,13338,1,8,0:0:0:0:
288,144,13468,1,8,0:0:0:0:
368,64,13599,1,0,0:0:0:0:
288,48,13664,1,0,0:0:0:0:
192,48,13729,1,0,0:0:0:0:
160,144,13860,1,0,0:0:0:0:
208,192,13925,1,0,0:0:0:0:
128,208,13990,1,0,0:0:0:0:
208,112,14120,1,0,0:0:0:0:
16,64,14186,1,0,0:0:0:0:
96,96,14251,1,0,0:0:0:0:
112,128,14381,1,8,0:0:0:0:
192,128,14446,1,8,0:0:0:0:
160,96,14512,1,0,0:0:0:0:
272,64,14577,1,0,0:0:0:0:
224,64,14642,1,8,0:0:0:0:
160,64,14707,1,8,0:0:0:0:
160,64,14773,1,0,0:0:0:0:
128,80,14838,1,8,0:0:0:0:
128,80,14903,1,8,0:0:0:0:
112,80,14968,1,8,0:0:0:0:
112,80,15033,1,0,0:0:0:0:
112,80,15099,1,0,0:0:0:0:
112,80,15164,1,0,0:0:0:0:
112,80,15229,1,0,0:0:0:0:
112,80,15294,1,8,0:0:0:0:
112,80,15360,1,8,0:0:0:0:
112,80,15425,1,0,0:0:0:0:
64,128,15490,1,0,0:0:0:0:
192,144,15555,1,0,0:0:0:0:
336,128,15686,1,8,0:0:0:0:
256,192,15751,1,0,0:0:0:0:
192,144,15816,1,0,0:0:0:0:
256,112,15946,1,8,0:0:0:0:
160,112,16012,1,8,0:0:0:0:
160,112,16077,1,8,0:0:0:0:
128,176,16207,1,0,0:0:0:0:
288,224,16273,1,0,0:0:0:0:
192,192,16338,1,0,0:0:0:0:
176,192,16403,1,0,0:0:0:0:
176,192,16468,1,8,0:0:0:0:
176,192,16533,1,8,0:0:0:0:
160,192,16599,1,8,0:0:0:0:
288,112,16729,1,4,0:0:0:0:
224,96,16860,1,0,0:0:0:0:
144,64,16990,1,12,0:0:0:0:
112,80,17120,1,0,0:0:0:0:
288,208,17251,1,8,0:0:0:0:
128,208,17316,1,0,0:0:0:0:
192,192,17381,1,0,0:0:0:0:
32,176,17446,1,0,0:0:0:0:
192,192,17512,1,8,0:0:0:0:
384,192,17577,1,8,0:0:0:0:
304,160,17642,1,0,0:0:0:0:
240,112,17773,1,4,0:0:0:0:
160,96,17903,1,0,0:0:0:0:
144,96,18033,1,4,0:0:0:0:
144,96,18164,1,0,0:0:0:0:
240,208,18294,1,8,0:0:0:0:
160,192,18360,1,8,0:0:0:0:
128,176,18425,1,0,0:0:0:0:
256,160,18555,1,4,0:0:0:0:
336,80,18686,1,4,0:0:0:0:
208,80,18816,1,8,0:0:0:0:
176,96,18881,1,0,0:0:0:0:
128,96,18946,1,8,0:0:0:0:
112,96,19077,1,4,0:0:0:0:
112,96,19207,1,4,0:0:0:0:
208,176,19338,1,8,0:0:0:0:
288,144,19403,1,0,0:0:0:0:
224,128,19468,1,8,0:0:0:0:
192,128,19599,1,0,0:0:0:0:
272,80,19664,1,0,0:0:0:0:
208,64,19729,1,0,0:0:0:0:
192,64,19794,1,0,0:0:0:0:
144,64,19860,1,8,0:0:0:0:
144,64,19925,1,8,0:0:0:0:
144,80,19990,1,0,0:0:0:0:
144,80,20055,1,0,0:0:0:0:
224,192,20120,1,8,0:0:0:0:
320,160,20186,1,8,0:0:0:0:
352,96,20251,1,0,0:0:0:0:
240,128,20381,1,8,0:0:0:0:
160,96,20446,1,0,0:0:0:0:
160,96,20512,1,0,0:0:0:0:
48,96,20577,1,0,0:0:0:0:
48,96,20642,1,8,0:0:0:0:
176,192,20707,1,0,0:0:0:0:
112,128,20773,1,0,0:0:0:0:
112,128,20838,1,0,0:0:0:0:
96,128,20903,1,8,0:0:0:0:
96,144,20968,1,8,0:0:0:0:
96,144,21033,1,0,0:0:0:0:
96,144,21099,1,0,0:0:0:0:
96,144,21164,1,8,0:0:0:0:
288,192,21229,1,8,0:0:0:0:
240,144,21294,1,8,0:0:0:0:
224,144,21360,1,8,0:0:0:0:
192,160,21425,1,0,0:0:0:0:
320,288,21490,1,0,0:0:0:0:
160,240,21555,1,0,0:0:0:0:
368,256,21686,1,8,0:0:0:0:
64,144,21946,1,0,0:0:0:0:
64,160,22012,1,0,0:0:0:0:
96,160,22077,1,0,0:0:0:0:
256,224,22207,1,8,0:0:0:0:
288,160,22273,1,0,0:0:0:0:
192,160,22338,1,0,0:0:0:0:
176,112,22468,1,8,0:0:0:0:
176,112,22533,1,0,0:0:0:0:
304,112,22599,1,0,0:0:0:0:
352,224,22729,1,8,0:0:0:0:
256,128,22794,1,8,0:0:0:0:
256,128,22860,1,8,0:0:0:0:
176,192,22990,1,0,0:0:0:0:
160,176,23055,1,0,0:0:0:0:
112,144,23120,1,0,0:0:0:0:
144,96,23251,1,8,0:0:0:0:
128,80,23316,1,8,0:0:0:0:
96,80,23381,1,0,0:0:0:0:
192,128,23512,1,0,0:0:0:0:
288,208,23577,1,0,0:0:0:0:
208,192,23642,1,8,0:0:0:0:
320,144,23773,1,8,0:0:0:0:
192,112,24033,1,8,0:0:0:0:
144,96,24099,1,0,0:0:0:0:
64,176,24164,1,0,0:0:0:0:
176,176,24294,1,8,0:0:0:0:
256,208,24360,1,0,0:0:0:0:
192,224,24425,1,0,0:0:0:0:
384,224,24555,1,0,0:0:0:0:
336,192,24620,1,0,0:0:0:0:
192,160,24686,1,8,0:0:0:0:
192,160,24751,1,8,0:0:0:0:
192,160,24816,1,0,0:0:0:0:
176,112,24881,1,0,0:0:0:0:
128,112,24946,1,0,0:0:0:0:
96,112,25077,1,0,0:0:0:0:
96,112,25142,1,0,0:0:0:0:
96,128,25207,1,0,0:0:0:0:
304,240,25338,1,8,0:0:0:0:
320,192,25599,1,8,0:0:0:0:
224,192,25664,1,0,0:0:0:0:
128,208,25729,1,0,0:0:0:0:
144,208,25860,1,8,0:0:0:0:
192,112,26120,1,8,0:0:0:0:
128,96,26186,1,0,0:0:0:0:
96,128,26251,1,0,0:0:0:0:
240,176,26381,1,8,0:0:0:0:
176,192,26446,1,0,0:0:0:0:
160,240,26512,1,0,0:0:0:0:
320,144,26642,1,8,0:0:0:0:
272,80,26707,1,0,0:0:0:0:
192,80,26773,1,0,0:0:0:0:
320,224,26903,1,8,0:0:0:0:
240,192,26968,1,0,0:0:0:0:
112,176,27033,1,0,0:0:0:0:
96,112,27164,1,8,0:0:0:0:
80,112,27229,1,8,0:0:0:0:
80,128,27294,1,0,0:0:0:0:
288,112,27425,1,0,0:0:0:0:
192,144,27490,1,0,0:0:0:0:
192,160,27555,1,0,0:0:0:0:
288,208,27686,1,0,0:0:0:0:
224,96,27751,1,8,0:0:0:0:
160,64,27816,1,8,0:0:0:0:
80,64,27881,1,8,0:0:0:0:
128,192,27947,1,0,0:0:0:0:
192,160,28207,1,0,0:0:0:0:
160,160,28273,1,0,0:0:0:0:
64,160,28338,1,0,0:0:0:0:
304,144,28468,1,0,0:0:0:0:
256,96,28533,1,8,0:0:0:0:
176,96,28599,1,0,0:0:0:0:
288,240,28729,1,0,0:0:0:0:
160,240,28794,1,0,0:0:0:0:
128,240,28860,1,8,0:0:0:0:
64,144,28925,1,8,0:0:0:0:
96,96,28990,1,0,0:0:0:0:
336,208,29055,1,0,0:0:0:0:
240,144,29120,1,0,0:0:0:0:
336,288,29251,1,0,0:0:0:0:
192,192,29316,1,0,0:0:0:0:
176,192,29381,1,0,0:0:0:0:
288,208,29512,1,8,0:0:0:0:
240,192,29773,1,8,0:0:0:0:
240,192,29838,1,0,0:0:0:0:
224,192,29903,1,0,0:0:0:0:
352,272,30033,1,8,0:0:0:0:
336,144,30294,1,8,0:0:0:0:
160,96,30360,1,8,0:0:0:0:
96,80,30425,1,8,0:0:0:0:
96,176,30490,1,8,0:0:0:0:
144,176,30555,1,0,0:0:0:0:
240,192,30620,1,0,0:0:0:0:
240,176,30686,1,0,0:0:0:0:
224,160,30751,1,0,0:0:0:0:
192,144,30816,1,8,0:0:0:0:
224,80,30881,1,0,0:0:0:0:
176,64,30947,1,8,0:0:0:0:
288,112,31012,1,0,0:0:0:0:
288,80,31077,1,8,0:0:0:0:
64,96,31142,1,8,0:0:0:0:
96,64,31207,1,8,0:0:0:0:
128,176,31273,1,8,0:0:0:0:
256,208,31338,1,0,0:0:0:0:
224,160,31403,1,0,0:0:0:0:
208,160,31468,1,0,0:0:0:0:
176,128,31533,1,0,0:0:0:0:
304,144,31599,1,8,0:0:0:0:
208,64,31664,1,8,0:0:0:0:
368,224,31729,1,8,0:0:0:0:
336,192,31794,1,8,0:0:0:0:
304,208,31860,1,0,0:0:0:0:
272,208,31925,1,0,0:0:0:0:
272,208,31990,1,8,0:0:0:0:
224,224,32055,1,0,0:0:0:0:
128,160,32120,1,8,0:0:0:0:
288,128,32381,1,0,0:0:0:0:
208,64,32447,1,0,0:0:0:0:
144,80,32512,1,0,0:0:0:0:
176,144,32642,1,0,0:0:0:0:
32,128,32707,1,0,0:0:0:0:
64,176,32773,1,8,0:0:0:0:
128,176,32903,1,0,0:0:0:0:
112,160,32968,1,0,0:0:0:0:
112,160,33033,1,0,0:0:0:0:
112,160,33164,1,8,0:0:0:0:
112,160,33229,1,8,0:0:0:0:
112,160,33294,1,0,0:0:0:0:
176,144,33425,1,8,0:0:0:0:
192,96,33490,1,8,0:0:0:0:
112,80,33555,1,8,0:0:0:0:
320,240,33686,1,0,0:0:0:0:
272,112,33947,1,8,0:0:0:0:
176,144,34012,1,0,0:0:0:0:
160,128,34077,1,0,0:0:0:0:
208,176,34207,1,8,0:0:0:0:
320,192,34468,1,0,0:0:0:0:
304,160,34533,1,0,0:0:0:0:
240,144,34599,1,0,0:0:0:0:
144,96,34729,1,8,0:0:0:0:
112,128,34794,1,0,0:0:0:0:
112,144,34860,1,0,0:0:0:0:
96,144,34990,1,8,0:0:0:0:
144,192,35055,1,0,0:0:0:0:
224,240,35120,1,0,0:0:0:0:
256,176,35251,1,8,0:0:0:0:
208,80,35316,1,8,0:0:0:0:
208,128,35381,1,8,0:0:0:0:
96,96,35512,1,8,0:0:0:0:
144,128,35577,1,0,0:0:0:0:
128,144,35642,1,0,0:0:0:0:
288,192,35773,1,8,0:0:0:0:
192,224,35838,1,8,0:0:0:0:
64,208,35903,1,0,0:0:0:0:
352,256,36033,1,8,0:0:0:0:
304,240,36099,1,8,0:0:0:0:
240,240,36164,1,0,0:0:0:0:
336,240,36294,1,8,0:0:0:0:
272,144,36555,1,0,0:0:0:0:
144,128,36620,1,8,0:0:0:0:
224,208,36686,1,0,0:0:0:0:
160,176,36816,1,8,0:0:0:0:
64,96,36881,1,0,0:0:0:0:
96,80,36947,1,8,0:0:0:0:
176,64,37077,1,0,0:0:0:0:
144,48,37142,1,8,0:0:0:0:
144,64,37207,1,0,0:0:0:0:
288,160,37599,1,8,0:0:0:0:
224,160,37664,1,8,0:0:0:0:
192,176,37729,1,8,0:0:0:0:
336,240,38120,1,0,0:0:0:0:
240,208,38186,1,0,0:0:0:0:
224,224,38251,1,0,0:0:0:0:
224,96,38642,1,8,0:0:0:0:
128,64,38707,1,8,0:0:0:0:
128,64,38773,1,8,0:0:0:0:
320,144,38838,1,8,0:0:0:0:
208,144,38903,1,0,0:0:0:0:
160,112,38968,1,0,0:0:0:0:
160,112,39033,1,8,0:0:0:0:
112,128,39099,1,0,0:0:0:0:
112,128,39164,1,8,0:0:0:0:
112,128,39229,1,8,0:0:0:0:
112,128,39294,1,0,0:0:0:0:
112,128,39360,1,8,0:0:0:0:
96,128,39425,1,0,0:0:0:0:
192,208,39555,1,0,0:0:0:0:
208,144,39686,1,12,0:0:0:0:
80,64,39816,1,0,0:0:0:0:
208,96,39947,1,12,0:0:0:0:
320,160,40077,1,0,0:0:0:0:
288,80,40207,1,12,0:0:0:0:
144,192,40338,1,0,0:0:0:0:
128,128,40468,1,8,0:0:0:0:
240,224,40533,1,8,0:0:0:0:
224,128,40599,1,8,0:0:0:0:
192,128,40664,1,8,0:0:0:0:
192,128,40729,1,0,0:0:0:0:
48,160,40794,1,8,0:0:0:0:
64,112,40860,1,0,0:0:0:0:
144,64,40990,1,8,0:0:0:0:
80,48,41055,1,0,0:0:0:0:
80,48,41120,1,8,0:0:0:0:
304,128,41251,1,0,0:0:0:0:
288,112,41316,1,0,0:0:0:0:
224,80,41381,1,8,0:0:0:0:
208,80,41447,1,8,0:0:0:0:
192,96,41512,1,0,0:0:0:0:
160,208,41577,1,0,0:0:0:0:
160,192,41642,1,0,0:0:0:0:
304,240,41773,1,8,0:0:0:0:
224,176,41838,1,0,0:0:0:0:
208,192,41903,1,0,0:0:0:0:
384,192,42033,1,8,0:0:0:0:
288,160,42099,1,8,0:0:0:0:
208,144,42164,1,8,0:0:0:0:
192,144,42229,1,8,0:0:0:0:
160,96,42294,1,4,0:0:0:0:
208,208,42425,1,4,0:0:0:0:
240,96,42816,1,0,0:0:0:0:
208,64,42881,1,8,0:0:0:0:
160,64,42947,1,8,0:0:0:0:
128,80,43012,1,0,0:0:0:0:
128,144,43077,1,8,0:0:0:0:
192,128,43142,1,8,0:0:0:0:
256,128,43207,1,0,0:0:0:0:
240,112,43273,1,0,0:0:0:0:
208,96,43338,1,8,0:0:0:0:
85,141,43468,1,0,0:0:0:0:
74,129,43599,1,8,0:0:0:0:
304,192,43729,1,0,0:0:0:0:
176,112,43860,1,12,0:0:0:0:
224,192,43990,1,0,0:0:0:0:
256,144,44120,1,12,0:0:0:0:
80,160,44251,1,0,0:0:0:0:
96,112,44381,1,12,0:0:0:0:
256,96,44512,1,0,0:0:0:0:
352,224,44642,1,8,0:0:0:0:
320,80,44707,1,8,0:0:0:0:
240,160,44773,1,8,0:0:0:0:
128,160,44903,1,0,0:0:0:0:
160,128,44968,1,8,0:0:0:0:
112,112,45033,1,0,0:0:0:0:
112,96,45164,1,8,0:0:0:0:
112,112,45229,1,0,0:0:0:0:
112,112,45294,1,8,0:0:0:0:
96,112,45425,1,0,0:0:0:0:
96,112,45490,1,0,0:0:0:0:
96,112,45555,1,8,0:0:0:0:
192,128,45620,1,8,0:0:0:0:
176,80,45686,1,0,0:0:0:0:
272,144,45751,1,8,0:0:0:0:
288,112,45816,1,8,0:0:0:0:
240,112,45881,1,8,0:0:0:0:
240,96,45947,1,0,0:0:0:0:
240,96,46012,1,8,0:0:0:0:
240,96,46077,1,0,0:0:0:0:
240,96,46142,1,8,0:0:0:0:
144,160,46207,1,0,0:0:0:0:
272,128,46273,1,0,0:0:0:0:
208,96,46338,1,0,0:0:0:0:
192,96,46403,1,0,0:0:0:0:
192,96,46468,1,8,0:0:0:0:
128,80,46533,1,8,0:0:0:0:
80,64,46599,1,8,0:0:0:0:
64,48,46664,1,8,0:0:0:0:
96,80,46729,1,0,0:0:0:0:
208,176,46794,1,0,0:0:0:0:
304,176,46860,1,0,0:0:0:0:
272,144,46990,1,0,0:0:0:0:
176,128,47055,1,0,0:0:0:0:
160,144,47120,1,0,0:0:0:0:
320,224,47251,1,0,0:0:0:0:
128,208,47316,1,0,0:0:0:0:
128,208,47381,1,0,0:0:0:0:
336,224,47512,1,0,0:0:0:0:
288,208,47642,1,0,0:0:0:0:
160,128,47773,1,12,0:0:0:0:
144,192,47903,1,0,0:0:0:0:
224,112,48033,1,8,0:0:0:0:
192,160,48164,1,8,0:0:0:0:
112,80,48294,1,0,0:0:0:0:
112,80,48425,1,8,0:0:0:0:
144,160,48555,1,0,0:0:0:0:
256,192,48620,1,0,0:0:0:0:
208,192,48686,1,0,0:0:0:0:
352,192,48816,1,8,0:0:0:0:
224,112,48947,1,8,0:0:0:0:
320,160,49077,1,8,0:0:0:0:
288,144,49142,1,0,0:0:0:0:
256,128,49207,1,0,0:0:0:0:
112,128,49338,1,8,0:0:0:0:
112,64,49403,1,8,0:0:0:0:
128,96,49468,1,0,0:0:0:0:
256,240,49599,1,0,0:0:0:0:
160,160,49729,1,0,0:0:0:0:
192,240,49860,1,12,0:0:0:0:
144,224,49990,1,0,0:0:0:0:
224,128,50120,1,8,0:0:0:0:
160,80,50251,1,0,0:0:0:0:
304,176,50381,1,8,0:0:0:0:
304,160,50447,1,0,0:0:0:0:
288,144,50512,1,0,0:0:0:0:
256,96,50642,1,8,0:0:0:0:
256,96,50707,1,0,0:0:0:0:
240,96,50773,1,0,0:0:0:0:
96,144,50903,1,8,0:0:0:0:
128,160,50968,1,8,0:0:0:0:
208,224,51033,1,0,0:0:0:0:
144,112,51164,1,8,0:0:0:0:
272,192,51229,1,8,0:0:0:0:
176,64,51294,1,0,0:0:0:0:
224,144,51425,1,0,0:0:0:0:
256,128,51490,1,0,0:0:0:0:
336,192,51555,1,8,0:0:0:0:
416,224,51686,1,8,0:0:0:0:
352,160,51816,1,0,0:0:0:0:
288,96,51947,1,12,0:0:0:0:
144,192,52077,1,0,0:0:0:0:
208,192,52207,1,8,0:0:0:0:
304,240,52338,1,0,0:0:0:0:
240,144,52468,1,8,0:0:0:0:
256,144,52599,1,8,0:0:0:0:
384,208,52729,1,8,0:0:0:0:
336,176,52794,1,8,0:0:0:0:
320,176,52860,1,0,0:0:0:0:
160,144,52990,1,0,0:0:0:0:
80,128,53120,1,0,0:0:0:0:
96,112,53251,1,0,0:0:0:0:
80,112,53316,1,0,0:0:0:0:
288,112,53381,1,0,0:0:0:0:
192,96,53512,1,0,0:0:0:0:
32,96,53577,1,0,0:0:0:0:
128,80,53642,1,0,0:0:0:0:
256,208,53773,1,0,0:0:0:0:
176,160,53838,1,0,0:0:0:0:
112,144,53903,1,8,0:0:0:0:
336,208,54034,1,0,0:0:0:0:
240,160,54164,1,0,0:0:0:0:
224,96,54294,1,0,0:0:0:0:
208,96,54360,1,0,0:0:0:0:
176,96,54425,1,8,0:0:0:0:
352,144,54555,1,0,0:0:0:0:
288,128,54686,1,0,0:0:0:0:
160,160,54816,1,8,0:0:0:0:
240,224,54881,1,0,0:0:0:0:
208,192,54947,1,8,0:0:0:0:
320,224,55012,1,8,0:0:0:0:
288,192,55077,1,0,0:0:0:0:
352,240,55142,1,0,0:0:0:0:
240,160,55207,1,0,0:0:0:0:
240,160,55273,1,0,0:0:0:0:
224,160,55338,1,8,0:0:0:0:
208,144,55403,1,8,0:0:0:0:
176,160,55468,1,0,0:0:0:0:
176,160,55534,1,0,0:0:0:0:
176,160,55599,1,8,0:0:0:0:
96,144,55729,1,0,0:0:0:0:
336,144,55860,1,8,0:0:0:0:
272,128,55925,1,8,0:0:0:0:
176,96,55990,1,8,0:0:0:0:
224,96,56120,1,0,0:0:0:0:
224,80,56186,1,0,0:0:0:0:
224,128,56251,1,0,0:0:0:0:
352,240,56381,1,8,0:0:0:0:
192,208,56447,1,0,0:0:0:0:
128,192,56512,1,8,0:0:0:0:
288,160,56642,1,8,0:0:0:0:
240,176,56707,1,0,0:0:0:0:
240,176,56773,1,8,0:0:0:0:
352,224,57164,1,12,0:0:0:0:
256,144,57686,1,4,0:0:0:0:
96,128,58207,1,12,0:0:0:0:
240,160,58729,1,4,0:0:0:0:
80,128,59251,1,8,0:0:0:0:
80,128,59316,1,8,0:0:0:0:
80,128,59381,1,8,0:0:0:0:
272,192,59512,1,4,0:0:0:0:
208,112,59773,1,4,0:0:0:0:
128,192,60034,1,8,0:0:0:0:
208,176,60099,1,8,0:0:0:0:
64,144,60164,1,0,0:0:0:0:
352,160,60294,1,8,0:0:0:0:
320,128,60360,1,0,0:0:0:0:
288,112,60425,1,0,0:0:0:0:
240,128,60490,1,0,0:0:0:0:
176,112,60555,1,8,0:0:0:0:
160,112,60620,1,0,0:0:0:0:
64,144,60686,1,0,0:0:0:0:
112,160,60751,1,0,0:0:0:0:
240,160,60816,1,8,0:0:0:0:
176,128,60881,1,8,0:0:0:0:
176,128,60947,1,0,0:0:0:0:
160,96,61012,1,8,0:0:0:0:
128,96,61077,1,0,0:0:0:0:
192,176,61142,1,0,0:0:0:0:
128,160,61207,1,0,0:0:0:0:
368,64,61599,1,0,0:0:0:0:
288,48,61664,1,0,0:0:0:0:
192,48,61729,1,0,0:0:0:0:
160,144,61860,1,0,0:0:0:0:
208,192,61925,1,0,0:0:0:0:
128,208,61990,1,0,0:0:0:0:
208,112,62120,1,0,0:0:0:0:
16,64,62186,1,0,0:0:0:0:
96,96,62251,1,0,0:0:0:0:
336,144,62381,1,8,0:0:0:0:
304,112,62447,1,0,0:0:0:0:
256,96,62512,1,8,0:0:0:0:
224,96,62577,1,0,0:0:0:0:
176,64,62642,1,8,0:0:0:0:
144,64,62707,1,8,0:0:0:0:
144,128,62773,1,0,0:0:0:0:
96,112,62838,1,8,0:0:0:0:
144,144,62903,1,0,0:0:0:0:
176,128,62968,1,0,0:0:0:0:
176,128,63034,1,8,0:0:0:0:
176,128,63099,1,0,0:0:0:0:
160,128,63164,1,8,0:0:0:0:
160,128,63229,1,8,0:0:0:0:
160,128,63294,1,0,0:0:0:0:
160,128,63360,1,8,0:0:0:0:
160,128,63425,1,0,0:0:0:0:
48,176,63490,1,0,0:0:0:0:
128,192,63555,1,0,0:0:0:0:
336,128,63686,1,8,0:0:0:0:
256,192,63751,1,0,0:0:0:0:
192,144,63816,1,0,0:0:0:0:
256,112,63947,1,8,0:0:0:0:
160,112,64012,1,8,0:0:0:0:
160,112,64077,1,8,0:0:0:0:
128,176,64207,1,0,0:0:0:0:
288,224,64273,1,0,0:0:0:0:
192,192,64338,1,0,0:0:0:0:
176,192,64403,1,0,0:0:0:0:
176,192,64468,1,8,0:0:0:0:
176,192,64534,1,8,0:0:0:0:
160,192,64599,1,8,0:0:0:0:
272,80,64729,1,8,0:0:0:0:
192,80,64794,1,0,0:0:0:0:
176,80,64860,1,0,0:0:0:0:
112,80,64925,1,0,0:0:0:0:
112,80,64990,1,8,0:0:0:0:
112,80,65055,1,8,0:0:0:0:
64,144,65120,1,0,0:0:0:0:
64,144,65186,1,0,0:0:0:0:
160,128,65251,1,8,0:0:0:0:
160,128,65316,1,8,0:0:0:0:
256,160,65381,1,0,0:0:0:0:
240,128,65447,1,8,0:0:0:0:
240,112,65512,1,8,0:0:0:0:
176,192,65642,1,0,0:0:0:0:
64,208,65773,1,0,0:0:0:0:
160,128,65903,1,8,0:0:0:0:
160,112,66034,1,0,0:0:0:0:
80,80,66164,1,8,0:0:0:0:
192,64,66294,1,8,0:0:0:0:
288,192,66425,1,0,0:0:0:0:
272,128,66555,1,8,0:0:0:0:
272,80,66620,1,8,0:0:0:0:
160,128,66686,1,8,0:0:0:0:
64,160,66751,1,0,0:0:0:0:
144,192,66816,1,8,0:0:0:0:
144,192,66947,1,0,0:0:0:0:
64,96,67077,1,8,0:0:0:0:
80,80,67142,1,8,0:0:0:0:
80,80,67207,1,8,0:0:0:0:
80,80,67273,1,0,0:0:0:0:
80,96,67338,1,8,0:0:0:0:
320,240,67468,1,0,0:0:0:0:
256,144,67599,1,8,0:0:0:0:
192,128,67664,1,0,0:0:0:0:
176,128,67729,1,8,0:0:0:0:
272,96,67860,1,12,0:0:0:0:
192,64,67990,1,0,0:0:0:0:
112,64,68120,1,12,0:0:0:0:
112,64,68251,1,0,0:0:0:0:
192,176,68381,1,8,0:0:0:0:
240,160,68447,1,8,0:0:0:0:
192,160,68512,1,0,0:0:0:0:
352,144,68642,1,0,0:0:0:0:
80,128,68707,1,8,0:0:0:0:
112,112,68773,1,8,0:0:0:0:
112,112,68838,1,8,0:0:0:0:
160,128,68903,1,0,0:0:0:0:
192,112,68968,1,8,0:0:0:0:
192,112,69034,1,0,0:0:0:0:
192,112,69099,1,0,0:0:0:0:
176,112,69164,1,8,0:0:0:0:
160,176,69229,1,8,0:0:0:0:
240,144,69294,1,0,0:0:0:0:
192,128,69360,1,0,0:0:0:0:
272,128,69425,1,8,0:0:0:0:
320,240,69490,1,8,0:0:0:0:
208,192,69555,1,0,0:0:0:0:
128,160,69686,1,8,0:0:0:0:
128,160,69751,1,0,0:0:0:0:
128,160,69816,1,0,0:0:0:0:
128,160,69947,1,8,0:0:0:0:
128,160,70012,1,0,0:0:0:0:
128,160,70077,1,0,0:0:0:0:
208,128,70207,1,8,0:0:0:0:
160,80,70273,1,0,0:0:0:0:
240,240,70338,1,0,0:0:0:0:
288,112,70468,1,8,0:0:0:0:
256,48,70534,1,0,0:0:0:0:
208,64,70599,1,0,0:0:0:0:
336,160,70729,1,0,0:0:0:0:
336,80,70794,1,0,0:0:0:0:
304,64,70860,1,8,0:0:0:0:
240,80,70925,1,8,0:0:0:0:
160,96,70990,1,0,0:0:0:0:
160,96,71055,1,8,0:0:0:0:
224,128,71120,1,0,0:0:0:0:
224,128,71186,1,8,0:0:0:0:
192,128,71251,1,0,0:0:0:0:
192,128,71316,1,8,0:0:0:0:
80,144,71381,1,0,0:0:0:0:
80,80,71447,1,0,0:0:0:0:
80,80,71512,1,8,0:0:0:0:
256,160,71577,1,0,0:0:0:0:
320,192,71642,1,8,0:0:0:0:
320,112,71707,1,8,0:0:0:0:
160,128,71773,1,0,0:0:0:0:
48,176,71838,1,0,0:0:0:0:
128,192,71903,1,0,0:0:0:0:
336,128,72034,1,8,0:0:0:0:
256,192,72099,1,0,0:0:0:0:
192,144,72164,1,0,0:0:0:0:
256,112,72294,1,8,0:0:0:0:
160,112,72360,1,8,0:0:0:0:
160,112,72425,1,8,0:0:0:0:
128,176,72555,1,0,0:0:0:0:
288,224,72620,1,0,0:0:0:0:
192,192,72686,1,0,0:0:0:0:
176,192,72751,1,0,0:0:0:0:
176,192,72816,1,8,0:0:0:0:
176,192,72881,1,8,0:0:0:0:
160,192,72947,1,8,0:0:0:0:
224,112,73077,1,8,0:0:0:0:
160,80,73142,1,0,0:0:0:0:
128,96,73207,1,0,0:0:0:0:
112,96,73273,1,0,0:0:0:0:
112,96,73338,1,8,0:0:0:0:
96,112,73403,1,8,0:0:0:0:
96,112,73468,1,0,0:0:0:0:
96,112,73534,1,0,0:0:0:0:
96,112,73599,1,8,0:0:0:0:
256,224,73729,1,0,0:0:0:0:
304,160,73860,1,8,0:0:0:0:
256,64,73925,1,0,0:0:0:0:
176,80,73990,1,8,0:0:0:0:
176,32,74055,1,0,0:0:0:0:
160,192,74120,1,8,0:0:0:0:
160,144,74186,1,8,0:0:0:0:
224,144,74251,1,0,0:0:0:0:
208,112,74316,1,8,0:0:0:0:
208,112,74381,1,8,0:0:0:0:
208,112,74447,1,8,0:0:0:0:
208,112,74512,1,0,0:0:0:0:
208,112,74577,1,0,0:0:0:0:
80,128,74642,1,8,0:0:0:0:
96,96,74707,1,8,0:0:0:0:
112,96,74773,1,8,0:0:0:0:
144,96,74838,1,8,0:0:0:0:
160,160,74903,1,0,0:0:0:0:
304,144,74968,1,8,0:0:0:0:
272,96,75034,1,0,0:0:0:0:
256,80,75099,1,8,0:0:0:0:
208,64,75164,1,0,0:0:0:0:
176,64,75229,1,8,0:0:0:0:
176,64,75294,1,8,0:0:0:0:
160,64,75360,1,0,0:0:0:0:
160,64,75425,1,8,0:0:0:0:
160,64,75490,1,8,0:0:0:0:
160,80,75555,1,0,0:0:0:0:
160,80,75620,1,0,0:0:0:0:
160,80,75686,1,8,0:0:0:0:
160,80,75751,1,8,0:0:0:0:
160,80,75816,1,8,0:0:0:0:
160,80,75881,1,8,0:0:0:0:
160,80,75947,1,0,0:0:0:0:
224,160,76247,1,8,0:0:0:0:
240,128,76547,1,0,0:0:0:0:
304,256,76697,1,8,0:0:0:0:
320,144,76847,1,8,0:0:0:0:
192,192,76997,1,8,0:0:0:0:
384,256,77147,1,0,0:0:0:0:
288,208,77447,1,8,0:0:0:0:
192,144,77747,1,0,0:0:0:0:
320,128,78047,1,0,0:0:0:0:
336,256,78347,1,8,0:0:0:0:
224,176,78647,1,8,0:0:0:0:
192,128,78947,1,0,0:0:0:0:
320,224,79247,1,8,0:0:0:0:
192,80,79547,1,0,0:0:0:0:
208,112,79847,1,0,0:0:0:0:
288,208,80147,1,0,0:0:0:0:
304,112,80247,1,0,0:0:0:0:
272,64,80347,1,0,0:0:0:0:
272,64,80447,1,8,0:0:0:0:
256,64,80547,1,8,0:0:0:0:
176,80,80647,1,8,0:0:0:0:
192,144,80747,1,0,0:0:0:0:
304,160,81047,1,8,0:0:0:0:
112,112,81347,1,0,0:0:0:0:
240,176,81647,1,0,0:0:0:0:
208,144,81947,1,8,0:0:0:0:
160,80,82097,1,8,0:0:0:0:
288,96,82247,1,0,0:0:0:0:
256,64,82347,1,0,0:0:0:0:
192,64,82447,1,8,0:0:0:0:
192,64,82547,1,0,0:0:0:0:
192,64,82647,1,0,0:0:0:0:
192,64,82747,1,8,0:0:0:0:
192,80,82847,1,0,0:0:0:0:
192,80,82947,1,0,0:0:0:0:
176,80,83047,1,8,0:0:0:0:
176,64,83147,1,0,0:0:0:0:
144,160,83447,1,8,0:0:0:0:
272,176,83747,1,8,0:0:0:0:
256,176,84047,1,8,0:0:0:0:
304,96,84147,1,0,0:0:0:0:
192,96,84247,1,8,0:0:0:0:
176,96,84347,1,8,0:0:0:0:
320,176,84647,1,8,0:0:0:0:
176,192,84747,1,0,0:0:0:0:
144,144,84847,1,0,0:0:0:0:
112,144,84947,1,8,0:0:0:0:
288,128,85147,1,8,0:0:0:0:
208,80,85247,1,0,0:0:0:0:
176,64,85347,1,0,0:0:0:0:
64,80,85447,1,0,0:0:0:0:
80,80,85547,1,4,0:0:0:0:
176,176,86068,1,8,0:0:0:0:
176,160,87112,1,8,0:0:0:0:
256,240,88155,1,8,0:0:0:0:
384,256,88677,1,8,0:0:0:0:
256,160,88938,1,0,0:0:0:0:
352,144,89003,1,0,0:0:0:0:
272,128,89068,1,0,0:0:0:0:
224,112,89133,1,0,0:0:0:0:
128,144,89199,1,8,0:0:0:0:
256,240,89460,1,0,0:0:0:0:
176,224,89720,1,4,0:0:0:0:
208,128,89981,1,0,0:0:0:0:
128,96,90242,1,12,0:0:0:0:
272,128,90503,1,0,0:0:0:0:
256,64,90633,1,0,0:0:0:0:
192,80,90894,1,0,0:0:0:0:
192,112,91025,1,0,0:0:0:0:
256,208,91286,1,12,0:0:0:0:
432,144,91547,1,0,0:0:0:0:
288,176,91807,1,8,0:0:0:0:
160,144,91938,1,8,0:0:0:0:
240,96,92068,1,0,0:0:0:0:
176,96,92199,1,0,0:0:0:0:
112,80,92329,1,12,0:0:0:0:
112,80,92460,1,8,0:0:0:0:
112,80,92590,1,0,0:0:0:0:
112,96,92720,1,0,0:0:0:0:
272,240,92851,1,8,0:0:0:0:
160,144,93112,1,0,0:0:0:0:
304,176,93242,1,0,0:0:0:0:
176,128,93373,1,8,0:0:0:0:
224,96,93438,1,0,0:0:0:0:
192,64,93503,1,0,0:0:0:0:
128,96,93568,1,0,0:0:0:0:
128,96,93633,1,8,0:0:0:0:
128,96,93699,1,0,0:0:0:0:
128,96,93764,1,8,0:0:0:0:
128,96,93829,1,8,0:0:0:0:
112,112,93894,1,0,0:0:0:0:
288,208,94155,1,0,0:0:0:0:
208,128,94416,1,12,0:0:0:0:
208,192,94677,1,0,0:0:0:0:
160,112,94764,1,0,0:0:0:0:
128,112,94851,1,0,0:0:0:0:
112,112,94938,1,0,0:0:0:0:
304,224,95199,1,0,0:0:0:0:
240,144,95460,1,12,0:0:0:0:
160,192,95720,1,0,0:0:0:0:
304,240,96242,1,0,0:0:0:0:
272,160,96503,1,12,0:0:0:0:
80,176,96764,1,0,0:0:0:0:
176,64,97025,1,8,0:0:0:0:
240,80,97112,1,0,0:0:0:0:
208,128,97199,1,0,0:0:0:0:
336,160,97286,1,8,0:0:0:0:
240,176,97373,1,0,0:0:0:0:
144,192,97460,1,0,0:0:0:0:
208,256,97547,1,8,0:0:0:0:
304,224,97807,1,0,0:0:0:0:
176,96,98068,1,0,0:0:0:0:
336,176,98199,1,0,0:0:0:0:
272,96,98329,1,8,0:0:0:0:
256,96,98394,1,0,0:0:0:0:
240,96,98460,1,0,0:0:0:0:
160,192,98525,1,0,0:0:0:0:
176,144,98590,1,0,0:0:0:0:
112,96,98720,1,8,0:0:0:0:
272,240,98851,1,0,0:0:0:0:
208,208,98981,1,0,0:0:0:0:
336,208,99112,1,0,0:0:0:0:
256,160,99242,1,8,0:0:0:0:
96,144,99373,1,8,0:0:0:0:
160,192,99438,1,8,0:0:0:0:
224,176,99503,1,0,0:0:0:0:
160,112,99633,1,0,0:0:0:0:
256,112,99764,1,8,0:0:0:0:
80,208,99894,1,0,0:0:0:0:
256,240,100025,1,8,0:0:0:0:
304,208,100155,1,8,0:0:0:0:
176,144,100286,1,0,0:0:0:0:
320,208,100351,1,0,0:0:0:0:
112,96,100416,1,0,0:0:0:0:
208,96,100547,1,8,0:0:0:0:
224,192,100677,1,0,0:0:0:0:
112,160,100807,1,0,0:0:0:0:
320,288,100938,1,8,0:0:0:0:
128,192,101068,1,0,0:0:0:0:
256,224,101199,1,8,0:0:0:0:
224,160,101264,1,8,0:0:0:0:
128,144,101329,1,0,0:0:0:0:
128,128,101460,1,0,0:0:0:0:
128,128,101590,1,8,0:0:0:0:
272,96,101720,1,12,0:0:0:0:
224,192,101851,1,0,0:0:0:0:
96,128,101981,1,12,0:0:0:0:
176,112,102242,1,8,0:0:0:0:
192,64,102307,1,8,0:0:0:0:
160,64,102373,1,8,0:0:0:0:
160,64,102438,1,8,0:0:0:0:
288,112,102503,1,0,0:0:0:0:
256,80,102568,1,8,0:0:0:0:
224,80,102633,1,0,0:0:0:0:
192,144,102699,1,8,0:0:0:0:
96,144,102764,1,0,0:0:0:0:
208,224,102829,1,0,0:0:0:0:
208,176,102894,1,0,0:0:0:0:
160,176,102960,1,0,0:0:0:0:
288,176,103025,1,8,0:0:0:0:
256,160,103090,1,8,0:0:0:0:
336,208,103155,1,0,0:0:0:0:
336,160,103220,1,8,0:0:0:0:
272,96,103286,1,0,0:0:0:0:
224,96,103351,1,8,0:0:0:0:
192,80,103416,1,8,0:0:0:0:
160,80,103481,1,8,0:0:0:0:
96,96,103547,1,0,0:0:0:0:
192,64,103612,1,8,0:0:0:0:
112,176,103677,1,8,0:0:0:0:
192,160,103742,1,8,0:0:0:0:
224,128,103807,1,0,0:0:0:0:
240,128,103873,1,0,0:0:0:0:
224,128,103938,1,0,0:0:0:0:
208,112,104003,1,0,0:0:0:0:
208,112,104068,1,8,0:0:0:0:
208,112,104133,1,8,0:0:0:0:
192,112,104199,1,0,0:0:0:0:
192,112,104264,1,8,0:0:0:0:
192,128,104329,1,0,0:0:0:0:
192,160,104590,1,0,0:0:0:0:
32,160,104655,1,0,0:0:0:0:
160,192,104720,1,8,0:0:0:0:
240,192,104786,1,8,0:0:0:0:
240,240,104851,1,0,0:0:0:0:
80,160,104916,1,0,0:0:0:0:
80,160,104981,1,0,0:0:0:0:
80,176,105047,1,0,0:0:0:0:
272,128,105112,1,8,0:0:0:0:
352,144,105373,1,0,0:0:0:0:
352,144,105438,1,0,0:0:0:0:
144,80,105503,1,0,0:0:0:0:
144,80,105568,1,0,0:0:0:0:
208,64,105633,1,8,0:0:0:0:
128,96,105764,1,0,0:0:0:0:
240,176,105894,1,8,0:0:0:0:
64,112,105960,1,8,0:0:0:0:
320,128,106025,1,0,0:0:0:0:
208,96,106090,1,0,0:0:0:0:
176,176,106155,1,8,0:0:0:0:
112,176,106286,1,0,0:0:0:0:
272,224,106416,1,0,0:0:0:0:
256,160,106481,1,8,0:0:0:0:
208,144,106547,1,0,0:0:0:0:
176,128,106612,1,8,0:0:0:0:
128,128,106677,1,0,0:0:0:0:
128,128,106742,1,0,0:0:0:0:
96,112,106807,1,8,0:0:0:0:
128,96,106873,1,0,0:0:0:0:
208,96,106938,1,8,0:0:0:0:
320,208,107003,1,8,0:0:0:0:
320,96,107068,1,0,0:0:0:0:
64,80,107133,1,0,0:0:0:0:
144,160,107199,1,8,0:0:0:0:
240,160,107264,1,8,0:0:0:0:
192,96,107329,1,0,0:0:0:0:
176,96,107394,1,8,0:0:0:0:
160,112,107460,1,0,0:0:0:0:
144,64,107525,1,8,0:0:0:0:
144,64,107590,1,8,0:0:0:0:
144,64,107655,1,8,0:0:0:0:
144,80,107720,1,0,0:0:0:0:
208,128,107786,1,0,0:0:0:0:
320,176,107851,1,0,0:0:0:0:
256,96,107916,1,0,0:0:0:0:
272,96,107981,1,8,0:0:0:0:
240,80,108047,1,8,0:0:0:0:
224,80,108112,1,8,0:0:0:0:
224,80,108177,1,8,0:0:0:0:
224,80,108242,1,0,0:0:0:0:
208,80,108307,1,0,0:0:0:0:
192,96,108373,1,0,0:0:0:0:
192,144,108438,1,0,0:0:0:0:
128,128,108503,1,8,0:0:0:0:
112,128,108568,1,0,0:0:0:0:
80,128,108633,1,8,0:0:0:0:
128,64,108699,1,0,0:0:0:0:
128,64,108764,1,8,0:0:0:0:
128,64,108829,1,8,0:0:0:0:
128,64,108894,1,0,0:0:0:0:
128,64,108960,1,0,0:0:0:0:
128,80,109025,1,8,0:0:0:0:
240,128,109286,1,0,0:0:0:0:
224,96,109351,1,0,0:0:0:0:
160,112,109416,1,8,0:0:0:0:
160,112,109481,1,8,0:0:0:0:
160,128,109547,1,0,0:0:0:0:
304,64,109938,1,4,0:0:0:0:
272,224,110329,1,12,0:0:0:0:
160,112,110851,1,0,0:0:0:0:
80,128,110916,1,0,0:0:0:0:
80,128,110981,1,0,0:0:0:0:
80,128,111047,1,0,0:0:0:0:
80,144,111112,1,8,0:0:0:0:
224,64,111373,1,0,0:0:0:0:
96,64,111503,1,8,0:0:0:0:
192,192,111634,1,0,0:0:0:0:
160,96,111764,1,0,0:0:0:0:
128,144,111894,1,0,0:0:0:0:
368,144,112025,1,0,0:0:0:0:
256,176,112155,1,8,0:0:0:0:
288,96,112286,1,0,0:0:0:0:
160,80,112416,1,0,0:0:0:0:
304,256,112547,1,0,0:0:0:0:
224,128,112938,1,8,0:0:0:0:
144,128,113003,1,0,0:0:0:0:
128,128,113068,1,0,0:0:0:0:
128,128,113134,1,0,0:0:0:0:
128,128,113199,1,8,0:0:0:0:
64,112,113329,1,8,0:0:0:0:
272,80,113460,1,0,0:0:0:0:
256,80,113590,1,0,0:0:0:0:
240,192,113720,1,8,0:0:0:0:
144,176,113851,1,0,0:0:0:0:
384,176,113981,1,0,0:0:0:0:
192,160,114112,1,0,0:0:0:0:
256,144,114242,1,8,0:0:0:0:
272,240,114373,1,0,0:0:0:0:
192,144,114503,1,0,0:0:0:0:
112,160,114634,1,0,0:0:0:0:
368,272,114894,1,8,0:0:0:0:
304,160,115025,1,0,0:0:0:0:
160,64,115090,1,0,0:0:0:0:
160,64,115155,1,0,0:0:0:0:
128,96,115220,1,0,0:0:0:0:
128,176,115286,1,8,0:0:0:0:
240,192,115416,1,0,0:0:0:0:
208,192,115547,1,0,0:0:0:0:
80,128,115677,1,0,0:0:0:0:
288,160,115807,1,8,0:0:0:0:
176,192,115938,1,0,0:0:0:0:
288,128,116068,1,8,0:0:0:0:
272,112,116199,1,0,0:0:0:0:
208,176,116329,1,8,0:0:0:0:
160,80,116460,1,8,0:0:0:0:
96,64,116590,1,0,0:0:0:0:
96,64,116720,1,0,0:0:0:0:
192,80,116851,1,8,0:0:0:0:
192,80,116981,1,8,0:0:0:0:
192,80,117112,1,0,0:0:0:0:
288,224,117177,1,0,0:0:0:0:
192,80,117242,1,0,0:0:0:0:
208,128,117307,1,0,0:0:0:0:
208,128,117373,1,8,0:0:0:0:
208,112,117503,1,8,0:0:0:0:
208,112,117634,1,0,0:0:0:0:
224,112,117764,1,8,0:0:0:0:
128,96,117894,1,0,0:0:0:0:
288,128,118025,1,0,0:0:0:0:
176,96,118155,1,0,0:0:0:0:
96,176,118286,1,0,0:0:0:0:
208,192,118416,1,8,0:0:0:0:
256,144,118547,1,0,0:0:0:0:
176,128,118677,1,0,0:0:0:0:
416,256,118807,1,0,0:0:0:0:
352,224,119068,1,8,0:0:0:0:
208,96,119199,1,0,0:0:0:0:
160,176,119264,1,0,0:0:0:0:
224,160,119329,1,0,0:0:0:0:
224,160,119394,1,0,0:0:0:0:
208,160,119460,1,8,0:0:0:0:
288,64,119720,1,0,0:0:0:0:
128,80,119851,1,8,0:0:0:0:
256,128,119981,1,0,0:0:0:0:
176,112,120112,1,0,0:0:0:0:
176,112,120242,1,0,0:0:0:0:
208,208,120373,1,0,0:0:0:0:
80,128,120503,1,8,0:0:0:0:
240,144,120634,1,0,0:0:0:0:
272,144,120764,1,0,0:0:0:0:
288,80,120894,1,0,0:0:0:0:
144,128,121286,1,8,0:0:0:0:
128,112,121351,1,8,0:0:0:0:
112,112,121416,1,0,0:0:0:0:
96,128,121481,1,0,0:0:0:0:
96,128,121547,1,8,0:0:0:0:
304,128,121807,1,8,0:0:0:0:
240,80,121938,1,8,0:0:0:0:
224,192,122068,1,0,0:0:0:0:
160,160,122199,1,0,0:0:0:0:
144,128,122329,1,0,0:0:0:0:
144,112,122460,1,0,0:0:0:0:
320,160,122590,1,8,0:0:0:0:
256,144,122720,1,0,0:0:0:0:
208,64,122851,1,0,0:0:0:0:
112,64,122981,1,0,0:0:0:0:
144,176,123242,1,8,0:0:0:0:
256,208,123373,1,0,0:0:0:0:
208,144,123438,1,0,0:0:0:0:
128,112,123503,1,0,0:0:0:0:
128,96,123568,1,0,0:0:0:0:
112,96,123634,1,8,0:0:0:0:
352,192,123894,1,8,0:0:0:0:
288,144,124025,1,8,0:0:0:0:
192,112,124155,1,0,0:0:0:0:
192,96,124286,1,0,0:0:0:0:
128,96,124416,1,0,0:0:0:0:
176,64,124547,1,0,0:0:0:0:
256,224,124677,1,8,0:0:0:0:
336,192,124807,1,0,0:0:0:0:
144,160,124938,1,8,0:0:0:0:
208,144,125068,1,8,0:0:0:0:
176,144,125199,1,0,0:0:0:0:
256,96,125329,1,8,0:0:0:0:
352,144,125460,1,8,0:0:0:0:
112,64,125525,1,8,0:0:0:0:
112,64,125590,1,8,0:0:0:0:
112,64,125655,1,8,0:0:0:0:
112,64,125720,1,0,0:0:0:0:
80,160,125981,1,4,0:0:0:0:
272,144,126112,1,8,0:0:0:0:
176,112,126242,1,8,0:0:0:0:
144,112,126373,1,0,0:0:0:0:
144,96,126503,1,8,0:0:0:0:
224,112,126764,1,8,0:0:0:0:
144,144,126829,1,0,0:0:0:0:
144,144,126894,1,8,0:0:0:0:
192,176,127025,1,0,0:0:0:0:
288,208,127090,1,0,0:0:0:0:
288,208,127155,1,0,0:0:0:0:
64,144,127547,1,0,0:0:0:0:
64,160,127612,1,0,0:0:0:0:
96,160,127677,1,0,0:0:0:0:
256,224,127807,1,8,0:0:0:0:
288,160,127873,1,0,0:0:0:0:
192,160,127938,1,0,0:0:0:0:
176,112,128068,1,8,0:0:0:0:
176,112,128134,1,0,0:0:0:0:
304,112,128199,1,0,0:0:0:0:
352,224,128329,1,8,0:0:0:0:
256,128,128394,1,8,0:0:0:0:
256,128,128460,1,8,0:0:0:0:
176,192,128590,1,8,0:0:0:0:
160,176,128655,1,0,0:0:0:0:
112,144,128720,1,0,0:0:0:0:
144,96,128851,1,8,0:0:0:0:
128,80,128916,1,8,0:0:0:0:
96,80,128981,1,0,0:0:0:0:
192,128,129112,1,0,0:0:0:0:
288,208,129177,1,0,0:0:0:0:
208,192,129242,1,8,0:0:0:0:
320,144,129373,1,8,0:0:0:0:
192,112,129634,1,8,0:0:0:0:
144,96,129699,1,0,0:0:0:0:
64,176,129764,1,0,0:0:0:0:
176,176,129894,1,8,0:0:0:0:
256,208,129960,1,0,0:0:0:0:
192,224,130025,1,0,0:0:0:0:
384,224,130155,1,0,0:0:0:0:
336,192,130220,1,0,0:0:0:0:
192,160,130286,1,8,0:0:0:0:
192,160,130351,1,8,0:0:0:0:
192,160,130416,1,0,0:0:0:0:
176,112,130481,1,0,0:0:0:0:
128,112,130547,1,0,0:0:0:0:
96,112,130677,1,0,0:0:0:0:
96,112,130742,1,0,0:0:0:0:
96,128,130807,1,0,0:0:0:0:
304,240,130938,1,8,0:0:0:0:
320,192,131199,1,8,0:0:0:0:
224,192,131264,1,0,0:0:0:0:
128,208,131329,1,0,0:0:0:0:
144,208,131460,1,8,0:0:0:0:
192,112,131720,1,8,0:0:0:0:
128,96,131786,1,0,0:0:0:0:
96,128,131851,1,0,0:0:0:0:
240,176,131981,1,8,0:0:0:0:
176,192,132047,1,0,0:0:0:0:
160,240,132112,1,0,0:0:0:0:
320,144,132242,1,8,0:0:0:0:
272,80,132307,1,0,0:0:0:0:
192,80,132373,1,0,0:0:0:0:
320,224,132503,1,8,0:0:0:0:
240,192,132568,1,8,0:0:0:0:
112,176,132634,1,0,0:0:0:0:
96,112,132764,1,8,0:0:0:0:
80,112,132829,1,8,0:0:0:0:
80,128,132894,1,0,0:0:0:0:
288,112,133025,1,0,0:0:0:0:
192,144,133090,1,0,0:0:0:0:
192,160,133155,1,0,0:0:0:0:
288,208,133286,1,0,0:0:0:0:
224,96,133351,1,8,0:0:0:0:
160,64,133416,1,8,0:0:0:0:
80,64,133481,1,8,0:0:0:0:
128,192,133547,1,0,0:0:0:0:
192,160,133807,1,0,0:0:0:0:
160,160,133873,1,0,0:0:0:0:
64,160,133938,1,0,0:0:0:0:
304,144,134068,1,0,0:0:0:0:
256,96,134134,1,0,0:0:0:0:
176,96,134199,1,8,0:0:0:0:
288,240,134329,1,0,0:0:0:0:
160,240,134394,1,0,0:0:0:0:
128,240,134460,1,8,0:0:0:0:
64,144,134525,1,8,0:0:0:0:
96,96,134590,1,0,0:0:0:0:
336,208,134655,1,0,0:0:0:0:
240,144,134720,1,0,0:0:0:0:
336,288,134851,1,0,0:0:0:0:
192,192,134916,1,0,0:0:0:0:
176,192,134981,1,0,0:0:0:0:
288,208,135112,1,8,0:0:0:0:
240,192,135373,1,8,0:0:0:0:
240,192,135438,1,0,0:0:0:0:
224,192,135503,1,0,0:0:0:0:
352,272,135634,1,8,0:0:0:0:
336,144,135894,1,8,0:0:0:0:
160,96,135960,1,8,0:0:0:0:
96,80,136025,1,8,0:0:0:0:
96,176,136090,1,8,0:0:0:0:
144,176,136155,1,0,0:0:0:0:
240,192,136220,1,0,0:0:0:0:
240,176,136286,1,0,0:0:0:0:
224,160,136351,1,0,0:0:0:0:
192,144,136416,1,8,0:0:0:0:
224,80,136481,1,0,0:0:0:0:
176,64,136547,1,8,0:0:0:0:
288,112,136612,1,0,0:0:0:0:
288,80,136677,1,8,0:0:0:0:
64,96,136742,1,8,0:0:0:0:
96,64,136807,1,8,0:0:0:0:
128,176,136873,1,8,0:0:0:0:
256,208,136938,1,0,0:0:0:0:
224,160,137003,1,0,0:0:0:0:
208,160,137068,1,0,0:0:0:0:
176,128,137134,1,0,0:0:0:0:
304,144,137199,1,8,0:0:0:0:
208,64,137264,1,8,0:0:0:0:
368,224,137329,1,8,0:0:0:0:
336,192,137394,1,8,0:0:0:0:
304,208,137460,1,0,0:0:0:0:
272,208,137525,1,0,0:0:0:0:
272,208,137590,1,8,0:0:0:0:
224,224,137655,1,0,0:0:0:0:
128,160,137721,1,8,0:0:0:0:
288,128,137981,1,0,0:0:0:0:
208,64,138047,1,0,0:0:0:0:
144,80,138112,1,0,0:0:0:0:
176,144,138242,1,0,0:0:0:0:
32,128,138307,1,0,0:0:0:0:
64,176,138373,1,0,0:0:0:0:
128,176,138503,1,0,0:0:0:0:
112,160,138568,1,0,0:0:0:0:
112,160,138634,1,0,0:0:0:0:
112,160,138764,1,8,0:0:0:0:
112,160,138829,1,8,0:0:0:0:
112,160,138894,1,0,0:0:0:0:
176,144,139025,1,8,0:0:0:0:
192,96,139090,1,8,0:0:0:0:
112,80,139155,1,8,0:0:0:0:
320,240,139286,1,0,0:0:0:0:
272,112,139547,1,8,0:0:0:0:
176,144,139612,1,0,0:0:0:0:
160,128,139677,1,0,0:0:0:0:
208,176,139807,1,8,0:0:0:0:
320,192,140068,1,0,0:0:0:0:
304,160,140134,1,0,0:0:0:0:
240,144,140199,1,0,0:0:0:0:
144,96,140329,1,8,0:0:0:0:
112,128,140394,1,0,0:0:0:0:
112,144,140460,1,0,0:0:0:0:
96,144,140590,1,8,0:0:0:0:
144,192,140655,1,0,0:0:0:0:
224,240,140721,1,0,0:0:0:0:
256,176,140851,1,8,0:0:0:0:
208,80,140916,1,8,0:0:0:0:
208,128,140981,1,0,0:0:0:0:
96,96,141112,1,8,0:0:0:0:
144,128,141177,1,0,0:0:0:0:
128,144,141242,1,0,0:0:0:0:
288,192,141373,1,0,0:0:0:0:
192,224,141438,1,0,0:0:0:0:
64,208,141503,1,8,0:0:0:0:
352,256,141634,1,8,0:0:0:0:
304,240,141699,1,8,0:0:0:0:
240,240,141764,1,0,0:0:0:0:
336,240,141894,1,8,0:0:0:0:
272,144,142155,1,0,0:0:0:0:
144,128,142221,1,8,0:0:0:0:
224,208,142286,1,0,0:0:0:0:
160,176,142416,1,8,0:0:0:0:
64,96,142481,1,0,0:0:0:0:
96,80,142547,1,8,0:0:0:0:
176,64,142677,1,0,0:0:0:0:
144,48,142742,1,8,0:0:0:0:
144,64,142807,1,0,0:0:0:0:
288,160,143199,1,8,0:0:0:0:
224,160,143264,1,8,0:0:0:0:
192,176,143329,1,8,0:0:0:0:
336,240,143721,1,0,0:0:0:0:
240,208,143786,1,0,0:0:0:0:
224,224,143851,1,0,0:0:0:0:
224,96,144242,1,8,0:0:0:0:
128,64,144307,1,8,0:0:0:0:
128,64,144373,1,8,0:0:0:0:
320,144,144438,1,8,0:0:0:0:
208,144,144503,1,0,0:0:0:0:
160,112,144568,1,0,0:0:0:0:
160,112,144634,1,8,0:0:0:0:
112,128,144699,1,0,0:0:0:0:
112,128,144764,1,8,0:0:0:0:
176,160,144829,1,8,0:0:0:0:
112,128,144894,1,0,0:0:0:0:
144,160,144960,1,8,0:0:0:0:
96,128,145025,1,0,0:0:0:0:
192,208,145155,1,0,0:0:0:0:
208,144,145286,1,12,0:0:0:0:
80,64,145416,1,0,0:0:0:0:
208,96,145547,1,12,0:0:0:0:
320,160,145677,1,0,0:0:0:0:
288,80,145807,1,12,0:0:0:0:
144,192,145938,1,0,0:0:0:0:
128,128,146068,1,8,0:0:0:0:
240,224,146134,1,8,0:0:0:0:
224,128,146199,1,8,0:0:0:0:
192,128,146264,1,8,0:0:0:0:
192,128,146329,1,0,0:0:0:0:
48,160,146394,1,8,0:0:0:0:
64,112,146460,1,0,0:0:0:0:
144,64,146590,1,8,0:0:0:0:
80,48,146655,1,0,0:0:0:0:
80,48,146721,1,8,0:0:0:0:
304,128,146851,1,0,0:0:0:0:
288,112,146916,1,0,0:0:0:0:
224,80,146981,1,8,0:0:0:0:
208,80,147047,1,8,0:0:0:0:
192,96,147112,1,0,0:0:0:0:
160,208,147177,1,0,0:0:0:0:
160,192,147242,1,0,0:0:0:0:
304,240,147373,1,8,0:0:0:0:
224,176,147438,1,0,0:0:0:0:
208,192,147503,1,0,0:0:0:0:
384,192,147634,1,8,0:0:0:0:
288,160,147699,1,8,0:0:0:0:
208,144,147764,1,8,0:0:0:0:
192,144,147829,1,8,0:0:0:0:
160,96,147894,1,4,0:0:0:0:
208,208,148025,1,4,0:0:0:0:
240,96,148416,1,0,0:0:0:0:
208,64,148481,1,8,0:0:0:0:
160,64,148547,1,8,0:0:0:0:
128,80,148612,1,0,0:0:0:0:
128,144,148677,1,8,0:0:0:0:
192,128,148742,1,8,0:0:0:0:
256,128,148807,1,0,0:0:0:0:
240,112,148873,1,0,0:0:0:0:
208,96,148938,1,8,0:0:0:0:
48,160,149068,1,0,0:0:0:0:
96,144,149199,1,8,0:0:0:0:
304,192,149329,1,0,0:0:0:0:
176,112,149460,1,12,0:0:0:0:
224,192,149590,1,0,0:0:0:0:
256,144,149721,1,12,0:0:0:0:
80,160,149851,1,0,0:0:0:0:
96,112,149981,1,12,0:0:0:0:
256,96,150112,1,0,0:0:0:0:
352,224,150242,1,8,0:0:0:0:
320,80,150307,1,8,0:0:0:0:
240,160,150373,1,8,0:0:0:0:
128,160,150503,1,0,0:0:0:0:
160,128,150568,1,8,0:0:0:0:
112,112,150634,1,0,0:0:0:0:
112,96,150764,1,8,0:0:0:0:
112,112,150829,1,0,0:0:0:0:
112,112,150894,1,8,0:0:0:0:
96,112,151025,1,0,0:0:0:0:
96,112,151090,1,0,0:0:0:0:
96,112,151155,1,8,0:0:0:0:
192,128,151221,1,8,0:0:0:0:
176,80,151286,1,0,0:0:0:0:
272,144,151351,1,8,0:0:0:0:
288,112,151416,1,8,0:0:0:0:
240,112,151481,1,8,0:0:0:0:
240,96,151547,1,0,0:0:0:0:
240,96,151612,1,8,0:0:0:0:
240,96,151677,1,0,0:0:0:0:
240,96,151742,1,8,0:0:0:0:
144,160,151807,1,0,0:0:0:0:
272,128,151873,1,0,0:0:0:0:
208,96,151938,1,0,0:0:0:0:
192,96,152003,1,0,0:0:0:0:
192,96,152068,1,8,0:0:0:0:
128,80,152134,1,8,0:0:0:0:
80,64,152199,1,8,0:0:0:0:
64,48,152264,1,8,0:0:0:0:
96,80,152329,1,0,0:0:0:0:
208,176,152394,1,8,0:0:0:0:
304,176,152460,1,0,0:0:0:0:
272,144,152590,1,0,0:0:0:0:
176,128,152655,1,0,0:0:0:0:
160,144,152721,1,0,0:0:0:0:
320,224,152851,1,0,0:0:0:0:
128,208,152916,1,0,0:0:0:0:
128,208,152981,1,0,0:0:0:0:
336,224,153112,1,0,0:0:0:0:
288,208,153242,1,0,0:0:0:0:
160,128,153373,1,12,0:0:0:0:
144,192,153503,1,0,0:0:0:0:
224,112,153634,1,8,0:0:0:0:
192,160,153764,1,8,0:0:0:0:
112,80,153894,1,0,0:0:0:0:
112,80,154025,1,8,0:0:0:0:
144,160,154155,1,0,0:0:0:0:
256,192,154221,1,0,0:0:0:0:
208,192,154286,1,0,0:0:0:0:
352,192,154416,1,8,0:0:0:0:
224,112,154547,1,8,0:0:0:0:
320,160,154677,1,8,0:0:0:0:
288,144,154742,1,0,0:0:0:0:
256,128,154807,1,0,0:0:0:0:
112,128,154938,1,8,0:0:0:0:
112,64,155003,1,8,0:0:0:0:
128,96,155068,1,0,0:0:0:0:
256,240,155199,1,0,0:0:0:0:
160,160,155329,1,0,0:0:0:0:
192,240,155460,1,12,0:0:0:0:
144,224,155590,1,0,0:0:0:0:
224,128,155721,1,8,0:0:0:0:
160,80,155851,1,0,0:0:0:0:
304,176,155981,1,8,0:0:0:0:
304,160,156047,1,0,0:0:0:0:
288,144,156112,1,0,0:0:0:0:
256,96,156242,1,8,0:0:0:0:
256,96,156307,1,0,0:0:0:0:
240,96,156373,1,0,0:0:0:0:
96,144,156503,1,8,0:0:0:0:
128,160,156568,1,8,0:0:0:0:
208,224,156634,1,0,0:0:0:0:
144,112,156764,1,8,0:0:0:0:
272,192,156829,1,8,0:0:0:0:
176,64,156894,1,0,0:0:0:0:
224,144,157025,1,0,0:0:0:0:
256,128,157090,1,0,0:0:0:0:
336,192,157155,1,0,0:0:0:0:
416,224,157286,1,8,0:0:0:0:
352,160,157416,1,0,0:0:0:0:
288,96,157547,1,12,0:0:0:0:
144,192,157677,1,0,0:0:0:0:
208,192,157807,1,8,0:0:0:0:
304,240,157938,1,0,0:0:0:0:
240,144,158068,1,8,0:0:0:0:
256,144,158199,1,8,0:0:0:0:
384,208,158329,1,8,0:0:0:0:
336,176,158394,1,8,0:0:0:0:
320,176,158460,1,0,0:0:0:0:
160,144,158590,1,0,0:0:0:0:
80,128,158721,1,0,0:0:0:0:
96,112,158851,1,0,0:0:0:0:
80,112,158916,1,0,0:0:0:0:
288,112,158981,1,0,0:0:0:0:
192,96,159112,1,0,0:0:0:0:
32,96,159177,1,0,0:0:0:0:
128,80,159242,1,0,0:0:0:0:
256,208,159373,1,0,0:0:0:0:
176,160,159438,1,0,0:0:0:0:
112,144,159503,1,8,0:0:0:0:
336,208,159634,1,0,0:0:0:0:
240,160,159764,1,0,0:0:0:0:
224,96,159894,1,0,0:0:0:0:
208,96,159960,1,0,0:0:0:0:
176,96,160025,1,8,0:0:0:0:
352,144,160155,1,0,0:0:0:0:
288,128,160286,1,0,0:0:0:0:
160,160,160416,1,8,0:0:0:0:
240,224,160481,1,0,0:0:0:0:
208,192,160547,1,8,0:0:0:0:
320,224,160612,1,8,0:0:0:0:
288,192,160677,1,0,0:0:0:0:
352,240,160742,1,0,0:0:0:0:
240,160,160807,1,0,0:0:0:0:
240,160,160873,1,0,0:0:0:0:
224,160,160938,1,8,0:0:0:0:
208,144,161003,1,8,0:0:0:0:
176,160,161068,1,0,0:0:0:0:
176,160,161134,1,0,0:0:0:0:
176,160,161199,1,8,0:0:0:0:
96,144,161329,1,0,0:0:0:0:
336,144,161460,1,8,0:0:0:0:
272,128,161525,1,8,0:0:0:0:
176,96,161590,1,8,0:0:0:0:
224,96,161721,1,0,0:0:0:0:
224,80,161786,1,0,0:0:0:0:
224,128,161851,1,0,0:0:0:0:
352,240,161981,1,8,0:0:0:0:
192,208,162047,1,0,0:0:0:0:
128,192,162112,1,8,0:0:0:0:
288,160,162242,1,8,0:0:0:0:
240,176,162307,1,0,0:0:0:0:
240,176,162373,1,8,0:0:0:0:
352,224,162764,1,12,0:0:0:0:
256,144,163286,1,4,0:0:0:0:
96,128,163808,1,12,0:0:0:0:
240,160,164329,1,4,0:0:0:0:
128,80,164851,1,8,0:0:0:0:
112,80,164916,1,8,0:0:0:0:
96,128,164981,1,0,0:0:0:0:
208,80,165047,1,8,0:0:0:0:
288,192,165112,1,0,0:0:0:0:
336,144,165373,1,4,0:0:0:0:
272,112,165634,1,12,0:0:0:0:
176,96,165894,1,8,0:0:0:0:
128,96,165960,1,0,0:0:0:0:
128,96,166025,1,8,0:0:0:0:
128,176,166155,1,4,0:0:0:0:
272,272,166416,1,4,0:0:0:0:
304,208,166612,1,8,0:0:0:0:
256,128,166677,1,8,0:0:0:0:
192,64,166742,1,8,0:0:0:0:
112,64,166808,1,0,0:0:0:0:
192,256,166873,1,0,0:0:0:0:
80,96,166938,1,12,0:0:0:0:
288,112,167068,1,12,0:0:0:0:
112,160,167199,1,8,0:0:0:0:
160,160,167264,1,8,0:0:0:0:
160,144,167329,1,0,0:0:0:0:
160,144,167394,1,0,0:0:0:0:
160,144,167460,1,8,0:0:0:0:
160,80,167590,1,8,0:0:0:0:
256,64,167721,1,8,0:0:0:0:
224,48,167786,1,0,0:0:0:0:
208,48,167851,1,8,0:0:0:0:
208,48,167916,1,0,0:0:0:0:
256,192,167981,12,0,168699,0:0:0:0:
160,96,169025,5,8,0:0:0:0:
240,144,169090,1,8,0:0:0:0:
272,96,169155,1,0,0:0:0:0:
224,64,169221,1,0,0:0:0:0:
144,176,169286,1,8,0:0:0:0:
256,192,169351,1,0,0:0:0:0:
336,160,169416,1,8,0:0:0:0:
272,144,169481,1,0,0:0:0:0:
256,144,169547,1,8,0:0:0:0:
240,144,169612,1,8,0:0:0:0:
224,128,169677,1,0,0:0:0:0:
224,128,169742,1,0,0:0:0:0:
224,144,169808,1,0,0:0:0:0:
160,96,169873,1,0,0:0:0:0:
128,64,169938,1,0,0:0:0:0:
128,64,170003,1,0,0:0:0:0:
288,224,170068,1,8,0:0:0:0:
208,192,170134,1,0,0:0:0:0:
112,192,170199,1,8,0:0:0:0:
128,176,170329,1,0,0:0:0:0:
144,160,170394,1,8,0:0:0:0:
144,160,170460,1,0,0:0:0:0:
256,80,170590,1,8,0:0:0:0:
208,96,170655,1,0,0:0:0:0:
192,80,170721,1,8,0:0:0:0:
192,48,170786,1,8,0:0:0:0:
160,64,170851,1,0,0:0:0:0:
96,80,170916,1,0,0:0:0:0:
96,80,170981,1,8,0:0:0:0:
96,80,171047,1,8,0:0:0:0:
96,80,171112,1,0,0:0:0:0:
160,176,171242,1,0,0:0:0:0:
336,208,171373,1,8,0:0:0:0:
256,176,171438,1,0,0:0:0:0:
256,160,171503,1,0,0:0:0:0:
320,160,171634,1,8,0:0:0:0:
240,112,171764,1,0,0:0:0:0:
176,112,171894,1,0,0:0:0:0:
160,112,171960,1,8,0:0:0:0:
128,112,172025,1,0,0:0:0:0:
80,64,172090,1,8,0:0:0:0:
224,80,172155,1,8,0:0:0:0:
176,80,172221,1,0,0:0:0:0:
128,176,172286,1,8,0:0:0:0:
192,176,172351,1,0,0:0:0:0:
224,208,172416,1,8,0:0:0:0:
320,240,172481,1,0,0:0:0:0:
304,176,172547,1,8,0:0:0:0:
256,192,172677,12,0,172938,0:0:0:0:
112,96,173199,5,0,0:0:0:0:
224,80,173264,1,8,0:0:0:0:
176,64,173329,1,0,0:0:0:0:
192,48,173394,1,0,0:0:0:0:
192,48,173460,1,8,0:0:0:0:
192,48,173525,1,0,0:0:0:0:
176,128,173590,1,8,0:0:0:0:
144,128,173655,1,8,0:0:0:0:
144,112,173721,1,0,0:0:0:0:
80,96,173786,1,0,0:0:0:0:
240,128,173851,1,8,0:0:0:0:
192,128,173916,1,0,0:0:0:0:
192,128,173981,1,8,0:0:0:0:
176,96,174047,1,8,0:0:0:0:
176,96,174112,1,0,0:0:0:0:
160,96,174177,1,0,0:0:0:0:
192,176,174242,1,8,0:0:0:0:
304,144,174373,1,0,0:0:0:0:
224,112,174503,1,0,0:0:0:0:
288,240,174634,1,0,0:0:0:0:
80,128,174764,1,0,0:0:0:0:
128,96,174829,1,0,0:0:0:0:
128,96,174894,1,0,0:0:0:0:
352,272,175025,1,12,0:0:0:0:
208,64,175155,1,12,0:0:0:0:
165,177,175286,1,0,0:0:0:0:
265,162,175351,1,8,0:0:0:0:
240,128,175416,1,0,0:0:0:0:
251,108,175481,1,8,0:0:0:0:
247,108,175547,1,8,0:0:0:0:
227,106,175612,1,0,0:0:0:0:
222,106,175677,1,8,0:0:0:0:
205,101,175742,1,0,0:0:0:0:
202,100,175808,1,0,0:0:0:0:
196,103,175873,1,0,0:0:0:0:
194,104,175938,1,8,0:0:0:0:
187,108,176003,1,8,0:0:0:0:
186,108,176068,1,0,0:0:0:0:
186,108,176134,1,8,0:0:0:0:
186,108,176199,1,0,0:0:0:0:
181,108,176264,1,0,0:0:0:0:
175,114,176329,1,0,0:0:0:0:
316,209,176394,1,0,0:0:0:0:
242,200,176460,1,0,0:0:0:0:
236,133,177112,1,8,0:0:0:0:
304,204,177373,1,0,0:0:0:0:
227,178,177438,1,8,0:0:0:0:
203,182,177503,1,0,0:0:0:0:
141,171,177634,1,0,0:0:0:0:
117,168,177699,1,8,0:0:0:0:
116,167,177764,1,0,0:0:0:0:
256,192,177894,12,0,178155,0:0:0:0:
221,128,178416,5,4,0:0:0:0:
306,208,178547,1,0,0:0:0:0:
321,70,178677,1,0,0:0:0:0:
257,43,178742,1,0,0:0:0:0:
175,49,178808,1,0,0:0:0:0:
81,157,178938,1,0,0:0:0:0:
126,163,179068,1,0,0:0:0:0:
198,188,179199,1,0,0:0:0:0:
187,187,179264,1,0,0:0:0:0:
182,185,179329,1,8,0:0:0:0:
275,127,179460,1,8,0:0:0:0:
65,83,179525,1,8,0:0:0:0:
181,82,179590,1,0,0:0:0:0:
146,86,179721,1,0,0:0:0:0:
71,178,179851,1,0,0:0:0:0:
256,192,179981,12,0,180242,0:0:0:0:
367,204,180503,5,0,0:0:0:0:
239,118,180568,1,8,0:0:0:0:
215,108,180634,1,0,0:0:0:0:
140,103,180764,1,0,0:0:0:0:
131,98,180829,1,8,0:0:0:0:
123,101,180894,1,0,0:0:0:0:
200,183,181547,1,4,0:0:0:0:
172,123,181677,1,0,0:0:0:0:
70,158,181808,1,0,0:0:0:0:
305,199,181938,1,0,0:0:0:0:
246,89,182068,1,0,0:0:0:0:
207,95,182134,1,0,0:0:0:0:
196,95,182199,1,0,0:0:0:0:
216,229,182329,1,0,0:0:0:0:
321,288,182460,1,0,0:0:0:0:
165,177,182590,1,0,0:0:0:0:
265,162,182655,1,8,0:0:0:0:
240,128,182721,1,0,0:0:0:0:
251,108,182786,1,8,0:0:0:0:
247,108,182851,1,8,0:0:0:0:
227,106,182916,1,0,0:0:0:0:
222,106,182981,1,0,0:0:0:0:
205,101,183047,1,8,0:0:0:0:
202,100,183112,1,0,0:0:0:0:
196,103,183177,1,0,0:0:0:0:
194,104,183242,1,8,0:0:0:0:
187,108,183308,1,8,0:0:0:0:
186,108,183373,1,0,0:0:0:0:
186,108,183438,1,0,0:0:0:0:
186,108,183503,1,8,0:0:0:0:
181,108,183568,1,8,0:0:0:0:
175,114,183634,1,0,0:0:0:0:
316,209,183699,1,0,0:0:0:0:
242,200,183764,1,0,0:0:0:0:
117,136,184416,1,8,0:0:0:0:
261,125,184677,1,0,0:0:0:0:
171,116,184742,1,8,0:0:0:0:
159,117,184808,1,0,0:0:0:0:
131,117,184938,1,0,0:0:0:0:
131,116,185003,1,8,0:0:0:0:
131,116,185068,1,0,0:0:0:0:
256,192,185199,12,0,185460,0:0:0:0:
221,128,185721,5,4,0:0:0:0:
306,208,185851,1,0,0:0:0:0:
321,70,185981,1,0,0:0:0:0:
257,43,186047,1,0,0:0:0:0:
175,49,186112,1,0,0:0:0:0:
81,157,186242,1,0,0:0:0:0:
126,163,186373,1,0,0:0:0:0:
198,188,186503,1,0,0:0:0:0:
187,187,186568,1,0,0:0:0:0:
182,185,186634,1,8,0:0:0:0:
275,127,186764,1,8,0:0:0:0:
65,83,186829,1,8,0:0:0:0:
181,82,186894,1,0,0:0:0:0:
146,86,187025,1,0,0:0:0:0:
71,178,187155,1,0,0:0:0:0:
256,192,187286,12,0,187547,0:0:0:0:
367,204,187808,5,0,0:0:0:0:
239,118,187873,1,8,0:0:0:0:
215,108,187938,1,0,0:0:0:0:
140,103,188068,1,0,0:0:0:0:
131,98,188134,1,8,0:0:0:0:
123,101,188199,1,0,0:0:0:0:
204,192,188851,1,4,0:0:0:0:
226,134,188981,1,0,0:0:0:0:
143,103,189112,1,0,0:0:0:0:
58,146,189242,1,0,0:0:0:0:
237,154,189373,1,0,0:0:0:0:
224,153,189438,1,0,0:0:0:0:
162,152,189503,1,0,0:0:0:0:
318,301,189634,1,0,0:0:0:0:
274,204,189764,1,0,0:0:0:0:
165,177,189895,1,0,0:0:0:0:
265,162,189960,1,8,0:0:0:0:
240,128,190025,1,0,0:0:0:0:
251,108,190090,1,8,0:0:0:0:
247,108,190155,1,8,0:0:0:0:
227,106,190221,1,0,0:0:0:0:
222,106,190286,1,8,0:0:0:0:
205,101,190351,1,0,0:0:0:0:
202,100,190416,1,0,0:0:0:0:
196,103,190481,1,8,0:0:0:0:
194,104,190547,1,0,0:0:0:0:
187,108,190612,1,8,0:0:0:0:
186,108,190677,1,8,0:0:0:0:
186,108,190742,1,0,0:0:0:0:
186,108,190808,1,0,0:0:0:0:
181,108,190873,1,8,0:0:0:0:
175,114,190938,1,0,0:0:0:0:
178,198,191068,1,0,0:0:0:0:
311,146,191199,1,0,0:0:0:0:
231,111,191329,1,0,0:0:0:0:
276,81,191460,1,8,0:0:0:0:
276,81,191590,1,8,0:0:0:0:
106,118,191721,1,8,0:0:0:0:
166,61,191786,1,0,0:0:0:0:
126,59,191851,1,8,0:0:0:0:
116,57,191916,1,8,0:0:0:0:
112,57,191981,1,0,0:0:0:0:
63,77,192047,1,8,0:0:0:0:
154,169,192112,1,0,0:0:0:0:
276,153,192177,1,8,0:0:0:0:
212,112,192242,1,0,0:0:0:0:
182,112,192308,1,0,0:0:0:0:
171,111,192373,1,8,0:0:0:0:
168,110,192438,1,0,0:0:0:0:
259,94,192503,1,8,0:0:0:0:
169,65,192634,1,8,0:0:0:0:
169,65,192764,1,0,0:0:0:0:
169,65,192895,1,0,0:0:0:0:
210,172,193025,1,8,0:0:0:0:
108,142,193090,1,0,0:0:0:0:
100,144,193155,1,0,0:0:0:0:
95,141,193221,1,0,0:0:0:0:
93,141,193286,1,8,0:0:0:0:
93,140,193351,1,8,0:0:0:0:
95,140,193416,1,0,0:0:0:0:
127,113,193481,1,0,0:0:0:0:
115,87,193547,1,8,0:0:0:0:
176,84,193612,1,0,0:0:0:0:
162,81,193677,1,0,0:0:0:0:
150,83,193742,1,0,0:0:0:0:
143,85,193808,1,8,0:0:0:0:
140,86,193873,1,8,0:0:0:0:
136,89,193938,1,0,0:0:0:0:
136,91,194003,1,0,0:0:0:0:
122,98,194068,1,8,0:0:0:0:
167,150,194134,1,8,0:0:0:0:
302,123,194199,1,8,0:0:0:0:
229,103,194264,1,8,0:0:0:0:
229,103,194329,1,8,0:0:0:0:
210,110,194395,1,8,0:0:0:0:
210,111,194460,1,8,0:0:0:0:
205,215,194525,1,8,0:0:0:0:
291,280,194590,1,0,0:0:0:0:
278,199,194655,1,8,0:0:0:0:
252,194,194721,1,8,0:0:0:0:
207,184,194786,1,8,0:0:0:0:
188,188,194851,1,8,0:0:0:0:
373,227,194916,1,8,0:0:0:0:
337,171,194981,1,8,0:0:0:0:
330,174,195047,1,8,0:0:0:0:
106,118,195112,1,0,0:0:0:0:
166,61,195177,1,8,0:0:0:0:
126,59,195242,1,8,0:0:0:0:
116,57,195308,1,0,0:0:0:0:
112,57,195373,1,8,0:0:0:0:
63,77,195438,1,0,0:0:0:0:
154,169,195503,1,8,0:0:0:0:
276,153,195568,1,0,0:0:0:0:
212,112,195634,1,0,0:0:0:0:
182,112,195699,1,8,0:0:0:0:
171,111,195764,1,0,0:0:0:0:
168,110,195829,1,8,0:0:0:0:
250,231,195895,1,0,0:0:0:0:
191,127,196677,1,8,0:0:0:0:
91,114,196742,1,8,0:0:0:0:
91,114,196808,1,0,0:0:0:0:
91,114,196873,1,0,0:0:0:0:
91,114,196938,1,8,0:0:0:0:
91,114,197003,1,8,0:0:0:0:
78,124,197068,1,0,0:0:0:0:
120,200,197134,1,0,0:0:0:0:
253,183,197721,1,8,0:0:0:0:
175,104,198242,1,8,0:0:0:0:
128,97,198308,1,8,0:0:0:0:
128,97,198373,1,8,0:0:0:0:
128,97,198438,1,8,0:0:0:0:
128,97,198503,1,0,0:0:0:0:
128,97,198568,1,0,0:0:0:0:
116,100,198634,1,0,0:0:0:0:
115,101,198699,1,0,0:0:0:0:
110,101,198764,1,8,0:0:0:0:
109,102,198829,1,8,0:0:0:0:
106,102,198895,1,0,0:0:0:0:
140,95,198960,1,0,0:0:0:0:
134,93,199025,1,8,0:0:0:0:
87,108,199090,1,8,0:0:0:0:
87,108,199155,1,8,0:0:0:0:
86,108,199221,1,8,0:0:0:0:
85,108,199286,1,0,0:0:0:0:
144,152,199416,1,0,0:0:0:0:
227,133,199547,1,0,0:0:0:0:
306,277,199677,1,0,0:0:0:0:
312,175,199808,1,8,0:0:0:0:
256,165,199938,1,8,0:0:0:0:
256,93,200068,1,0,0:0:0:0:
121,87,200199,1,0,0:0:0:0:
163,127,200329,1,0,0:0:0:0:
282,204,200460,1,8,0:0:0:0:
210,68,200590,1,8,0:0:0:0:
161,62,200655,1,8,0:0:0:0:
161,62,200721,1,8,0:0:0:0:
86,44,200786,1,8,0:0:0:0:
86,44,200851,1,0,0:0:0:0:
81,55,200916,1,0,0:0:0:0:
74,58,200981,1,0,0:0:0:0:
71,59,201047,1,0,0:0:0:0:
69,59,201112,1,8,0:0:0:0:
218,190,201177,1,8,0:0:0:0:
122,133,201242,1,8,0:0:0:0:
116,135,201308,1,8,0:0:0:0:
111,137,201373,1,0,0:0:0:0:
306,209,201503,1,0,0:0:0:0:
276,154,201634,1,0,0:0:0:0:
330,273,201764,1,0,0:0:0:0:
182,92,201895,1,8,0:0:0:0:
182,92,202025,1,8,0:0:0:0:
148,150,202155,1,0,0:0:0:0:
156,135,202242,1,0,0:0:0:0:
151,137,202329,1,0,0:0:0:0:
156,151,202416,1,8,0:0:0:0:
283,135,202503,1,8,0:0:0:0:
268,82,202590,1,8,0:0:0:0:
206,82,202677,1,0,0:0:0:0:
208,193,202764,1,0,0:0:0:0:
177,166,202851,1,0,0:0:0:0:
129,78,202938,1,8,0:0:0:0:
345,92,203003,1,8,0:0:0:0:
278,83,203068,1,0,0:0:0:0:
273,83,203134,1,0,0:0:0:0:
251,82,203199,1,8,0:0:0:0:
233,83,203264,1,8,0:0:0:0:
218,82,203329,1,0,0:0:0:0:
214,82,203395,1,0,0:0:0:0:
186,185,203460,1,0,0:0:0:0:
65,170,203590,1,0,0:0:0:0:
141,160,203721,1,0,0:0:0:0:
284,236,203851,1,0,0:0:0:0:
242,161,203981,1,8,0:0:0:0:
241,139,204112,1,8,0:0:0:0:
236,119,204242,1,0,0:0:0:0:
234,125,204373,1,0,0:0:0:0:
227,125,204503,1,0,0:0:0:0:
294,217,204634,1,8,0:0:0:0:
281,183,204764,1,8,0:0:0:0:
360,218,204829,1,8,0:0:0:0:
326,154,204895,1,8,0:0:0:0:
321,143,204960,1,8,0:0:0:0:
319,141,205025,1,0,0:0:0:0:
318,140,205090,1,0,0:0:0:0:
317,141,205155,1,0,0:0:0:0:
315,141,205221,1,0,0:0:0:0:
315,141,205286,1,8,0:0:0:0:
315,141,205351,1,8,0:0:0:0:
315,145,205416,1,8,0:0:0:0:
315,146,205481,1,8,0:0:0:0:
315,146,205547,1,0,0:0:0:0:
229,222,205677,1,0,0:0:0:0:
183,142,205808,1,0,0:0:0:0:
183,142,205938,1,0,0:0:0:0:
183,142,206068,1,8,0:0:0:0:
183,142,206199,1,8,0:0:0:0:
259,133,206329,1,8,0:0:0:0:
259,133,206416,1,8,0:0:0:0:
252,132,206503,1,8,0:0:0:0:
252,132,206590,1,0,0:0:0:0:
252,132,206677,1,0,0:0:0:0:
246,133,206764,1,0,0:0:0:0:
244,131,206851,1,8,0:0:0:0:
242,130,206938,1,8,0:0:0:0:
242,130,207025,1,8,0:0:0:0:
242,130,207112,1,0,0:0:0:0:
280,91,207177,1,0,0:0:0:0:
205,96,207242,1,0,0:0:0:0:
205,96,207308,1,8,0:0:0:0:
205,96,207373,1,0,0:0:0:0:
205,96,207438,1,0,0:0:0:0:
205,96,207503,1,8,0:0:0:0:
205,96,207568,1,8,0:0:0:0:
205,96,207634,1,0,0:0:0:0:
71,153,207764,1,0,0:0:0:0:
131,152,207895,1,0,0:0:0:0:
222,137,208025,1,0,0:0:0:0:
110,109,208155,1,8,0:0:0:0:
110,109,208286,1,8,0:0:0:0:
152,121,208416,1,0,0:0:0:0:
152,121,208547,1,0,0:0:0:0:
142,121,208677,1,0,0:0:0:0:
275,183,208808,1,8,0:0:0:0:
270,41,208938,1,8,0:0:0:0:
199,47,209003,1,8,0:0:0:0:
201,94,209068,1,0,0:0:0:0:
196,107,209134,1,0,0:0:0:0:
190,106,209199,1,8,0:0:0:0:
181,106,209264,1,8,0:0:0:0:
179,105,209329,1,8,0:0:0:0:
175,105,209395,1,8,0:0:0:0:
175,104,209460,1,0,0:0:0:0:
120,143,209525,1,0,0:0:0:0:
208,152,209590,1,8,0:0:0:0:
208,152,209655,1,8,0:0:0:0:
251,168,209721,1,0,0:0:0:0:
247,116,209851,1,0,0:0:0:0:
174,80,209981,1,0,0:0:0:0:
167,79,210112,1,0,0:0:0:0:
166,80,210242,1,8,0:0:0:0:
164,81,210373,1,8,0:0:0:0:
148,150,210503,1,0,0:0:0:0:
156,135,210590,1,0,0:0:0:0:
151,137,210677,1,0,0:0:0:0:
156,151,210764,1,8,0:0:0:0:
283,135,210851,1,8,0:0:0:0:
268,82,210938,1,8,0:0:0:0:
206,82,211025,1,0,0:0:0:0:
208,193,211112,1,0,0:0:0:0:
177,166,211199,1,0,0:0:0:0:
129,78,211286,1,8,0:0:0:0:
345,92,211351,1,8,0:0:0:0:
278,83,211416,1,0,0:0:0:0:
273,83,211481,1,0,0:0:0:0:
251,82,211547,1,8,0:0:0:0:
233,83,211612,1,8,0:0:0:0:
218,82,211677,1,0,0:0:0:0:
214,82,211742,1,0,0:0:0:0:
186,185,211808,1,0,0:0:0:0:
96,143,211938,1,0,0:0:0:0:
149,135,212068,1,0,0:0:0:0:
149,135,212199,1,0,0:0:0:0:
143,137,212329,1,8,0:0:0:0:
136,138,212460,1,8,0:0:0:0:
136,138,212590,1,0,0:0:0:0:
128,140,212721,1,0,0:0:0:0:
128,142,212851,1,0,0:0:0:0:
225,158,212981,1,8,0:0:0:0:
256,82,213112,1,8,0:0:0:0:
200,78,213177,1,8,0:0:0:0:
191,80,213242,1,0,0:0:0:0:
186,81,213308,1,0,0:0:0:0:
179,81,213373,1,8,0:0:0:0:
176,82,213438,1,8,0:0:0:0:
177,83,213503,1,8,0:0:0:0:
177,84,213568,1,8,0:0:0:0:
173,84,213634,1,0,0:0:0:0:
171,84,213699,1,0,0:0:0:0:
170,85,213764,1,8,0:0:0:0:
169,85,213829,1,8,0:0:0:0:
170,86,213895,1,0,0:0:0:0:
236,178,214025,1,0,0:0:0:0:
222,145,214155,1,0,0:0:0:0:
199,120,214286,1,0,0:0:0:0:
199,120,214416,1,8,0:0:0:0:
199,120,214547,1,8,0:0:0:0:
259,133,214677,1,8,0:0:0:0:
259,133,214764,1,8,0:0:0:0:
252,132,214851,1,8,0:0:0:0:
252,132,214938,1,0,0:0:0:0:
252,132,215025,1,0,0:0:0:0:
246,133,215112,1,0,0:0:0:0:
244,131,215199,1,8,0:0:0:0:
242,130,215286,1,8,0:0:0:0:
242,130,215373,1,8,0:0:0:0:
242,130,215460,1,0,0:0:0:0:
280,91,215525,1,0,0:0:0:0:
205,96,215590,1,0,0:0:0:0:
141,162,215721,1,0,0:0:0:0:
261,193,215786,1,8,0:0:0:0:
177,185,215851,1,0,0:0:0:0:
