osu file format v14

[General]
AudioFilename: audio.mp3
AudioLeadIn: 0
PreviewTime: 98269
Countdown: 1
SampleSet: Normal
StackLeniency: 0.7
Mode: 0
LetterboxInBreaks: 0
WidescreenStoryboard: 0

[Editor]
Bookmarks: 10969,20569,22969,39769,49369,52969,72169,88969,98569,111769,121369,130669,139969,150169,157369,190969
DistanceSpacing: 1
BeatDivisor: 6
GridSize: 4
TimelineZoom: 2.8

[Metadata]
Title:Desolate Paradise
TitleUnicode:Desolate Paradise
Artist:Rings of Saturn
ArtistUnicode:Rings of Saturn
Creator:Suome
Version:Depressive Expectations
Source:
Tags:Rings of Saturn desolate Paradise
BeatmapID:1721808
BeatmapSetID:821476

[Difficulty]
HPDrainRate:3.1
CircleSize:3.9
OverallDifficulty:6.6
ApproachRate:9.8
SliderMultiplier:1
SliderTickRate:1

[Events]
//Background and Video events
0,0,"desolate.jpg",0,0
//Break Periods
//Storyboard Layer 0 (Background)
//Storyboard Layer 1 (Fail)
//Storyboard Layer 2 (Pass)
//Storyboard Layer 3 (Foreground)
//Storyboard Sound Samples

[TimingPoints]
1369,300,4,1,0,100,1,0
1969,-50,4,1,0,100,0,0
2494,-100,4,1,0,100,0,0
3169,-66.6666666666667,4,1,0,100,0,0
3469,-80,4,1,0,100,0,0
3769,-57.1428571428571,4,1,0,100,0,0
4369,-50,4,1,0,100,0,0
4969,-66.6666666666667,4,1,0,100,0,0
5569,-50,4,1,0,100,0,0
6469,-100,4,1,0,100,0,0
6769,-50,4,1,0,100,0,0
7369,-100,4,1,0,100,0,0
7969,-66.6666666666667,4,1,0,100,0,0
8269,-57.1428571428571,4,1,0,100,0,0
8569,-50,4,1,0,100,0,0
9769,-66.6666666666667,4,1,0,100,0,0
10369,-50,4,1,0,100,0,0
10969,-57.1428571428571,4,1,0,100,0,0
12769,-58.8235294117647,4,1,0,100,0,0
13369,-55.5555555555556,4,1,0,100,0,0
15769,-62.5,4,1,0,100,0,0
16969,-58.8235294117647,4,1,0,100,0,0
19369,-100,4,1,0,100,0,0
19969,-57.1428571428571,4,1,0,100,0,0

[HitObjects]
71,177,1369,5,0,0:0:0:0:
80,168,1419,1,0,0:0:0:0:
89,160,1469,1,0,0:0:0:0:
100,153,1519,1,0,0:0:0:0:
110,147,1569,1,0,0:0:0:0:
122,142,1619,1,0,0:0:0:0:
134,138,1669,1,0,0:0:0:0:
100,315,1969,6,0,P|80:301|66:280,1,50
110,47,2119,2,0,P|137:44|163:49,1,50
357,299,2269,2,0,P|399:270|420:221,1,100
319,102,2569,1,0,0:0:0:0:
310,87,2619,1,0,0:0:0:0:
299,74,2669,1,0,0:0:0:0:
286,64,2719,1,0,0:0:0:0:
121,158,2869,1,0,0:0:0:0:
98,168,2944,1,0,0:0:0:0:
80,185,3019,1,0,0:0:0:0:
68,207,3094,1,0,0:0:0:0:
79,236,3169,1,0,0:0:0:0:
115,226,3244,1,0,0:0:0:0:
152,229,3319,1,0,0:0:0:0:
186,244,3394,1,0,0:0:0:0:
221,262,3469,1,0,0:0:0:0:
251,268,3544,1,0,0:0:0:0:
282,264,3619,1,0,0:0:0:0:
309,250,3694,1,0,0:0:0:0:
334,217,3769,1,0,0:0:0:0:
356,179,3844,1,0,0:0:0:0:
360,136,3919,1,0,0:0:0:0:
345,96,3994,1,0,0:0:0:0:
321,62,4069,2,0,P|298:50|278:45,1,43.7500004172325
91,158,4369,6,0,P|72:179|66:212,1,50
319,300,4519,2,0,P|347:292|372:271,1,50
283,109,4669,2,0,P|332:85|390:82,1,100
101,306,4969,5,0,0:0:0:0:
136,319,5044,1,0,0:0:0:0:
172,325,5119,1,0,0:0:0:0:
210,325,5194,1,0,0:0:0:0:
247,318,5269,1,0,0:0:0:0:
281,304,5344,1,0,0:0:0:0:
313,284,5419,1,0,0:0:0:0:
341,259,5494,1,0,0:0:0:0:
358,222,5569,1,0,0:0:0:0:
308,223,5644,1,0,0:0:0:0:
258,216,5719,1,0,0:0:0:0:
210,202,5794,1,0,0:0:0:0:
165,181,5869,1,0,0:0:0:0:
124,152,5944,1,0,0:0:0:0:
88,118,6019,1,0,0:0:0:0:
57,79,6094,1,0,0:0:0:0:
36,42,6169,2,0,P|66:30|91:34,1,50
318,98,6469,5,0,0:0:0:0:
330,99,6519,1,0,0:0:0:0:
340,106,6569,1,0,0:0:0:0:
120,277,6769,2,0,P|95:260|77:225,1,50
270,108,6919,2,0,P|272:76|298:53,1,50
412,293,7069,2,0,P|377:250|328:233,1,100
107,135,7369,1,0,0:0:0:0:
101,123,7419,1,0,0:0:0:0:
92,114,7469,1,0,0:0:0:0:
424,109,7669,5,0,0:0:0:0:
405,92,7744,1,0,0:0:0:0:
384,79,7819,1,0,0:0:0:0:
360,70,7894,1,0,0:0:0:0:
318,76,7969,1,0,0:0:0:0:
294,104,8044,1,0,0:0:0:0:
263,125,8119,1,0,0:0:0:0:
227,136,8194,1,0,0:0:0:0:
206,171,8269,1,0,0:0:0:0:
223,210,8344,1,0,0:0:0:0:
222,254,8419,1,0,0:0:0:0:
203,292,8494,1,0,0:0:0:0:
169,317,8569,1,0,0:0:0:0:
125,310,8644,1,0,0:0:0:0:
87,290,8719,1,0,0:0:0:0:
56,259,8794,1,0,0:0:0:0:
37,220,8869,1,0,0:0:0:0:
254,99,9169,6,0,P|287:80|318:73,1,50
254,324,9319,2,0,P|226:311|203:289,1,50
96,41,9469,2,0,P|79:89|91:142,1,100
456,222,9769,1,0,0:0:0:0:
429,195,9844,1,0,0:0:0:0:
400,171,9919,1,0,0:0:0:0:
370,149,9994,1,0,0:0:0:0:
337,131,10069,1,0,0:0:0:0:
303,115,10144,1,0,0:0:0:0:
268,103,10219,1,0,0:0:0:0:
231,94,10294,1,0,0:0:0:0:
203,113,10369,1,0,0:0:0:0:
165,146,10444,1,0,0:0:0:0:
128,179,10519,1,0,0:0:0:0:
90,212,10594,1,0,0:0:0:0:
53,245,10669,1,0,0:0:0:0:
65,279,10744,1,0,0:0:0:0:
107,306,10819,1,0,0:0:0:0:
154,321,10894,1,0,0:0:0:0:
206,317,10969,2,0,B|309:291|375:320|375:320|454:265|443:162|443:162|354:202|262:184|262:184|234:118|285:77,1,656.250006258488
226,28,12169,6,0,B|119:24|55:66|55:66|137:100|132:173,1,306.250002920628
159,243,12769,1,0,0:0:0:0:
202,231,12844,1,0,0:0:0:0:
241,208,12919,1,0,0:0:0:0:
270,173,12994,1,0,0:0:0:0:
304,155,13069,1,0,0:0:0:0:
348,168,13144,1,0,0:0:0:0:
387,190,13219,1,0,0:0:0:0:
421,220,13294,1,0,0:0:0:0:
425,271,13369,1,0,0:0:0:0:
383,288,13444,1,0,0:0:0:0:
340,299,13519,1,0,0:0:0:0:
295,302,13594,1,0,0:0:0:0:
250,296,13669,1,0,0:0:0:0:
240,253,13744,1,0,0:0:0:0:
221,212,13819,1,0,0:0:0:0:
193,177,13894,1,0,0:0:0:0:
156,151,13969,2,0,B|185:60|267:43|267:43|281:148|339:190,1,314.999990386963
187,238,14569,5,0,0:0:0:0:
250,109,14669,1,0,0:0:0:0:
330,228,14769,1,0,0:0:0:0:
84,326,14869,1,0,0:0:0:0:
168,152,14969,1,0,0:0:0:0:
276,312,15069,1,0,0:0:0:0:
413,259,15169,2,0,B|466:187|427:106|427:106|354:166|273:139,1,314.999990386963
192,59,15769,5,0,0:0:0:0:
152,66,15844,1,0,0:0:0:0:
115,81,15919,1,0,0:0:0:0:
81,102,15994,1,0,0:0:0:0:
52,129,16069,1,0,0:0:0:0:
90,135,16144,1,0,0:0:0:0:
125,154,16219,1,0,0:0:0:0:
152,183,16294,1,0,0:0:0:0:
173,217,16369,1,0,0:0:0:0:
195,251,16444,1,0,0:0:0:0:
221,281,16519,1,0,0:0:0:0:
255,302,16594,1,0,0:0:0:0:
293,315,16669,1,0,0:0:0:0:
312,295,16744,1,0,0:0:0:0:
320,255,16819,1,0,0:0:0:0:
337,219,16894,1,0,0:0:0:0:
360,183,16969,5,0,0:0:0:0:
373,142,17044,1,0,0:0:0:0:
376,100,17119,1,0,0:0:0:0:
366,59,17194,1,0,0:0:0:0:
342,29,17269,1,0,0:0:0:0:
306,52,17344,1,0,0:0:0:0:
267,66,17419,1,0,0:0:0:0:
224,71,17494,1,0,0:0:0:0:
182,67,17569,1,0,0:0:0:0:
143,51,17644,1,0,0:0:0:0:
110,29,17719,1,0,0:0:0:0:
93,67,17794,1,0,0:0:0:0:
85,109,17869,1,0,0:0:0:0:
87,151,17944,1,0,0:0:0:0:
98,192,18019,1,0,0:0:0:0:
117,230,18094,1,0,0:0:0:0:
152,255,18169,5,0,0:0:0:0:
264,142,18269,1,0,0:0:0:0:
305,295,18369,1,0,0:0:0:0:
188,189,18469,1,0,0:0:0:0:
212,31,18569,1,0,0:0:0:0:
335,131,18669,1,0,0:0:0:0:
267,226,18769,1,0,0:0:0:0:
421,186,18869,1,0,0:0:0:0:
377,338,18969,1,0,0:0:0:0:
253,299,19069,1,0,0:0:0:0:
101,251,19169,1,0,0:0:0:0:
219,145,19269,1,0,0:0:0:0:
388,209,19369,5,0,0:0:0:0:
402,200,19419,1,0,0:0:0:0:
415,190,19469,1,0,0:0:0:0:
427,178,19519,1,0,0:0:0:0:
438,166,19569,1,0,0:0:0:0:
447,152,19619,1,0,0:0:0:0:
454,137,19669,1,0,0:0:0:0:
460,121,19719,1,0,0:0:0:0:
464,105,19769,1,0,0:0:0:0:
467,89,19819,1,0,0:0:0:0:
467,72,19869,1,0,0:0:0:0:
466,55,19919,1,0,0:0:0:0:
444,36,19969,2,0,B|357:30|286:80|286:80|263:68|263:68|257:90|257:90|234:77|234:77|229:95|229:95|210:80|210:80|208:102|208:102,1,306.250002920628
