osu file format v14

[General]
AudioFilename: audio.mp3
AudioLeadIn: 0
PreviewTime: 68652
Countdown: 0
SampleSet: Normal
StackLeniency: 0.7
Mode: 1
LetterboxInBreaks: 0
WidescreenStoryboard: 1

[Editor]
Bookmarks: 11985,19096,26207,33318,40430,47541,54652,61763,68874,75985,83096,97318,104430,111541,122207,129318,135985,143096
DistanceSpacing: 0.2
BeatDivisor: 4
GridSize: 32
TimelineZoom: 2

[Metadata]
Title:Senseless Massacre
TitleUnicode:Senseless Massacre
Artist:Rings Of Saturn
ArtistUnicode:Rings Of Saturn
Creator:Vulkin
Version:Oni
Source:
Tags:Lugal Ki En deathcore technical death metal frukoyurdakul
BeatmapID:1728501
BeatmapSetID:819819

[Difficulty]
HPDrainRate:5.5
CircleSize:7
OverallDifficulty:6
ApproachRate:10
SliderMultiplier:1.4
SliderTickRate:1

[Events]
//Background and Video events
0,0,"grugrugru.png",0,0
//Break Periods
2,168184,178200
//Storyboard Layer 0 (Background)
//Storyboard Layer 1 (Fail)
//Storyboard Layer 2 (Pass)
//Storyboard Layer 3 (Foreground)
//Storyboard Sound Samples

[TimingPoints]
1319,222.222222222222,4,1,0,80,1,0
40430,-100,4,1,0,80,0,1
54652,-100,4,1,0,80,0,0
122207,-100,4,1,0,80,0,1
134652,222.222222222222,6,1,0,80,1,1
135985,222.222222222222,4,1,0,80,1,0
161762,-100,4,1,0,80,0,1
165318,-100,4,1,0,80,0,0
167984,222.222222222222,6,1,0,80,1,0
167984,-100,6,1,0,80,0,0

[HitObjects]
256,192,1319,5,0,0:0:0:0:
256,192,1541,1,0,0:0:0:0:
256,192,1763,1,8,0:0:0:0:
256,192,2207,1,8,0:0:0:0:
256,192,2318,1,0,0:0:0:0:
256,192,2430,1,8,0:0:0:0:
256,192,2541,1,8,0:0:0:0:
256,192,2763,1,0,0:0:0:0:
256,192,2874,1,0,0:0:0:0:
256,192,3096,1,8,0:0:0:0:
256,192,3985,1,0,0:0:0:0:
256,192,4096,1,0,0:0:0:0:
256,192,4207,1,0,0:0:0:0:
256,192,4318,1,0,0:0:0:0:
256,192,4430,1,8,0:0:0:0:
256,192,4652,1,0,0:0:0:0:
256,192,4874,1,8,0:0:0:0:
256,192,4985,1,8,0:0:0:0:
256,192,5096,1,0,0:0:0:0:
256,192,5207,1,0,0:0:0:0:
256,192,5318,1,8,0:0:0:0:
256,192,5430,1,0,0:0:0:0:
256,192,5541,1,0,0:0:0:0:
256,192,5763,1,8,0:0:0:0:
256,192,5874,1,8,0:0:0:0:
256,192,5985,1,8,0:0:0:0:
256,192,6096,1,0,0:0:0:0:
256,192,6207,1,8,0:0:0:0:
256,192,6318,1,8,0:0:0:0:
256,192,6430,1,0,0:0:0:0:
256,192,6652,1,8,0:0:0:0:
256,192,6707,1,8,0:0:0:0:
256,192,6763,1,0,0:0:0:0:
256,192,6874,1,0,0:0:0:0:
256,192,6985,1,0,0:0:0:0:
256,192,7096,1,8,0:0:0:0:
256,192,7207,1,8,0:0:0:0:
256,192,7318,1,8,0:0:0:0:
256,192,7541,1,0,0:0:0:0:
256,192,8430,1,0,0:0:0:0:
256,192,8541,1,0,0:0:0:0:
256,192,8652,1,0,0:0:0:0:
256,192,8763,1,0,0:0:0:0:
256,192,8874,1,8,0:0:0:0:
256,192,9096,1,0,0:0:0:0:
256,192,9318,1,8,0:0:0:0:
256,192,9430,1,8,0:0:0:0:
256,192,9541,1,0,0:0:0:0:
256,192,9652,1,0,0:0:0:0:
256,192,9763,1,8,0:0:0:0:
256,192,9985,1,0,0:0:0:0:
256,192,10207,1,8,0:0:0:0:
256,192,10263,1,8,0:0:0:0:
256,192,10318,1,0,0:0:0:0:
256,192,10430,1,8,0:0:0:0:
256,192,10652,1,0,0:0:0:0:
256,192,10874,1,8,0:0:0:0:
256,192,10985,1,0,0:0:0:0:
256,192,11096,1,8,0:0:0:0:
256,192,11152,1,8,0:0:0:0:
256,192,11207,1,0,0:0:0:0:
256,192,11318,1,0,0:0:0:0:
256,192,11430,1,0,0:0:0:0:
256,192,11541,1,8,0:0:0:0:
256,192,11652,1,0,0:0:0:0:
256,192,11763,1,8,0:0:0:0:
256,192,11985,1,0,0:0:0:0:
256,192,12096,1,0,0:0:0:0:
256,192,12207,1,0,0:0:0:0:
256,192,12430,1,0,0:0:0:0:
256,192,12541,1,0,0:0:0:0:
256,192,12652,1,0,0:0:0:0:
256,192,12874,1,8,0:0:0:0:
256,192,13207,1,0,0:0:0:0:
256,192,13263,1,0,0:0:0:0:
256,192,13318,1,0,0:0:0:0:
256,192,13541,1,8,0:0:0:0:
256,192,13652,1,0,0:0:0:0:
256,192,13763,1,0,0:0:0:0:
256,192,13818,1,0,0:0:0:0:
256,192,13874,1,0,0:0:0:0:
256,192,13985,1,8,0:0:0:0:
256,192,14207,1,0,0:0:0:0:
256,192,14318,1,8,0:0:0:0:
256,192,14430,1,0,0:0:0:0:
256,192,14541,1,0,0:0:0:0:
256,192,14652,1,8,0:0:0:0:
256,192,14874,1,8,0:0:0:0:
256,192,15096,1,8,0:0:0:0:
256,192,15541,1,8,0:0:0:0:
256,192,15596,1,8,0:0:0:0:
256,192,15652,1,8,0:0:0:0:
256,192,15763,1,0,0:0:0:0:
256,192,15874,1,0,0:0:0:0:
256,192,15985,1,8,0:0:0:0:
256,192,16207,1,8,0:0:0:0:
256,192,16430,1,0,0:0:0:0:
256,192,16541,1,0,0:0:0:0:
256,192,16652,1,0,0:0:0:0:
256,192,16763,1,0,0:0:0:0:
256,192,16874,1,8,0:0:0:0:
256,192,16985,1,8,0:0:0:0:
256,192,17096,1,0,0:0:0:0:
256,192,17318,1,0,0:0:0:0:
256,192,17430,1,8,0:0:0:0:
256,192,17541,1,8,0:0:0:0:
256,192,17652,1,0,0:0:0:0:
256,192,17763,1,0,0:0:0:0:
256,192,17874,1,0,0:0:0:0:
256,192,17985,1,8,0:0:0:0:
256,192,18207,1,0,0:0:0:0:
256,192,18430,1,0,0:0:0:0:
256,192,18541,1,0,0:0:0:0:
256,192,18652,1,0,0:0:0:0:
256,192,19096,1,0,0:0:0:0:
256,192,19207,1,0,0:0:0:0:
256,192,19318,1,0,0:0:0:0:
256,192,19541,1,0,0:0:0:0:
256,192,19652,1,0,0:0:0:0:
256,192,19763,1,0,0:0:0:0:
256,192,19985,1,8,0:0:0:0:
256,192,20318,1,0,0:0:0:0:
256,192,20374,1,0,0:0:0:0:
256,192,20429,1,0,0:0:0:0:
256,192,20652,1,8,0:0:0:0:
256,192,20763,1,0,0:0:0:0:
256,192,20874,1,0,0:0:0:0:
256,192,20929,1,0,0:0:0:0:
256,192,20985,1,0,0:0:0:0:
256,192,21096,1,8,0:0:0:0:
256,192,21318,1,0,0:0:0:0:
256,192,21429,1,8,0:0:0:0:
256,192,21541,1,0,0:0:0:0:
256,192,21652,1,0,0:0:0:0:
256,192,21763,1,8,0:0:0:0:
256,192,21985,1,8,0:0:0:0:
256,192,22207,1,8,0:0:0:0:
256,192,22652,1,8,0:0:0:0:
256,192,22707,1,8,0:0:0:0:
256,192,22763,1,8,0:0:0:0:
256,192,22874,1,0,0:0:0:0:
256,192,22985,1,0,0:0:0:0:
256,192,23096,1,8,0:0:0:0:
256,192,23318,1,8,0:0:0:0:
256,192,23541,1,0,0:0:0:0:
256,192,23652,1,0,0:0:0:0:
256,192,23763,1,0,0:0:0:0:
256,192,23874,1,0,0:0:0:0:
256,192,23985,1,8,0:0:0:0:
256,192,24096,1,8,0:0:0:0:
256,192,24207,1,0,0:0:0:0:
256,192,24429,1,0,0:0:0:0:
256,192,24541,1,8,0:0:0:0:
256,192,24652,1,8,0:0:0:0:
256,192,24763,1,0,0:0:0:0:
256,192,24874,1,0,0:0:0:0:
256,192,24985,1,0,0:0:0:0:
256,192,25096,1,8,0:0:0:0:
256,192,25318,1,0,0:0:0:0:
256,192,25374,1,0,0:0:0:0:
256,192,25430,1,0,0:0:0:0:
256,192,25541,1,0,0:0:0:0:
256,192,25652,1,0,0:0:0:0:
256,192,25763,1,8,0:0:0:0:
256,192,25874,1,8,0:0:0:0:
256,192,25985,1,0,0:0:0:0:
256,192,26207,5,8,0:0:0:0:
256,192,26652,1,0,0:0:0:0:
256,192,26874,1,8,0:0:0:0:
256,192,26985,1,0,0:0:0:0:
256,192,27096,1,8,0:0:0:0:
256,192,27318,1,0,0:0:0:0:
256,192,27430,1,8,0:0:0:0:
256,192,27652,1,8,0:0:0:0:
256,192,27763,1,0,0:0:0:0:
256,192,27985,1,0,0:0:0:0:
256,192,28207,1,8,0:0:0:0:
256,192,28318,1,8,0:0:0:0:
256,192,28430,1,0,0:0:0:0:
256,192,28652,1,0,0:0:0:0:
256,192,28763,1,0,0:0:0:0:
256,192,28874,1,8,0:0:0:0:
256,192,28985,1,8,0:0:0:0:
256,192,29096,1,0,0:0:0:0:
256,192,29207,1,0,0:0:0:0:
256,192,29318,1,8,0:0:0:0:
256,192,29374,1,0,0:0:0:0:
256,192,29430,1,0,0:0:0:0:
256,192,29541,1,0,0:0:0:0:
256,192,29652,1,0,0:0:0:0:
256,192,29763,1,8,0:0:0:0:
256,192,30207,1,0,0:0:0:0:
256,192,30430,1,8,0:0:0:0:
256,192,30541,1,0,0:0:0:0:
256,192,30652,1,8,0:0:0:0:
256,192,30874,1,8,0:0:0:0:
256,192,30985,1,0,0:0:0:0:
256,192,31207,1,0,0:0:0:0:
256,192,31318,1,8,0:0:0:0:
256,192,31541,1,0,0:0:0:0:
256,192,31763,1,0,0:0:0:0:
256,192,31874,1,0,0:0:0:0:
256,192,31985,1,8,0:0:0:0:
256,192,32096,1,0,0:0:0:0:
256,192,32207,1,0,0:0:0:0:
256,192,32430,1,8,0:0:0:0:
256,192,32485,1,8,0:0:0:0:
256,192,32541,1,8,0:0:0:0:
256,192,32652,1,0,0:0:0:0:
256,192,32763,1,0,0:0:0:0:
256,192,32874,1,8,0:0:0:0:
256,192,32985,1,0,0:0:0:0:
256,192,33096,1,0,0:0:0:0:
256,192,33318,1,8,0:0:0:0:
256,192,33763,1,0,0:0:0:0:
256,192,33985,1,8,0:0:0:0:
256,192,34096,1,0,0:0:0:0:
256,192,34207,1,8,0:0:0:0:
256,192,34429,1,0,0:0:0:0:
256,192,34541,1,8,0:0:0:0:
256,192,34763,1,8,0:0:0:0:
256,192,34874,1,0,0:0:0:0:
256,192,35096,1,0,0:0:0:0:
256,192,35318,1,8,0:0:0:0:
256,192,35429,1,8,0:0:0:0:
256,192,35541,1,0,0:0:0:0:
256,192,35763,1,0,0:0:0:0:
256,192,35874,1,0,0:0:0:0:
256,192,35985,1,8,0:0:0:0:
256,192,36096,1,8,0:0:0:0:
256,192,36207,1,0,0:0:0:0:
256,192,36318,1,0,0:0:0:0:
256,192,36429,1,8,0:0:0:0:
256,192,36485,1,0,0:0:0:0:
256,192,36541,1,0,0:0:0:0:
256,192,36652,1,0,0:0:0:0:
256,192,36763,1,0,0:0:0:0:
256,192,36874,1,8,0:0:0:0:
256,192,37318,1,0,0:0:0:0:
256,192,37541,1,8,0:0:0:0:
256,192,37652,1,0,0:0:0:0:
256,192,37763,1,8,0:0:0:0:
256,192,37985,1,8,0:0:0:0:
256,192,38096,1,0,0:0:0:0:
256,192,38318,1,0,0:0:0:0:
256,192,38429,1,8,0:0:0:0:
256,192,38652,1,0,0:0:0:0:
256,192,38874,1,0,0:0:0:0:
256,192,38985,1,0,0:0:0:0:
256,192,39096,1,8,0:0:0:0:
256,192,39207,1,0,0:0:0:0:
256,192,39318,1,0,0:0:0:0:
256,192,39541,1,8,0:0:0:0:
256,192,39596,1,8,0:0:0:0:
256,192,39652,1,8,0:0:0:0:
256,192,39763,1,0,0:0:0:0:
256,192,39874,1,0,0:0:0:0:
256,192,39985,5,8,0:0:0:0:
256,192,40096,1,0,0:0:0:0:
256,192,40207,1,0,0:0:0:0:
256,192,40430,5,12,0:0:0:0:
256,192,40652,1,0,0:0:0:0:
256,192,40874,1,8,0:0:0:0:
256,192,41096,1,0,0:0:0:0:
256,192,41152,1,0,0:0:0:0:
256,192,41207,1,0,0:0:0:0:
256,192,41263,1,0,0:0:0:0:
256,192,41318,1,8,0:0:0:0:
256,192,41541,1,8,0:0:0:0:
256,192,41652,1,8,0:0:0:0:
256,192,41763,1,0,0:0:0:0:
256,192,41985,1,0,0:0:0:0:
256,192,42430,1,8,0:0:0:0:
256,192,42541,1,0,0:0:0:0:
256,192,42652,1,8,0:0:0:0:
256,192,42763,1,8,0:0:0:0:
256,192,42874,1,0,0:0:0:0:
256,192,43096,1,8,0:0:0:0:
256,192,43152,1,8,0:0:0:0:
256,192,43207,1,8,0:0:0:0:
256,192,43318,1,0,0:0:0:0:
256,192,43430,1,0,0:0:0:0:
256,192,43541,1,8,0:0:0:0:
256,192,43652,1,0,0:0:0:0:
256,192,43763,1,8,0:0:0:0:
256,192,43985,1,0,0:0:0:0:
256,192,44207,1,8,0:0:0:0:
256,192,44318,1,0,0:0:0:0:
256,192,44430,1,8,0:0:0:0:
256,192,44541,1,8,0:0:0:0:
256,192,44652,1,0,0:0:0:0:
256,192,44874,1,8,0:0:0:0:
256,192,44985,1,8,0:0:0:0:
256,192,45096,1,0,0:0:0:0:
256,192,45207,1,8,0:0:0:0:
256,192,45318,1,0,0:0:0:0:
256,192,45541,1,8,0:0:0:0:
256,192,45596,1,8,0:0:0:0:
256,192,45652,1,8,0:0:0:0:
256,192,45763,1,8,0:0:0:0:
256,192,45874,1,0,0:0:0:0:
256,192,45985,1,8,0:0:0:0:
256,192,46096,1,0,0:0:0:0:
256,192,46207,1,8,0:0:0:0:
256,192,46430,1,0,0:0:0:0:
256,192,46485,1,0,0:0:0:0:
256,192,46541,1,0,0:0:0:0:
256,192,46652,1,8,0:0:0:0:
256,192,46763,1,8,0:0:0:0:
256,192,46874,1,0,0:0:0:0:
256,192,46985,1,8,0:0:0:0:
256,192,47096,1,8,0:0:0:0:
256,192,47207,1,8,0:0:0:0:
256,192,47318,1,0,0:0:0:0:
256,192,47541,1,12,0:0:0:0:
256,192,47763,1,0,0:0:0:0:
256,192,47874,1,0,0:0:0:0:
256,192,47985,1,8,0:0:0:0:
256,192,48207,1,8,0:0:0:0:
256,192,48318,1,0,0:0:0:0:
256,192,48429,1,8,0:0:0:0:
256,192,48541,1,0,0:0:0:0:
256,192,48652,1,8,0:0:0:0:
256,192,48763,1,8,0:0:0:0:
256,192,48874,1,0,0:0:0:0:
256,192,49096,1,0,0:0:0:0:
256,192,49318,1,8,0:0:0:0:
256,192,49430,1,8,0:0:0:0:
256,192,49541,1,0,0:0:0:0:
256,192,49763,1,8,0:0:0:0:
256,192,49985,1,0,0:0:0:0:
256,192,50207,1,0,0:0:0:0:
256,192,50263,1,0,0:0:0:0:
256,192,50318,1,0,0:0:0:0:
256,192,50430,1,8,0:0:0:0:
256,192,50541,1,0,0:0:0:0:
256,192,50652,1,8,0:0:0:0:
256,192,50763,1,0,0:0:0:0:
256,192,50874,1,8,0:0:0:0:
256,192,51096,1,0,0:0:0:0:
256,192,51318,1,8,0:0:0:0:
256,192,51430,1,0,0:0:0:0:
256,192,51541,1,8,0:0:0:0:
256,192,51652,1,8,0:0:0:0:
256,192,51763,1,0,0:0:0:0:
256,192,51874,1,8,0:0:0:0:
256,192,51985,1,0,0:0:0:0:
256,192,52096,1,8,0:0:0:0:
256,192,52207,1,8,0:0:0:0:
256,192,52318,1,8,0:0:0:0:
256,192,52430,1,0,0:0:0:0:
256,192,52652,1,8,0:0:0:0:
256,192,52874,1,8,0:0:0:0:
256,192,52930,1,8,0:0:0:0:
256,192,52985,1,8,0:0:0:0:
256,192,53096,1,0,0:0:0:0:
256,192,53207,1,0,0:0:0:0:
256,192,53318,1,8,0:0:0:0:
160,32,53541,1,0,0:0:0:0:
256,192,53763,1,0,0:0:0:0:
256,192,53818,1,0,0:0:0:0:
256,192,53874,1,0,0:0:0:0:
256,192,53985,1,8,0:0:0:0:
256,192,54096,1,0,0:0:0:0:
256,192,54207,1,8,0:0:0:0:
256,192,54318,1,8,0:0:0:0:
256,192,54430,1,0,0:0:0:0:
256,192,54652,1,0,0:0:0:0:
256,192,54763,1,0,0:0:0:0:
256,192,54874,1,0,0:0:0:0:
256,192,55097,1,0,0:0:0:0:
256,192,55208,1,0,0:0:0:0:
256,192,55319,1,0,0:0:0:0:
256,192,55541,1,8,0:0:0:0:
256,192,55874,1,0,0:0:0:0:
256,192,55930,1,0,0:0:0:0:
256,192,55985,1,0,0:0:0:0:
256,192,56208,1,8,0:0:0:0:
256,192,56319,1,0,0:0:0:0:
256,192,56430,1,0,0:0:0:0:
256,192,56485,1,0,0:0:0:0:
256,192,56541,1,0,0:0:0:0:
256,192,56652,1,8,0:0:0:0:
256,192,56874,1,0,0:0:0:0:
256,192,56985,1,8,0:0:0:0:
256,192,57097,1,0,0:0:0:0:
256,192,57208,1,0,0:0:0:0:
256,192,57319,1,8,0:0:0:0:
256,192,57541,1,8,0:0:0:0:
256,192,57763,1,8,0:0:0:0:
256,192,58208,1,8,0:0:0:0:
256,192,58263,1,8,0:0:0:0:
256,192,58319,1,8,0:0:0:0:
256,192,58430,1,0,0:0:0:0:
256,192,58541,1,0,0:0:0:0:
256,192,58652,1,8,0:0:0:0:
256,192,58874,1,8,0:0:0:0:
256,192,59097,1,0,0:0:0:0:
256,192,59208,1,0,0:0:0:0:
256,192,59319,1,0,0:0:0:0:
256,192,59430,1,0,0:0:0:0:
256,192,59541,1,8,0:0:0:0:
256,192,59652,1,8,0:0:0:0:
256,192,59763,1,0,0:0:0:0:
256,192,59985,1,0,0:0:0:0:
256,192,60097,1,8,0:0:0:0:
256,192,60208,1,8,0:0:0:0:
256,192,60319,1,0,0:0:0:0:
256,192,60430,1,0,0:0:0:0:
256,192,60541,1,0,0:0:0:0:
256,192,60652,1,8,0:0:0:0:
256,192,60874,1,0,0:0:0:0:
256,192,61097,1,0,0:0:0:0:
256,192,61208,1,0,0:0:0:0:
256,192,61319,1,0,0:0:0:0:
256,192,61763,1,0,0:0:0:0:
256,192,61874,1,0,0:0:0:0:
256,192,61985,1,0,0:0:0:0:
256,192,62208,1,0,0:0:0:0:
256,192,62319,1,0,0:0:0:0:
256,192,62430,1,0,0:0:0:0:
256,192,62652,1,8,0:0:0:0:
256,192,62985,1,0,0:0:0:0:
256,192,63041,1,0,0:0:0:0:
256,192,63096,1,0,0:0:0:0:
256,192,63319,1,8,0:0:0:0:
256,192,63430,1,0,0:0:0:0:
256,192,63541,1,0,0:0:0:0:
256,192,63596,1,0,0:0:0:0:
256,192,63652,1,0,0:0:0:0:
256,192,63763,1,8,0:0:0:0:
256,192,63985,1,0,0:0:0:0:
256,192,64096,1,8,0:0:0:0:
256,192,64208,1,0,0:0:0:0:
256,192,64319,1,0,0:0:0:0:
256,192,64430,1,8,0:0:0:0:
256,192,64652,1,8,0:0:0:0:
256,192,64874,1,8,0:0:0:0:
256,192,65319,1,8,0:0:0:0:
256,192,65374,1,8,0:0:0:0:
256,192,65430,1,8,0:0:0:0:
256,192,65541,1,0,0:0:0:0:
256,192,65652,1,0,0:0:0:0:
256,192,65763,1,8,0:0:0:0:
256,192,65985,1,8,0:0:0:0:
256,192,66208,1,0,0:0:0:0:
256,192,66319,1,0,0:0:0:0:
256,192,66430,1,0,0:0:0:0:
256,192,66541,1,0,0:0:0:0:
256,192,66652,1,8,0:0:0:0:
256,192,66763,1,8,0:0:0:0:
256,192,66874,1,0,0:0:0:0:
256,192,67096,1,0,0:0:0:0:
256,192,67208,1,8,0:0:0:0:
256,192,67319,1,8,0:0:0:0:
256,192,67430,1,0,0:0:0:0:
256,192,67541,1,0,0:0:0:0:
256,192,67652,1,0,0:0:0:0:
256,192,67763,1,8,0:0:0:0:
256,192,67985,1,0,0:0:0:0:
256,192,68041,1,0,0:0:0:0:
256,192,68097,1,0,0:0:0:0:
256,192,68208,1,0,0:0:0:0:
256,192,68319,1,0,0:0:0:0:
256,192,68430,5,8,0:0:0:0:
256,192,68541,1,8,0:0:0:0:
256,192,68652,1,0,0:0:0:0:
256,192,68874,5,12,0:0:0:0:
256,192,69763,1,8,0:0:0:0:
256,192,69985,1,0,0:0:0:0:
256,192,70096,1,0,0:0:0:0:
256,192,70318,1,8,0:0:0:0:
256,192,70541,1,8,0:0:0:0:
256,192,70763,1,8,0:0:0:0:
256,192,70874,1,0,0:0:0:0:
256,192,71541,1,8,0:0:0:0:
256,192,71596,1,8,0:0:0:0:
256,192,71652,1,0,0:0:0:0:
256,192,71707,1,0,0:0:0:0:
256,192,71763,1,8,0:0:0:0:
256,192,71985,1,0,0:0:0:0:
256,192,72207,1,0,0:0:0:0:
256,192,72541,1,8,0:0:0:0:
256,192,72763,1,8,0:0:0:0:
256,192,72985,1,8,0:0:0:0:
256,192,73207,1,0,0:0:0:0:
256,192,73318,1,8,0:0:0:0:
256,192,73430,1,0,0:0:0:0:
256,192,73541,1,0,0:0:0:0:
256,192,73652,1,8,0:0:0:0:
256,192,73763,1,0,0:0:0:0:
256,192,73985,1,0,0:0:0:0:
256,192,74207,1,8,0:0:0:0:
256,192,74263,1,8,0:0:0:0:
256,192,74318,1,8,0:0:0:0:
256,192,74430,1,0,0:0:0:0:
256,192,74541,1,0,0:0:0:0:
256,192,74652,1,8,0:0:0:0:
256,192,74874,1,0,0:0:0:0:
256,192,74930,1,0,0:0:0:0:
256,192,74985,1,0,0:0:0:0:
256,192,75096,1,8,0:0:0:0:
256,192,75207,1,8,0:0:0:0:
256,192,75318,1,0,0:0:0:0:
256,192,75541,1,8,0:0:0:0:
256,192,75596,1,8,0:0:0:0:
256,192,75652,1,0,0:0:0:0:
256,192,75763,1,0,0:0:0:0:
256,192,75874,1,0,0:0:0:0:
256,192,75985,1,12,0:0:0:0:
256,192,76874,1,8,0:0:0:0:
256,192,77096,1,0,0:0:0:0:
256,192,77207,1,0,0:0:0:0:
256,192,77430,1,8,0:0:0:0:
256,192,77652,1,8,0:0:0:0:
256,192,77874,1,8,0:0:0:0:
256,192,77985,1,0,0:0:0:0:
256,192,78652,1,8,0:0:0:0:
256,192,78707,1,8,0:0:0:0:
256,192,78763,1,0,0:0:0:0:
256,192,78818,1,0,0:0:0:0:
256,192,78874,1,8,0:0:0:0:
256,192,79096,1,0,0:0:0:0:
256,192,79318,1,0,0:0:0:0:
256,192,79652,1,8,0:0:0:0:
256,192,79874,1,8,0:0:0:0:
256,192,80096,1,8,0:0:0:0:
256,192,80207,1,0,0:0:0:0:
256,192,80318,1,0,0:0:0:0:
256,192,80430,1,8,0:0:0:0:
256,192,80541,1,0,0:0:0:0:
256,192,80652,1,0,0:0:0:0:
256,192,80763,1,8,0:0:0:0:
256,192,80874,1,0,0:0:0:0:
256,192,80985,1,8,0:0:0:0:
256,192,81096,1,0,0:0:0:0:
256,192,81318,1,8,0:0:0:0:
256,192,81374,1,8,0:0:0:0:
256,192,81430,1,8,0:0:0:0:
256,192,81541,1,0,0:0:0:0:
256,192,81652,1,0,0:0:0:0:
256,192,81763,1,8,0:0:0:0:
256,192,81985,1,0,0:0:0:0:
256,192,82041,1,0,0:0:0:0:
256,192,82096,1,0,0:0:0:0:
256,192,82207,1,8,0:0:0:0:
256,192,82318,1,8,0:0:0:0:
256,192,82430,1,0,0:0:0:0:
256,192,82652,1,8,0:0:0:0:
256,192,82707,1,8,0:0:0:0:
256,192,82763,1,8,0:0:0:0:
256,192,82874,1,8,0:0:0:0:
256,192,82985,1,8,0:0:0:0:
256,192,83096,1,4,0:0:0:0:
256,192,83985,1,8,0:0:0:0:
256,192,84207,1,0,0:0:0:0:
256,192,84318,1,0,0:0:0:0:
256,192,84541,1,0,0:0:0:0:
256,192,84652,1,0,0:0:0:0:
256,192,84874,1,8,0:0:0:0:
256,192,85096,1,0,0:0:0:0:
256,192,85318,1,8,0:0:0:0:
256,192,85763,1,8,0:0:0:0:
256,192,86207,1,0,0:0:0:0:
256,192,86263,1,0,0:0:0:0:
256,192,86318,1,0,0:0:0:0:
256,192,86430,1,0,0:0:0:0:
256,192,86541,1,0,0:0:0:0:
256,192,86652,1,8,0:0:0:0:
256,192,87541,1,8,0:0:0:0:
256,192,87763,1,0,0:0:0:0:
256,192,87874,1,0,0:0:0:0:
256,192,88096,1,0,0:0:0:0:
256,192,88207,1,0,0:0:0:0:
256,192,88430,1,8,0:0:0:0:
256,192,88652,1,0,0:0:0:0:
256,192,88874,1,0,0:0:0:0:
256,192,89096,1,0,0:0:0:0:
256,192,89207,1,0,0:0:0:0:
256,192,89318,1,8,0:0:0:0:
256,192,89430,1,0,0:0:0:0:
256,192,89541,1,0,0:0:0:0:
256,192,89763,1,8,0:0:0:0:
256,192,89818,1,8,0:0:0:0:
256,192,89874,1,8,0:0:0:0:
256,192,89985,1,0,0:0:0:0:
256,192,90096,1,0,0:0:0:0:
256,192,90207,1,0,0:0:0:0:
256,192,91096,1,8,0:0:0:0:
256,192,91318,1,0,0:0:0:0:
256,192,91430,1,0,0:0:0:0:
256,192,91652,1,0,0:0:0:0:
256,192,91763,1,0,0:0:0:0:
256,192,91985,1,8,0:0:0:0:
256,192,92041,1,0,0:0:0:0:
256,192,92096,1,0,0:0:0:0:
256,192,92207,1,0,0:0:0:0:
256,192,92318,1,8,0:0:0:0:
256,192,92430,1,0,0:0:0:0:
256,192,92485,1,0,0:0:0:0:
256,192,92541,1,0,0:0:0:0:
256,192,92874,1,8,0:0:0:0:
256,192,93318,1,0,0:0:0:0:
256,192,93374,1,0,0:0:0:0:
256,192,93430,1,0,0:0:0:0:
256,192,93541,1,0,0:0:0:0:
256,192,93763,1,0,0:0:0:0:
256,192,93911,1,0,0:0:0:0:
256,192,94059,1,0,0:0:0:0:
256,192,94207,1,0,0:0:0:0:
256,192,94356,1,0,0:0:0:0:
256,192,94504,1,0,0:0:0:0:
256,192,94652,1,8,0:0:0:0:
256,192,94874,1,8,0:0:0:0:
256,192,94985,1,8,0:0:0:0:
256,192,95207,1,0,0:0:0:0:
256,192,95318,1,0,0:0:0:0:
256,192,95541,1,8,0:0:0:0:
256,192,95596,1,8,0:0:0:0:
256,192,95652,1,8,0:0:0:0:
256,192,95763,1,0,0:0:0:0:
256,192,95874,1,0,0:0:0:0:
256,192,95985,1,8,0:0:0:0:
256,192,96207,1,0,0:0:0:0:
256,192,96318,1,0,0:0:0:0:
256,192,96430,1,8,0:0:0:0:
256,192,96541,1,0,0:0:0:0:
256,192,96652,1,0,0:0:0:0:
256,192,96874,1,8,0:0:0:0:
256,192,96985,1,0,0:0:0:0:
256,192,97096,1,0,0:0:0:0:
256,192,97207,1,0,0:0:0:0:
256,192,97318,1,12,0:0:0:0:
256,192,98207,1,8,0:0:0:0:
256,192,98429,1,0,0:0:0:0:
256,192,98540,1,0,0:0:0:0:
256,192,98763,1,8,0:0:0:0:
256,192,98985,1,8,0:0:0:0:
256,192,99207,1,8,0:0:0:0:
256,192,99318,1,0,0:0:0:0:
256,192,99652,1,0,0:0:0:0:
256,192,99874,1,0,0:0:0:0:
256,192,99985,1,8,0:0:0:0:
256,192,100096,1,0,0:0:0:0:
256,192,100207,1,8,0:0:0:0:
256,192,100318,1,0,0:0:0:0:
256,192,100429,1,0,0:0:0:0:
256,192,100651,1,0,0:0:0:0:
256,192,100874,1,8,0:0:0:0:
256,192,101652,1,0,0:0:0:0:
256,192,101762,1,8,0:0:0:0:
256,192,101874,1,0,0:0:0:0:
256,192,101985,1,0,0:0:0:0:
256,192,102096,1,8,0:0:0:0:
256,192,102207,1,0,0:0:0:0:
256,192,102318,1,8,0:0:0:0:
256,192,102429,1,0,0:0:0:0:
256,192,102651,1,8,0:0:0:0:
256,192,102707,1,8,0:0:0:0:
256,192,102763,1,8,0:0:0:0:
256,192,102874,1,0,0:0:0:0:
256,192,102985,1,0,0:0:0:0:
256,192,103096,1,8,0:0:0:0:
256,192,103318,1,0,0:0:0:0:
256,192,103374,1,0,0:0:0:0:
256,192,103430,1,0,0:0:0:0:
256,192,103541,1,8,0:0:0:0:
256,192,103652,1,8,0:0:0:0:
256,192,103763,1,0,0:0:0:0:
256,192,103985,1,8,0:0:0:0:
256,192,104041,1,0,0:0:0:0:
256,192,104096,1,0,0:0:0:0:
256,192,104207,1,0,0:0:0:0:
256,192,104318,1,0,0:0:0:0:
256,192,104429,1,12,0:0:0:0:
256,192,104874,1,8,0:0:0:0:
256,192,105096,1,0,0:0:0:0:
256,192,105318,1,8,0:0:0:0:
256,192,105541,1,0,0:0:0:0:
256,192,105652,1,0,0:0:0:0:
256,192,105874,1,0,0:0:0:0:
256,192,105930,1,0,0:0:0:0:
256,192,105985,1,0,0:0:0:0:
256,192,106096,1,0,0:0:0:0:
256,192,106318,1,8,0:0:0:0:
256,192,106430,1,0,0:0:0:0:
256,192,106652,1,8,0:0:0:0:
256,192,107096,1,8,0:0:0:0:
256,192,107152,1,0,0:0:0:0:
256,192,107207,1,0,0:0:0:0:
256,192,107318,1,0,0:0:0:0:
256,192,107541,1,0,0:0:0:0:
256,192,107763,1,0,0:0:0:0:
256,192,108207,1,8,0:0:0:0:
256,192,108263,1,8,0:0:0:0:
256,192,108318,1,0,0:0:0:0:
256,192,108430,1,8,0:0:0:0:
256,192,108652,1,0,0:0:0:0:
256,192,108763,1,0,0:0:0:0:
256,192,108874,1,8,0:0:0:0:
256,192,108985,1,0,0:0:0:0:
256,192,109096,1,0,0:0:0:0:
256,192,109207,1,8,0:0:0:0:
256,192,109318,1,0,0:0:0:0:
256,192,109430,1,8,0:0:0:0:
256,192,109541,1,0,0:0:0:0:
256,192,109763,1,8,0:0:0:0:
256,192,109818,1,8,0:0:0:0:
256,192,109874,1,8,0:0:0:0:
256,192,109985,1,0,0:0:0:0:
256,192,110096,1,0,0:0:0:0:
256,192,110207,1,8,0:0:0:0:
256,192,110430,1,0,0:0:0:0:
256,192,110485,1,0,0:0:0:0:
256,192,110541,1,0,0:0:0:0:
256,192,110652,1,8,0:0:0:0:
256,192,110763,1,8,0:0:0:0:
256,192,110874,1,0,0:0:0:0:
256,192,111096,1,8,0:0:0:0:
256,192,111207,1,0,0:0:0:0:
256,192,111318,1,0,0:0:0:0:
256,192,111430,1,8,0:0:0:0:
256,192,111541,1,0,0:0:0:0:
256,192,111763,1,0,0:0:0:0:
256,192,111985,1,0,0:0:0:0:
256,192,112429,1,8,0:0:0:0:
256,192,112540,1,0,0:0:0:0:
256,192,112652,1,8,0:0:0:0:
256,192,112763,1,8,0:0:0:0:
256,192,112985,1,0,0:0:0:0:
256,192,113096,1,0,0:0:0:0:
256,192,113318,1,0,0:0:0:0:
256,192,114207,1,0,0:0:0:0:
256,192,114318,1,0,0:0:0:0:
256,192,114430,1,0,0:0:0:0:
256,192,114541,1,0,0:0:0:0:
256,192,114652,1,8,0:0:0:0:
256,192,114874,1,0,0:0:0:0:
256,192,115096,1,8,0:0:0:0:
256,192,115207,1,8,0:0:0:0:
256,192,115318,1,0,0:0:0:0:
256,192,115429,1,0,0:0:0:0:
256,192,115540,1,8,0:0:0:0:
256,192,115652,1,0,0:0:0:0:
256,192,115763,1,0,0:0:0:0:
256,192,115985,1,8,0:0:0:0:
256,192,116096,1,8,0:0:0:0:
256,192,116207,1,8,0:0:0:0:
256,192,116318,1,0,0:0:0:0:
256,192,116430,1,8,0:0:0:0:
256,192,116541,1,8,0:0:0:0:
256,192,116652,1,0,0:0:0:0:
256,192,116874,1,8,0:0:0:0:
256,192,116930,1,8,0:0:0:0:
256,192,116985,1,0,0:0:0:0:
256,192,117096,1,0,0:0:0:0:
256,192,117207,1,0,0:0:0:0:
256,192,117318,1,8,0:0:0:0:
256,192,117430,1,8,0:0:0:0:
256,192,117540,1,8,0:0:0:0:
256,192,117763,1,0,0:0:0:0:
256,192,118652,1,0,0:0:0:0:
256,192,118763,1,0,0:0:0:0:
256,192,118874,1,0,0:0:0:0:
256,192,118985,1,0,0:0:0:0:
256,192,119096,1,8,0:0:0:0:
256,192,119318,1,0,0:0:0:0:
256,192,119540,1,8,0:0:0:0:
256,192,119652,1,8,0:0:0:0:
256,192,119763,1,0,0:0:0:0:
256,192,119874,1,0,0:0:0:0:
256,192,119985,1,8,0:0:0:0:
256,192,120207,1,0,0:0:0:0:
256,192,120429,1,8,0:0:0:0:
256,192,120485,1,8,0:0:0:0:
256,192,120541,1,0,0:0:0:0:
256,192,120652,1,8,0:0:0:0:
256,192,120763,1,0,0:0:0:0:
256,192,120874,1,0,0:0:0:0:
256,192,121096,1,8,0:0:0:0:
256,192,121152,1,0,0:0:0:0:
256,192,121207,1,0,0:0:0:0:
256,192,121318,1,8,0:0:0:0:
256,192,121430,1,8,0:0:0:0:
256,192,121540,1,0,0:0:0:0:
256,192,121652,1,0,0:0:0:0:
256,192,121763,1,8,0:0:0:0:
256,192,121874,1,0,0:0:0:0:
256,192,121985,1,8,0:0:0:0:
256,192,122207,1,8,0:0:0:0:
256,192,122652,1,0,0:0:0:0:
256,192,122707,1,0,0:0:0:0:
256,192,122763,1,0,0:0:0:0:
256,192,122874,1,0,0:0:0:0:
256,192,123096,1,8,0:0:0:0:
256,192,123318,1,0,0:0:0:0:
256,192,123430,1,0,0:0:0:0:
256,192,123652,1,8,0:0:0:0:
256,192,123763,1,0,0:0:0:0:
256,192,123985,1,0,0:0:0:0:
256,192,124041,1,0,0:0:0:0:
256,192,124096,1,0,0:0:0:0:
256,192,124207,1,0,0:0:0:0:
256,192,124318,1,0,0:0:0:0:
256,192,124430,1,8,0:0:0:0:
256,192,124652,1,0,0:0:0:0:
256,192,124874,1,8,0:0:0:0:
256,192,124985,1,0,0:0:0:0:
256,192,125096,1,0,0:0:0:0:
256,192,125207,1,0,0:0:0:0:
256,192,125318,1,0,0:0:0:0:
256,192,125541,1,8,0:0:0:0:
256,192,125596,1,8,0:0:0:0:
256,192,125652,1,8,0:0:0:0:
256,192,125985,1,0,0:0:0:0:
256,192,126096,1,0,0:0:0:0:
256,192,126207,1,8,0:0:0:0:
256,192,126263,1,8,0:0:0:0:
256,192,126318,1,8,0:0:0:0:
256,192,126652,1,8,0:0:0:0:
256,192,126763,1,0,0:0:0:0:
256,192,126874,1,8,0:0:0:0:
256,192,126930,1,8,0:0:0:0:
256,192,126985,1,8,0:0:0:0:
256,192,127207,1,0,0:0:0:0:
256,192,127318,1,8,0:0:0:0:
256,192,127430,1,8,0:0:0:0:
256,192,127541,1,0,0:0:0:0:
256,192,127652,1,0,0:0:0:0:
256,192,127763,1,8,0:0:0:0:
256,192,127874,1,0,0:0:0:0:
256,192,128096,1,8,0:0:0:0:
256,192,128207,1,0,0:0:0:0:
256,192,128318,1,0,0:0:0:0:
256,192,128430,1,8,0:0:0:0:
256,192,128541,1,0,0:0:0:0:
256,192,128763,1,0,0:0:0:0:
256,192,128874,1,8,0:0:0:0:
256,192,129096,1,0,0:0:0:0:
256,192,129318,1,8,0:0:0:0:
256,192,129763,1,0,0:0:0:0:
256,192,129874,1,0,0:0:0:0:
256,192,129985,1,0,0:0:0:0:
256,192,130207,1,8,0:0:0:0:
256,192,130430,1,8,0:0:0:0:
256,192,130541,1,0,0:0:0:0:
256,192,130763,1,0,0:0:0:0:
256,192,130874,1,8,0:0:0:0:
256,192,131096,1,0,0:0:0:0:
256,192,131207,1,0,0:0:0:0:
256,192,131318,1,0,0:0:0:0:
256,192,131430,1,0,0:0:0:0:
256,192,131541,1,8,0:0:0:0:
256,192,131985,1,8,0:0:0:0:
256,192,132041,1,8,0:0:0:0:
256,192,132096,1,0,0:0:0:0:
256,192,132207,1,8,0:0:0:0:
256,192,132318,1,8,0:0:0:0:
256,192,132429,1,0,0:0:0:0:
256,192,132541,1,0,0:0:0:0:
256,192,132652,1,8,0:0:0:0:
256,192,133096,1,0,0:0:0:0:
256,192,133152,1,0,0:0:0:0:
256,192,133207,1,0,0:0:0:0:
256,192,133318,1,8,0:0:0:0:
256,192,133763,1,8,0:0:0:0:
256,192,133818,1,0,0:0:0:0:
256,192,133874,1,0,0:0:0:0:
256,192,133985,1,8,0:0:0:0:
256,192,134429,1,8,0:0:0:0:
256,192,134541,1,8,0:0:0:0:
256,192,134652,1,0,0:0:0:0:
256,192,134874,1,0,0:0:0:0:
256,192,134929,1,0,0:0:0:0:
256,192,134985,1,8,0:0:0:0:
256,192,135207,1,8,0:0:0:0:
256,192,135318,1,0,0:0:0:0:
256,192,135540,1,0,0:0:0:0:
256,192,135596,1,0,0:0:0:0:
256,192,135652,1,8,0:0:0:0:
256,192,135874,1,8,0:0:0:0:
256,192,135929,1,8,0:0:0:0:
256,192,135985,1,8,0:0:0:0:
256,192,136207,1,0,0:0:0:0:
256,192,136873,1,8,0:0:0:0:
256,192,137096,1,0,0:0:0:0:
256,192,137151,1,0,0:0:0:0:
256,192,137207,1,0,0:0:0:0:
256,192,137318,1,0,0:0:0:0:
256,192,137540,1,0,0:0:0:0:
256,192,137651,1,0,0:0:0:0:
256,192,137707,1,0,0:0:0:0:
256,192,137762,1,8,0:0:0:0:
256,192,137985,1,0,0:0:0:0:
256,192,138429,1,0,0:0:0:0:
256,192,138540,1,0,0:0:0:0:
256,192,138596,1,0,0:0:0:0:
256,192,138651,1,8,0:0:0:0:
256,192,138873,1,0,0:0:0:0:
256,192,138985,1,0,0:0:0:0:
256,192,139207,1,8,0:0:0:0:
256,192,139318,1,0,0:0:0:0:
256,192,139429,1,0,0:0:0:0:
256,192,139540,1,8,0:0:0:0:
256,192,139762,1,0,0:0:0:0:
256,192,140429,1,8,0:0:0:0:
256,192,140873,1,0,0:0:0:0:
256,192,140929,1,0,0:0:0:0:
256,192,140985,1,0,0:0:0:0:
256,192,141096,1,0,0:0:0:0:
256,192,141318,1,8,0:0:0:0:
256,192,141373,1,8,0:0:0:0:
256,192,141429,1,8,0:0:0:0:
256,192,141540,1,0,0:0:0:0:
256,192,141651,1,8,0:0:0:0:
256,192,141762,1,0,0:0:0:0:
256,192,141985,1,0,0:0:0:0:
256,192,142040,1,0,0:0:0:0:
256,192,142096,1,0,0:0:0:0:
256,192,142207,1,8,0:0:0:0:
256,192,142318,1,0,0:0:0:0:
256,192,142429,1,0,0:0:0:0:
256,192,142540,1,0,0:0:0:0:
256,192,142651,1,8,0:0:0:0:
256,192,142762,1,0,0:0:0:0:
256,192,142873,1,8,0:0:0:0:
256,192,143096,1,8,0:0:0:0:
256,192,143318,1,0,0:0:0:0:
256,192,143873,1,8,0:0:0:0:
256,192,143985,1,8,0:0:0:0:
256,192,144096,1,0,0:0:0:0:
256,192,144207,1,0,0:0:0:0:
256,192,144318,1,8,0:0:0:0:
256,192,144540,1,0,0:0:0:0:
256,192,144651,1,0,0:0:0:0:
256,192,144762,1,0,0:0:0:0:
256,192,144873,1,8,0:0:0:0:
256,192,145096,1,0,0:0:0:0:
256,192,145762,1,8,0:0:0:0:
256,192,145985,1,0,0:0:0:0:
256,192,146096,1,0,0:0:0:0:
256,192,146318,1,0,0:0:0:0:
256,192,146429,1,0,0:0:0:0:
256,192,146540,1,0,0:0:0:0:
256,192,146651,1,8,0:0:0:0:
256,192,146873,1,0,0:0:0:0:
256,192,147096,1,8,0:0:0:0:
256,192,147244,1,0,0:0:0:0:
256,192,147392,1,0,0:0:0:0:
256,192,147540,1,8,0:0:0:0:
256,192,147762,1,8,0:0:0:0:
256,192,147836,1,8,0:0:0:0:
256,192,147910,1,8,0:0:0:0:
256,192,147985,1,0,0:0:0:0:
256,192,148207,1,0,0:0:0:0:
256,192,148429,1,8,0:0:0:0:
256,192,148651,1,0,0:0:0:0:
256,192,148707,1,0,0:0:0:0:
256,192,148762,1,0,0:0:0:0:
256,192,148873,1,0,0:0:0:0:
256,192,149096,1,0,0:0:0:0:
256,192,149207,1,0,0:0:0:0:
256,192,149318,1,8,0:0:0:0:
256,192,149429,1,0,0:0:0:0:
256,192,149485,1,0,0:0:0:0:
256,192,149540,1,0,0:0:0:0:
256,192,149762,1,8,0:0:0:0:
256,192,149818,1,8,0:0:0:0:
256,192,149873,1,8,0:0:0:0:
256,192,149985,1,0,0:0:0:0:
256,192,150096,1,8,0:0:0:0:
256,192,150207,1,0,0:0:0:0:
256,192,151096,1,8,0:0:0:0:
256,192,151151,1,8,0:0:0:0:
256,192,151207,1,0,0:0:0:0:
256,192,151318,1,0,0:0:0:0:
256,192,151429,1,0,0:0:0:0:
256,192,151540,1,8,0:0:0:0:
256,192,151596,1,0,0:0:0:0:
256,192,151651,1,0,0:0:0:0:
256,192,151762,1,8,0:0:0:0:
256,192,152873,1,8,0:0:0:0:
256,192,153762,1,8,0:0:0:0:
256,192,154651,1,0,0:0:0:0:
256,192,154725,1,0,0:0:0:0:
256,192,154799,1,0,0:0:0:0:
256,192,154873,1,8,0:0:0:0:
256,192,154947,1,0,0:0:0:0:
256,192,155022,1,0,0:0:0:0:
256,192,155096,1,8,0:0:0:0:
256,192,155170,1,0,0:0:0:0:
256,192,155244,1,0,0:0:0:0:
256,192,155318,1,0,0:0:0:0:
256,192,155540,1,0,0:0:0:0:
256,192,155984,1,0,0:0:0:0:
256,192,156429,1,8,0:0:0:0:
256,192,156873,1,0,0:0:0:0:
256,192,157318,1,8,0:0:0:0:
256,192,157540,1,0,0:0:0:0:
256,192,157614,1,0,0:0:0:0:
256,192,157688,1,0,0:0:0:0:
256,192,157762,1,8,0:0:0:0:
256,192,158207,1,8,0:0:0:0:
256,192,158318,1,0,0:0:0:0:
256,192,158429,1,0,0:0:0:0:
256,192,158540,1,0,0:0:0:0:
256,192,158651,1,0,0:0:0:0:
256,192,158873,1,0,0:0:0:0:
256,192,158984,1,0,0:0:0:0:
256,192,159096,1,8,0:0:0:0:
256,192,159207,1,0,0:0:0:0:
256,192,159318,1,0,0:0:0:0:
256,192,159540,1,8,0:0:0:0:
256,192,159984,1,8,0:0:0:0:
256,192,160040,1,8,0:0:0:0:
256,192,160096,1,8,0:0:0:0:
256,192,160207,1,0,0:0:0:0:
256,192,160318,1,0,0:0:0:0:
256,192,160429,1,0,0:0:0:0:
256,192,160651,1,0,0:0:0:0:
256,192,160707,1,0,0:0:0:0:
256,192,160762,1,0,0:0:0:0:
256,192,160873,1,8,0:0:0:0:
256,192,160984,1,8,0:0:0:0:
256,192,161096,1,0,0:0:0:0:
256,192,161318,1,8,0:0:0:0:
256,192,161540,1,0,0:0:0:0:
256,192,161762,1,8,0:0:0:0:
256,192,161818,1,0,0:0:0:0:
256,192,161873,1,0,0:0:0:0:
256,192,161984,1,0,0:0:0:0:
256,192,162096,1,0,0:0:0:0:
256,192,162207,1,0,0:0:0:0:
256,192,162429,1,0,0:0:0:0:
256,192,162484,1,0,0:0:0:0:
256,192,162540,1,0,0:0:0:0:
256,192,162651,1,8,0:0:0:0:
256,192,162762,1,0,0:0:0:0:
256,192,162873,1,0,0:0:0:0:
256,192,162984,1,0,0:0:0:0:
256,192,163096,1,8,0:0:0:0:
256,192,163318,1,0,0:0:0:0:
256,192,163540,1,8,0:0:0:0:
256,192,163596,1,8,0:0:0:0:
256,192,163651,1,8,0:0:0:0:
256,192,163762,1,0,0:0:0:0:
256,192,163873,1,0,0:0:0:0:
256,192,163984,1,0,0:0:0:0:
256,192,164207,1,0,0:0:0:0:
256,192,164318,1,0,0:0:0:0:
256,192,164373,1,0,0:0:0:0:
256,192,164429,1,8,0:0:0:0:
256,192,164540,1,0,0:0:0:0:
256,192,164651,1,0,0:0:0:0:
256,192,164762,1,0,0:0:0:0:
256,192,164873,1,8,0:0:0:0:
256,192,164929,1,8,0:0:0:0:
256,192,164984,1,8,0:0:0:0:
256,192,165040,1,8,0:0:0:0:
256,192,165096,1,0,0:0:0:0:
256,192,165207,1,0,0:0:0:0:
256,192,165318,1,12,0:0:0:0:
256,192,167096,1,8,0:0:0:0:
256,192,167318,1,8,0:0:0:0:
256,192,167540,1,8,0:0:0:0:
256,192,167762,1,0,0:0:0:0:
256,192,167818,1,0,0:0:0:0:
256,192,167873,1,0,0:0:0:0:
256,192,167929,1,0,0:0:0:0:
256,192,167984,1,8,0:0:0:0:
256,192,178650,5,8,0:0:0:0:
256,192,178872,1,8,0:0:0:0:
256,192,179095,1,8,0:0:0:0:
256,192,179317,1,0,0:0:0:0:
256,192,179761,1,0,0:0:0:0:
256,192,179984,1,8,0:0:0:0:
256,192,180206,1,8,0:0:0:0:
256,192,180428,1,8,0:0:0:0:
256,192,180650,1,0,0:0:0:0:
256,192,181095,1,0,0:0:0:0:
256,192,181317,1,8,0:0:0:0:
256,192,181539,1,0,0:0:0:0:
256,192,181761,1,8,0:0:0:0:
256,192,181984,1,0,0:0:0:0:
256,192,182428,1,0,0:0:0:0:
256,192,182650,1,8,0:0:0:0:
256,192,182872,1,8,0:0:0:0:
256,192,183095,1,0,0:0:0:0:
256,192,183317,1,8,0:0:0:0:
256,192,183539,1,0,0:0:0:0:
256,192,183761,1,0,0:0:0:0:
256,192,183983,1,8,0:0:0:0:
256,192,184206,1,8,0:0:0:0:
256,192,184428,1,8,0:0:0:0:
256,192,184650,1,0,0:0:0:0:
256,192,184872,1,0,0:0:0:0:
256,192,185095,1,0,0:0:0:0:
256,192,185317,1,8,0:0:0:0:
256,192,185761,1,0,0:0:0:0:
256,192,185983,1,0,0:0:0:0:
256,192,186206,1,8,0:0:0:0:
256,192,186428,1,8,0:0:0:0:
256,192,186650,1,0,0:0:0:0:
256,192,187095,1,8,0:0:0:0:
256,192,187317,1,0,0:0:0:0:
256,192,187539,1,0,0:0:0:0:
256,192,187761,1,0,0:0:0:0:
256,192,187983,1,0,0:0:0:0:
256,192,188428,1,8,0:0:0:0:
256,192,188872,1,0,0:0:0:0:
256,192,189317,1,8,0:0:0:0:
256,192,189761,1,0,0:0:0:0:
256,192,189983,1,0,0:0:0:0:
256,192,190206,1,8,0:0:0:0:
256,192,190428,1,8,0:0:0:0:
256,192,190650,1,0,0:0:0:0:
256,192,191095,1,0,0:0:0:0:
256,192,191539,1,8,0:0:0:0:
256,192,191983,1,0,0:0:0:0:
256,192,192428,1,0,0:0:0:0:
256,192,192650,1,8,0:0:0:0:
256,192,192872,1,0,0:0:0:0:
256,192,193095,1,0,0:0:0:0:
256,192,193317,1,8,0:0:0:0:
256,192,193761,1,0,0:0:0:0:
256,192,193983,1,0,0:0:0:0:
256,192,194428,1,8,0:0:0:0:
256,192,194650,1,0,0:0:0:0:
256,192,194761,1,0,0:0:0:0:
256,192,194872,1,0,0:0:0:0:
256,192,194983,1,0,0:0:0:0:
256,192,195095,1,0,0:0:0:0:
256,192,195206,1,0,0:0:0:0:
256,192,195317,1,8,0:0:0:0:
256,192,195539,1,8,0:0:0:0:
256,192,195761,1,0,0:0:0:0:
256,192,195983,1,8,0:0:0:0:
256,192,196039,1,8,0:0:0:0:
256,192,196095,1,8,0:0:0:0:
256,192,196206,1,0,0:0:0:0:
256,192,196317,1,0,0:0:0:0:
256,192,196428,1,0,0:0:0:0:
256,192,196650,1,0,0:0:0:0:
256,192,196706,1,0,0:0:0:0:
256,192,196761,1,0,0:0:0:0:
256,192,196872,1,8,0:0:0:0:
256,192,196983,1,8,0:0:0:0:
256,192,197095,1,0,0:0:0:0:
256,192,197317,1,8,0:0:0:0:
256,192,197983,1,0,0:0:0:0:
256,192,198206,1,8,0:0:0:0:
256,192,198428,1,8,0:0:0:0:
256,192,198650,1,0,0:0:0:0:
256,192,199317,1,8,0:0:0:0:
256,192,199983,1,0,0:0:0:0:
256,192,200428,1,0,0:0:0:0:
256,192,200650,1,8,0:0:0:0:
256,192,200872,1,0,0:0:0:0:
256,192,201095,1,0,0:0:0:0:
256,192,201317,1,8,0:0:0:0:
256,192,201539,1,0,0:0:0:0:
256,192,201761,1,0,0:0:0:0:
256,192,201983,1,8,0:0:0:0:
256,192,202428,1,8,0:0:0:0:
256,192,202650,1,0,0:0:0:0:
256,192,202872,1,0,0:0:0:0:
256,192,203095,1,0,0:0:0:0:
256,192,203317,1,8,0:0:0:0:
256,192,203539,1,0,0:0:0:0:
256,192,203761,1,8,0:0:0:0:
256,192,203983,1,8,0:0:0:0:
256,192,204428,1,0,0:0:0:0:
256,192,204650,1,8,0:0:0:0:
256,192,205095,1,8,0:0:0:0:
256,192,205317,1,0,0:0:0:0:
256,192,205761,1,0,0:0:0:0:
256,192,205983,1,0,0:0:0:0:
256,192,206206,1,8,0:0:0:0:
256,192,206428,1,0,0:0:0:0:
256,192,206650,1,8,0:0:0:0:
256,192,206761,1,0,0:0:0:0:
256,192,206872,1,0,0:0:0:0:
256,192,206983,1,0,0:0:0:0:
256,192,207095,1,0,0:0:0:0:
256,192,207317,1,0,0:0:0:0:
256,192,207428,1,0,0:0:0:0:
256,192,207539,1,8,0:0:0:0:
256,192,207650,1,0,0:0:0:0:
256,192,207761,1,0,0:0:0:0:
256,192,207872,1,0,0:0:0:0:
256,192,207983,1,8,0:0:0:0:
256,192,208428,1,0,0:0:0:0:
256,192,208872,1,0,0:0:0:0:
256,192,209317,8,0,210650,0:0:0:0:
