osu file format v14

[General]
AudioFilename: audio.mp3
AudioLeadIn: 0
PreviewTime: 68652
Countdown: 0
SampleSet: Normal
StackLeniency: 0.7
Mode: 1
LetterboxInBreaks: 0
WidescreenStoryboard: 0

[Editor]
Bookmarks: 68874
DistanceSpacing: 0.2
BeatDivisor: 2
GridSize: 32
TimelineZoom: 1

[Metadata]
Title:Senseless Massacre
TitleUnicode:Senseless Massacre
Artist:Rings Of Saturn
ArtistUnicode:Rings Of Saturn
Creator:Vulkin
Version:Kantan
Source:
Tags:Lugal Ki En deathcore technical death metal frukoyurdakul
BeatmapID:1718770
BeatmapSetID:819819

[Difficulty]
HPDrainRate:7
CircleSize:5
OverallDifficulty:3
ApproachRate:10
SliderMultiplier:1.4
SliderTickRate:1

[Events]
//Background and Video events
0,0,"grugrugru.png",0,0
//Break Periods
2,168184,178200
//Storyboard Layer 0 (Background)
//Storyboard Layer 1 (Fail)
//Storyboard Layer 2 (Pass)
//Storyboard Layer 3 (Foreground)
//Storyboard Sound Samples

[TimingPoints]
1319,222.222222222222,4,1,0,80,1,0
40430,-100,4,1,0,80,0,1
54652,-100,4,1,0,80,0,0
122207,-100,4,1,0,80,0,1
134652,222.222222222222,6,1,0,80,1,1
135985,222.222222222222,4,1,0,80,1,0
161762,-100,4,1,0,80,0,1
165318,-100,4,1,0,80,0,0
167984,222.222222222222,6,1,0,80,1,0
167984,-100,6,1,0,80,0,0

[HitObjects]
256,192,1319,5,0,0:0:0:0:
256,192,2207,1,8,0:0:0:0:
256,192,2541,1,8,0:0:0:0:
256,192,3096,1,0,0:0:0:0:
256,192,3985,1,0,0:0:0:0:
256,192,4430,1,8,0:0:0:0:
256,192,4874,1,8,0:0:0:0:
256,192,5318,1,0,0:0:0:0:
256,192,5763,1,8,0:0:0:0:
256,192,6207,1,0,0:0:0:0:
256,192,6652,1,8,0:0:0:0:
256,192,6874,1,8,0:0:0:0:
256,192,7096,1,8,0:0:0:0:
256,192,7541,1,0,0:0:0:0:
256,192,8430,1,0,0:0:0:0:
256,192,8874,1,8,0:0:0:0:
256,192,9318,1,0,0:0:0:0:
256,192,9763,1,8,0:0:0:0:
256,192,10207,1,8,0:0:0:0:
256,192,10874,1,8,0:0:0:0:
256,192,11096,1,8,0:0:0:0:
256,192,11541,1,8,0:0:0:0:
256,192,11985,1,0,0:0:0:0:
256,192,12874,1,0,0:0:0:0:
256,192,13207,1,0,0:0:0:0:
256,192,13541,1,0,0:0:0:0:
256,192,14207,1,0,0:0:0:0:
256,192,14652,1,8,0:0:0:0:
256,192,14874,1,8,0:0:0:0:
256,192,15096,1,8,0:0:0:0:
256,192,15541,1,8,0:0:0:0:
256,192,16430,1,0,0:0:0:0:
256,192,16874,1,8,0:0:0:0:
256,192,17318,1,0,0:0:0:0:
256,192,17985,1,8,0:0:0:0:
256,192,18207,1,0,0:0:0:0:
256,192,18652,1,0,0:0:0:0:
256,192,19096,1,0,0:0:0:0:
256,192,19985,1,0,0:0:0:0:
256,192,20318,1,0,0:0:0:0:
256,192,20652,1,0,0:0:0:0:
256,192,21318,1,0,0:0:0:0:
256,192,21763,1,8,0:0:0:0:
256,192,21985,1,8,0:0:0:0:
256,192,22207,1,8,0:0:0:0:
256,192,22652,1,8,0:0:0:0:
256,192,23541,1,0,0:0:0:0:
256,192,23985,1,8,0:0:0:0:
256,192,24430,1,0,0:0:0:0:
256,192,25096,1,0,0:0:0:0:
256,192,25318,1,8,0:0:0:0:
256,192,25763,1,0,0:0:0:0:
256,192,26207,1,8,0:0:0:0:
256,192,26874,1,8,0:0:0:0:
256,192,27096,1,8,0:0:0:0:
256,192,27541,1,8,0:0:0:0:
256,192,27985,1,0,0:0:0:0:
256,192,28874,1,8,0:0:0:0:
256,192,29763,1,0,0:0:0:0:
256,192,30430,1,8,0:0:0:0:
256,192,30652,1,8,0:0:0:0:
256,192,31096,1,0,0:0:0:0:
256,192,31541,1,8,0:0:0:0:
256,192,32430,1,0,0:0:0:0:
256,192,33318,1,8,0:0:0:0:
256,192,33985,1,8,0:0:0:0:
256,192,34207,1,8,0:0:0:0:
256,192,34652,1,0,0:0:0:0:
256,192,35096,1,8,0:0:0:0:
256,192,35985,1,0,0:0:0:0:
256,192,36874,1,8,0:0:0:0:
256,192,37541,1,0,0:0:0:0:
256,192,37763,1,0,0:0:0:0:
256,192,38207,1,8,0:0:0:0:
256,192,38652,1,0,0:0:0:0:
256,192,39096,1,0,0:0:0:0:
256,192,39318,1,0,0:0:0:0:
256,192,39541,1,8,0:0:0:0:
256,192,39985,1,0,0:0:0:0:
256,192,40430,1,12,0:0:0:0:
256,192,41318,1,8,0:0:0:0:
256,192,41652,1,0,0:0:0:0:
256,192,41985,1,0,0:0:0:0:
256,192,42652,1,0,0:0:0:0:
256,192,43096,1,8,0:0:0:0:
256,192,43318,1,8,0:0:0:0:
256,192,43541,1,8,0:0:0:0:
256,192,43985,1,0,0:0:0:0:
256,192,44874,1,8,0:0:0:0:
256,192,45207,1,0,0:0:0:0:
256,192,45541,1,0,0:0:0:0:
256,192,46207,1,0,0:0:0:0:
256,192,46652,1,8,0:0:0:0:
256,192,46874,1,0,0:0:0:0:
256,192,47096,1,8,0:0:0:0:
256,192,47541,1,4,0:0:0:0:
256,192,48430,1,8,0:0:0:0:
256,192,48763,1,0,0:0:0:0:
256,192,49096,1,0,0:0:0:0:
256,192,49763,1,0,0:0:0:0:
256,192,50207,1,8,0:0:0:0:
256,192,50430,1,8,0:0:0:0:
256,192,50652,1,8,0:0:0:0:
256,192,51096,1,0,0:0:0:0:
256,192,51985,1,8,0:0:0:0:
256,192,52318,1,0,0:0:0:0:
256,192,52652,1,8,0:0:0:0:
256,192,52874,1,8,0:0:0:0:
256,192,53096,1,8,0:0:0:0:
256,192,53541,1,0,0:0:0:0:
256,192,53763,1,8,0:0:0:0:
256,192,54207,1,0,0:0:0:0:
256,192,54652,1,0,0:0:0:0:
256,192,55541,1,0,0:0:0:0:
256,192,55874,1,0,0:0:0:0:
256,192,56208,1,0,0:0:0:0:
256,192,56874,1,0,0:0:0:0:
256,192,57319,1,8,0:0:0:0:
256,192,57541,1,8,0:0:0:0:
256,192,57763,1,8,0:0:0:0:
256,192,58207,1,8,0:0:0:0:
256,192,59096,1,0,0:0:0:0:
256,192,59541,1,8,0:0:0:0:
256,192,59984,1,0,0:0:0:0:
256,192,60651,1,8,0:0:0:0:
256,192,60873,1,0,0:0:0:0:
256,192,61318,1,0,0:0:0:0:
256,192,61762,1,0,0:0:0:0:
256,192,62652,1,0,0:0:0:0:
256,192,62985,1,0,0:0:0:0:
256,192,63318,1,0,0:0:0:0:
256,192,63985,1,0,0:0:0:0:
256,192,64430,1,8,0:0:0:0:
256,192,64652,1,8,0:0:0:0:
256,192,64874,1,8,0:0:0:0:
256,192,65318,1,8,0:0:0:0:
256,192,66207,1,0,0:0:0:0:
256,192,66652,1,8,0:0:0:0:
256,192,67096,1,0,0:0:0:0:
256,192,67763,1,8,0:0:0:0:
256,192,67985,1,8,0:0:0:0:
256,192,68430,1,0,0:0:0:0:
256,192,68874,1,12,0:0:0:0:
256,192,69763,1,8,0:0:0:0:
256,192,70096,1,0,0:0:0:0:
256,192,70874,1,0,0:0:0:0:
256,192,71541,1,8,0:0:0:0:
256,192,71985,1,0,0:0:0:0:
256,192,72207,1,0,0:0:0:0:
256,192,73318,1,8,0:0:0:0:
256,192,74207,1,8,0:0:0:0:
256,192,74652,1,8,0:0:0:0:
256,192,74874,1,0,0:0:0:0:
256,192,75318,1,0,0:0:0:0:
256,192,75541,1,8,0:0:0:0:
256,192,75985,1,12,0:0:0:0:
256,192,76874,1,8,0:0:0:0:
256,192,77207,1,0,0:0:0:0:
256,192,77985,1,0,0:0:0:0:
256,192,78652,1,8,0:0:0:0:
256,192,79096,1,0,0:0:0:0:
256,192,79318,1,0,0:0:0:0:
256,192,80430,1,8,0:0:0:0:
256,192,80874,1,0,0:0:0:0:
256,192,81318,1,8,0:0:0:0:
256,192,81763,1,8,0:0:0:0:
256,192,81985,1,0,0:0:0:0:
256,192,82430,1,0,0:0:0:0:
256,192,82652,1,8,0:0:0:0:
256,192,83096,1,4,0:0:0:0:
256,192,83985,1,8,0:0:0:0:
256,192,84318,1,0,0:0:0:0:
256,192,84652,1,0,0:0:0:0:
256,192,84874,1,8,0:0:0:0:
256,192,85318,1,8,0:0:0:0:
256,192,85763,1,8,0:0:0:0:
256,192,86652,1,8,0:0:0:0:
256,192,87541,1,8,0:0:0:0:
256,192,87874,1,0,0:0:0:0:
256,192,88207,1,0,0:0:0:0:
256,192,88430,1,8,0:0:0:0:
256,192,88874,1,0,0:0:0:0:
256,192,89318,1,8,0:0:0:0:
256,192,89763,1,0,0:0:0:0:
256,192,89985,1,0,0:0:0:0:
256,192,90207,1,0,0:0:0:0:
256,192,91096,1,8,0:0:0:0:
256,192,91430,1,0,0:0:0:0:
256,192,91763,1,0,0:0:0:0:
256,192,91985,1,8,0:0:0:0:
256,192,92430,1,0,0:0:0:0:
256,192,92874,1,8,0:0:0:0:
256,192,93318,1,0,0:0:0:0:
256,192,93763,1,0,0:0:0:0:
256,192,94652,1,8,0:0:0:0:
256,192,94985,1,8,0:0:0:0:
256,192,95318,1,0,0:0:0:0:
256,192,95541,1,8,0:0:0:0:
256,192,95985,1,0,0:0:0:0:
256,192,96207,1,0,0:0:0:0:
256,192,96430,1,8,0:0:0:0:
256,192,96652,1,0,0:0:0:0:
256,192,96874,1,8,0:0:0:0:
256,192,97318,1,12,0:0:0:0:
256,192,98207,1,8,0:0:0:0:
256,192,98541,1,0,0:0:0:0:
256,192,99318,1,0,0:0:0:0:
256,192,99985,1,8,0:0:0:0:
256,192,100430,1,0,0:0:0:0:
256,192,100652,1,0,0:0:0:0:
256,192,101763,1,8,0:0:0:0:
256,192,102652,1,8,0:0:0:0:
256,192,103096,1,8,0:0:0:0:
256,192,103318,1,0,0:0:0:0:
256,192,103763,1,0,0:0:0:0:
256,192,103985,1,8,0:0:0:0:
256,192,104430,1,8,0:0:0:0:
256,192,105318,1,8,0:0:0:0:
256,192,105652,1,0,0:0:0:0:
256,192,105874,1,0,0:0:0:0:
256,192,106430,1,0,0:0:0:0:
256,192,107096,1,8,0:0:0:0:
256,192,107541,1,0,0:0:0:0:
256,192,107763,1,0,0:0:0:0:
256,192,108207,1,8,0:0:0:0:
256,192,108430,1,8,0:0:0:0:
256,192,108874,1,8,0:0:0:0:
256,192,109096,1,0,0:0:0:0:
256,192,109318,1,0,0:0:0:0:
256,192,109763,1,8,0:0:0:0:
256,192,110207,1,8,0:0:0:0:
256,192,110430,1,0,0:0:0:0:
256,192,110874,1,0,0:0:0:0:
256,192,111096,1,8,0:0:0:0:
256,192,111541,1,0,0:0:0:0:
256,192,112429,1,8,0:0:0:0:
256,192,112763,1,8,0:0:0:0:
256,192,113318,1,0,0:0:0:0:
256,192,114207,1,0,0:0:0:0:
256,192,114652,1,8,0:0:0:0:
256,192,115096,1,8,0:0:0:0:
256,192,115540,1,0,0:0:0:0:
256,192,115985,1,8,0:0:0:0:
256,192,116429,1,0,0:0:0:0:
256,192,116874,1,8,0:0:0:0:
256,192,117096,1,8,0:0:0:0:
256,192,117318,1,8,0:0:0:0:
256,192,117763,1,0,0:0:0:0:
256,192,118652,1,0,0:0:0:0:
256,192,119096,1,8,0:0:0:0:
256,192,119540,1,0,0:0:0:0:
256,192,119985,1,8,0:0:0:0:
256,192,120429,1,8,0:0:0:0:
256,192,121096,1,8,0:0:0:0:
256,192,121318,1,8,0:0:0:0:
256,192,121763,1,8,0:0:0:0:
256,192,122207,1,0,0:0:0:0:
256,192,123096,1,8,0:0:0:0:
256,192,123541,1,0,0:0:0:0:
256,192,123763,1,0,0:0:0:0:
256,192,124207,1,0,0:0:0:0:
256,192,124430,1,8,0:0:0:0:
256,192,124874,1,8,0:0:0:0:
256,192,125541,1,8,0:0:0:0:
256,192,125985,1,0,0:0:0:0:
256,192,126207,1,8,0:0:0:0:
256,192,126652,1,0,0:0:0:0:
256,192,126874,1,8,0:0:0:0:
256,192,127541,1,0,0:0:0:0:
256,192,128874,1,8,0:0:0:0:
256,192,129096,1,0,0:0:0:0:
256,192,129318,1,8,0:0:0:0:
256,192,130207,1,8,0:0:0:0:
256,192,130652,1,0,0:0:0:0:
256,192,130874,1,0,0:0:0:0:
256,192,131318,1,0,0:0:0:0:
256,192,131541,1,8,0:0:0:0:
256,192,131985,1,8,0:0:0:0:
256,192,132207,1,8,0:0:0:0:
256,192,132430,1,0,0:0:0:0:
256,192,132652,1,8,0:0:0:0:
256,192,133096,1,0,0:0:0:0:
256,192,133318,1,8,0:0:0:0:
256,192,133763,1,0,0:0:0:0:
256,192,133985,1,8,0:0:0:0:
256,192,134652,1,8,0:0:0:0:
256,192,135985,1,0,0:0:0:0:
256,192,136207,1,0,0:0:0:0:
256,192,136873,1,8,0:0:0:0:
256,192,137318,1,0,0:0:0:0:
256,192,137762,1,0,0:0:0:0:
256,192,137985,1,0,0:0:0:0:
256,192,138651,1,8,0:0:0:0:
256,192,139540,1,0,0:0:0:0:
256,192,139762,1,0,0:0:0:0:
256,192,140429,1,8,0:0:0:0:
256,192,140873,1,0,0:0:0:0:
256,192,141318,1,0,0:0:0:0:
256,192,141762,1,0,0:0:0:0:
256,192,142207,1,8,0:0:0:0:
256,192,142651,1,8,0:0:0:0:
256,192,142873,1,8,0:0:0:0:
256,192,143096,1,0,0:0:0:0:
256,192,143318,1,0,0:0:0:0:
256,192,143985,1,8,0:0:0:0:
256,192,144873,1,0,0:0:0:0:
256,192,145096,1,0,0:0:0:0:
256,192,145762,1,8,0:0:0:0:
256,192,146651,1,0,0:0:0:0:
256,192,146873,1,0,0:0:0:0:
256,192,147540,1,8,0:0:0:0:
256,192,147985,1,0,0:0:0:0:
256,192,148429,1,8,0:0:0:0:
256,192,148873,1,0,0:0:0:0:
256,192,149318,1,8,0:0:0:0:
256,192,149540,1,0,0:0:0:0:
256,192,149762,1,8,0:0:0:0:
256,192,149985,1,8,0:0:0:0:
256,192,150207,1,0,0:0:0:0:
256,192,151096,1,8,0:0:0:0:
256,192,151540,1,8,0:0:0:0:
256,192,151762,1,8,0:0:0:0:
256,192,152873,1,8,0:0:0:0:
256,192,153762,1,8,0:0:0:0:
256,192,154651,1,0,0:0:0:0:
256,192,155096,1,0,0:0:0:0:
256,192,155540,1,0,0:0:0:0:
256,192,156429,1,8,0:0:0:0:
256,192,157318,1,8,0:0:0:0:
256,192,157762,1,0,0:0:0:0:
256,192,158207,1,8,0:0:0:0:
256,192,159096,1,8,0:0:0:0:
256,192,159540,1,8,0:0:0:0:
256,192,159984,1,8,0:0:0:0:
256,192,160873,1,8,0:0:0:0:
256,192,161318,1,0,0:0:0:0:
256,192,161762,1,8,0:0:0:0:
256,192,161984,1,0,0:0:0:0:
256,192,162207,1,0,0:0:0:0:
256,192,162651,1,8,0:0:0:0:
256,192,163096,1,0,0:0:0:0:
256,192,163540,1,8,0:0:0:0:
256,192,163762,1,0,0:0:0:0:
256,192,163984,1,0,0:0:0:0:
256,192,164207,1,0,0:0:0:0:
256,192,164429,1,8,0:0:0:0:
256,192,164873,1,0,0:0:0:0:
256,192,165318,1,12,0:0:0:0:
256,192,165762,12,0,167540,0:0:0:0:
256,192,167984,5,8,0:0:0:0:
256,192,178650,5,8,0:0:0:0:
256,192,179984,1,0,0:0:0:0:
256,192,181317,1,0,0:0:0:0:
256,192,182650,1,8,0:0:0:0:
256,192,183317,1,0,0:0:0:0:
256,192,183983,1,8,0:0:0:0:
256,192,185317,1,8,0:0:0:0:
256,192,186650,1,0,0:0:0:0:
256,192,189317,1,0,0:0:0:0:
256,192,190206,1,8,0:0:0:0:
256,192,190428,1,8,0:0:0:0:
256,192,190650,1,0,0:0:0:0:
256,192,191983,1,0,0:0:0:0:
256,192,192650,1,8,0:0:0:0:
256,192,192872,1,0,0:0:0:0:
256,192,193095,1,0,0:0:0:0:
256,192,193317,1,8,0:0:0:0:
256,192,193983,1,0,0:0:0:0:
256,192,194650,1,0,0:0:0:0:
256,192,195095,1,0,0:0:0:0:
256,192,195539,1,0,0:0:0:0:
256,192,195983,1,8,0:0:0:0:
256,192,196650,1,0,0:0:0:0:
256,192,197317,1,8,0:0:0:0:
256,192,198206,1,8,0:0:0:0:
256,192,198428,1,8,0:0:0:0:
256,192,198650,1,0,0:0:0:0:
256,192,199983,1,0,0:0:0:0:
256,192,201317,1,0,0:0:0:0:
256,192,201983,1,8,0:0:0:0:
256,192,202650,1,0,0:0:0:0:
256,192,203317,1,8,0:0:0:0:
256,192,203983,1,8,0:0:0:0:
256,192,204650,1,0,0:0:0:0:
256,192,205317,1,8,0:0:0:0:
256,192,206650,1,8,0:0:0:0:
256,192,207095,1,0,0:0:0:0:
256,192,207539,1,0,0:0:0:0:
256,192,207761,1,0,0:0:0:0:
256,192,207983,1,8,0:0:0:0:
256,192,209317,12,0,210650,0:0:0:0:
