osu file format v14

[General]
AudioFilename: audio.mp3
AudioLeadIn: 0
PreviewTime: 84089
Countdown: 0
SampleSet: Soft
StackLeniency: 0.5
Mode: 0
LetterboxInBreaks: 0
WidescreenStoryboard: 0

[Editor]
DistanceSpacing: 1.4
BeatDivisor: 4
GridSize: 32
TimelineZoom: 3.499999

[Metadata]
Title:Happy Halloween
TitleUnicode:Happy Halloween
Artist:Rindou Mikoto
ArtistUnicode:竜胆尊
Creator:Yugu
Version:Trick or Treat
Source:
Tags:Vtuber Virtual YouTuber バーチャルYouTuber にじさんじ 2434 SEEDs junky kanor
BeatmapID:1846556
BeatmapSetID:883339

[Difficulty]
HPDrainRate:6
CircleSize:4
OverallDifficulty:7.5
ApproachRate:8
SliderMultiplier:1.92
SliderTickRate:1

[Events]
//Background and Video events
0,0,"62153.png",0,0
//Break Periods
//Storyboard Layer 0 (Background)
//Storyboard Layer 1 (Fail)
//Storyboard Layer 2 (Pass)
//Storyboard Layer 3 (Foreground)
//Storyboard Sound Samples

[TimingPoints]
214,500,4,2,1,30,1,0
11214,-66.6666666666667,4,2,1,70,0,0
12214,-83.3333333333333,4,2,1,60,0,0
27214,-66.6666666666667,4,2,1,60,0,0
28214,-100,4,2,1,40,0,0
35714,-83.3333333333333,4,2,1,40,0,0
36214,-100,4,2,1,40,0,0
37714,-83.3333333333333,4,2,1,40,0,0
38214,-100,4,2,1,40,0,0
39214,-83.3333333333333,4,2,1,40,0,0
39714,-100,4,2,1,40,0,0
42214,-83.3333333333333,4,2,1,40,0,0
44214,-83.3333333333333,4,2,1,60,0,0
51214,-66.6666666666667,4,2,1,60,0,0
52214,-100,4,2,1,40,0,0
59714,-83.3333333333333,4,2,1,40,0,0
60214,-100,4,2,1,40,0,0
61714,-83.3333333333333,4,2,1,40,0,0
62089,-100,4,2,1,40,0,0
63214,-83.3333333333333,4,2,1,40,0,0
63464,-100,4,2,1,40,0,0
66214,-100,4,2,1,30,0,0
67964,-166.666666666667,4,2,1,30,0,0
76214,-125,4,2,1,40,0,0
83214,-66.6666666666667,4,2,1,70,0,0
84214,-76.9230769230769,4,2,1,90,0,1
116214,-76.9230769230769,4,2,1,90,0,0

[Colours]
Combo1 : 232,56,245
Combo2 : 128,64,64
Combo3 : 164,164,164

[HitObjects]
256,192,214,5,8,0:0:0:0:
256,192,464,1,8,0:0:0:0:
256,192,714,1,8,0:0:0:0:
256,192,2214,5,8,0:0:0:0:
256,192,2464,1,8,0:0:0:0:
256,192,2714,1,8,0:0:0:0:
256,192,4214,5,8,0:0:0:0:
256,192,4464,1,8,0:0:0:0:
256,192,4714,2,0,L|159:201,1,96,8|0,0:0|0:0,0:0:0:0:
75,302,5214,1,0,0:0:0:0:
75,302,5339,1,0,0:0:0:0:
75,302,5464,1,0,0:0:0:0:
249,304,5714,1,0,0:0:0:0:
160,200,5964,2,0,L|92:206,1,48
194,93,6214,5,8,0:0:0:0:
194,93,6464,1,8,0:0:0:0:
194,93,6714,1,8,0:0:0:0:
217,90,6839,1,0,0:0:0:0:
241,88,6964,1,0,0:0:0:0:
361,21,7214,5,0,0:0:0:0:
319,152,7464,1,0,0:0:0:0:
402,217,7714,5,0,0:0:0:0:
368,321,7964,1,0,0:0:0:0:
499,170,8214,6,0,L|493:123,1,48,8|0,0:0|0:0,0:0:0:0:
511,74,8464,2,0,L|505:121,1,48,8|0,0:0|0:0,0:0:0:0:
417,113,8714,1,8,0:0:0:0:
487,266,8964,1,0,0:0:0:0:
487,266,9089,1,0,0:0:0:0:
487,266,9214,5,0,0:0:0:0:
463,259,9339,1,0,0:0:0:0:
439,259,9464,1,0,0:0:0:0:
415,264,9589,2,0,L|424:291,1,24
395,278,9714,2,0,L|394:306,1,24
374,290,9839,2,0,L|363:316,1,24
350,290,9964,1,0,0:0:0:0:
326,285,10089,1,0,0:0:0:0:
306,271,10214,5,8,0:0:0:0:
306,271,10464,1,8,0:0:0:0:
306,271,10714,1,8,0:0:0:0:
352,203,10964,1,0,0:0:0:0:
154,117,11214,6,0,P|155:201|182:243,1,96.0000036621095,2|0,0:0|0:0,0:0:0:0:
341,123,11464,2,0,P|352:76|346:29,1,96.0000036621095,2|0,0:0|0:0,0:0:0:0:
171,227,11714,2,0,B|233:224|272:165|272:165|302:205|353:203,1,216.000008239746,2|8,0:0|0:0,0:0:0:0:
307,337,12214,6,0,B|287:355|287:355|280:266,1,115.199996484375,6|0,0:0|0:0,0:0:0:0:
154,117,12714,2,0,P|107:94|28:98,1,115.199996484375,8|0,0:0|0:0,0:0:0:0:
261,84,13214,2,0,P|277:59|318:37,2,57.5999982421876,2|0|0,0:0|0:0|0:0,0:0:0:0:
171,227,13714,1,8,0:0:0:0:
306,186,13964,1,0,0:0:0:0:
306,186,14089,1,0,0:0:0:0:
306,186,14214,6,0,B|343:161|382:178|382:178|410:234,1,115.199996484375,2|0,0:0|0:0,0:0:0:0:
281,310,14714,2,0,P|252:325|222:366,2,57.5999982421876,8|0|0,0:0|0:0|0:0,0:0:0:0:
399,361,15214,1,2,0:0:0:0:
421,343,15339,2,0,P|427:313|424:278,1,57.5999982421876,8|0,0:0|0:0,0:0:0:0:
481,151,15714,1,2,0:0:0:0:
476,122,15839,2,0,P|453:101|421:86,1,57.5999982421876,8|0,0:0|0:0,0:0:0:0:
306,186,16214,6,0,P|252:183|181:140,1,115.199996484375,2|0,0:0|0:0,0:0:0:0:
92,0,16714,2,0,P|116:48|114:131,1,115.199996484375,8|0,0:0|0:0,0:0:0:0:
32,236,17214,2,0,P|20:269|27:318,2,57.5999982421876,2|0|0,0:0|0:0|0:0,0:0:0:0:
17,79,17714,1,8,0:0:0:0:
118,192,17964,1,0,0:0:0:0:
118,192,18089,1,0,0:0:0:0:
118,192,18214,6,0,P|152:185|191:155,2,57.5999982421876,2|8|0,0:0|0:0|0:0,0:0:0:0:
260,251,18714,1,8,0:0:0:0:
240,98,18964,1,0,0:0:0:0:
177,267,19214,1,2,0:0:0:0:
171,295,19339,2,0,P|177:331|187:352,1,57.5999982421876,8|0,0:0|0:0,0:0:0:0:
357,342,19714,2,0,P|366:286|343:235,1,115.199996484375,8|0,0:0|0:0,0:0:0:0:
374,149,20089,1,8,0:0:0:0:
392,127,20214,6,0,L|520:116,1,115.199996484375,6|0,0:0|0:0,0:0:0:0:
342,234,20714,2,0,P|294:190|289:108,1,115.199996484375,8|0,0:0|0:0,0:0:0:0:
412,38,21214,2,0,L|514:29,2,57.5999982421876,2|0|0,0:0|0:0|0:0,0:0:0:0:
282,143,21714,1,8,0:0:0:0:
229,27,21964,1,0,0:0:0:0:
229,27,22089,1,0,0:0:0:0:
229,27,22214,6,0,P|165:30|108:76,1,115.199996484375,2|0,0:0|0:0,0:0:0:0:
55,208,22714,2,0,P|41:235|37:278,2,57.5999982421876,8|0|0,0:0|0:0|0:0,0:0:0:0:
142,270,23214,1,2,0:0:0:0:
161,292,23339,2,0,L|168:359,1,57.5999982421876,8|0,0:0|0:0,0:0:0:0:
316,184,23714,1,2,0:0:0:0:
297,206,23839,2,0,L|290:273,1,57.5999982421876,8|0,0:0|0:0,0:0:0:0:
475,150,24214,5,2,0:0:0:0:
456,128,24339,1,0,0:0:0:0:
430,114,24464,1,0,0:0:0:0:
401,108,24589,1,0,0:0:0:0:
372,112,24714,1,8,0:0:0:0:
262,56,24964,5,0,0:0:0:0:
235,66,25089,1,0,0:0:0:0:
206,67,25214,2,0,L|143:50,1,57.5999982421876,2|0,0:0|0:0,0:0:0:0:
94,131,25464,2,0,L|31:114,1,57.5999982421876
130,217,25714,2,0,L|140:254,4,28.7999991210938,8|0|0|0|0,0:0|0:0|0:0|0:0|0:0,0:0:0:0:
156,265,26089,1,0,0:0:0:0:
167,291,26214,6,0,L|161:352,1,57.5999982421876,2|0,0:0|0:0,0:0:0:0:
258,237,26464,2,0,L|314:228,1,57.5999982421876,8|0,0:0|0:0,0:0:0:0:
255,159,26714,2,0,L|357:143,1,76.7999976562501,2|8,0:0|0:0,0:0:0:0:
369,141,26964,2,0,P|377:102|361:49,1,76.7999976562501,0|8,0:0|0:0,0:0:0:0:
255,41,27214,6,0,P|234:98|241:150,1,96.0000036621095,2|0,0:0|0:0,0:0:0:0:
134,204,27464,2,0,P|72:218|14:205,1,96.0000036621095,8|0,0:0|0:0,0:0:0:0:
206,267,27714,2,0,B|239:237|275:251|305:274|294:320|294:320|334:306|364:335|364:335|418:330,1,240.000009155274,2|8,0:0|0:0,0:0:0:0:
454,366,28214,5,6,0:0:0:0:
485,266,28464,1,0,0:0:0:0:
446,167,28714,2,0,P|404:143|328:129,1,96,2|0,0:0|0:0,0:0:0:0:
288,51,29214,5,2,0:0:0:0:
229,139,29464,1,0,0:0:0:0:
149,69,29714,2,0,B|143:29|177:4|177:4|214:16,1,96,2|0,0:0|0:0,0:0:0:0:
229,139,30214,6,0,P|241:194|227:244,1,96,2|0,0:0|0:0,0:0:0:0:
141,319,30714,2,0,P|94:334|39:327,1,96,2|0,0:0|0:0,0:0:0:0:
16,205,31214,1,2,0:0:0:0:
148,190,31464,1,0,0:0:0:0:
38,114,31714,2,0,P|23:70|38:12,1,96,2|0,0:0|0:0,0:0:0:0:
177,7,32214,6,0,P|195:52|188:99,1,96,2|0,0:0|0:0,0:0:0:0:
280,175,32714,1,2,0:0:0:0:
358,76,32964,1,0,0:0:0:0:
431,187,33214,2,0,L|415:316,1,96,2|0,0:0|0:0,0:0:0:0:
509,250,33714,5,2,0:0:0:0:
344,233,33964,1,0,0:0:0:0:
341,256,34089,1,0,0:0:0:0:
338,280,34214,5,2,0:0:0:0:
431,187,34464,1,0,0:0:0:0:
347,134,34714,1,2,0:0:0:0:
260,180,34964,1,0,0:0:0:0:
164,222,35214,6,0,L|264:210,1,96,2|0,0:0|0:0,0:0:0:0:
86,143,35714,2,0,L|226:126,1,115.199996484375,8|0,0:0|0:0,0:0:0:0:
259,81,36089,1,8,0:0:0:0:
276,8,36214,5,6,0:0:0:0:
171,22,36464,1,0,0:0:0:0:
259,81,36714,2,0,P|304:78|345:41,1,96,2|0,0:0|0:0,0:0:0:0:
315,214,37214,5,2,0:0:0:0:
210,200,37464,1,0,0:0:0:0:
185,318,37714,2,0,L|189:192,1,115.199996484375,2|0,0:0|0:0,0:0:0:0:
80,304,38214,6,0,P|41:319|-15:315,1,96,2|0,0:0|0:0,0:0:0:0:
19,160,38714,2,0,P|58:145|114:149,1,96,2|0,0:0|0:0,0:0:0:0:
211,8,39214,2,0,L|207:134,1,115.199996484375,2|0,0:0|0:0,0:0:0:0:
290,75,39714,1,2,0:0:0:0:
125,60,39964,1,0,0:0:0:0:
180,201,40214,6,0,P|248:194|283:157,1,96,2|0,0:0|0:0,0:0:0:0:
345,271,40714,1,2,0:0:0:0:
409,151,40964,1,0,0:0:0:0:
475,278,41214,2,0,P|493:343|487:395,1,96,2|0,0:0|0:0,0:0:0:0:
395,175,41714,1,2,0:0:0:0:
465,68,41964,2,0,L|523:60,1,48
331,124,42214,6,0,P|291:114|254:77,1,76.7999976562501,2|0,0:0|0:0,0:0:0:0:
199,42,42464,2,0,P|185:99|200:144,1,76.7999976562501,8|0,0:0|0:0,0:0:0:0:
136,177,42714,1,2,0:0:0:0:
136,177,42839,1,8,0:0:0:0:
136,177,42964,2,0,L|29:191,1,76.7999976562501,2|0,0:0|0:0,0:0:0:0:
205,225,43214,6,0,P|219:282|204:327,1,76.7999976562501,2|8,0:0|0:0,0:0:0:0:
286,342,43464,2,0,P|317:314|367:304,1,76.7999976562501
424,332,43714,2,0,L|435:377,2,38.399998828125,2|0|0,0:0|0:0|0:0,0:0:0:0:
411,252,43964,2,0,P|411:207|439:154,1,76.7999976562501,2|8,0:0|0:0,0:0:0:0:
512,124,44214,6,0,P|482:143|377:137,1,115.199996484375,6|0,0:0|0:0,0:0:0:0:
246,90,44714,2,0,B|260:6|260:6|296:49,1,115.199996484375,8|0,0:0|0:0,0:0:0:0:
313,188,45214,2,0,B|327:272,2,57.5999982421876,2|0|0,0:0|0:0|0:0,0:0:0:0:
394,64,45714,1,8,0:0:0:0:
231,176,45964,1,0,0:0:0:0:
231,176,46089,1,8,0:0:0:0:
231,176,46214,6,0,B|254:318,1,115.199996484375,2|0,0:0|0:0,0:0:0:0:
62,360,46714,2,0,P|35:363|3:354,2,57.5999982421876,8|0|0,0:0|0:0|0:0,0:0:0:0:
137,251,47214,1,2,0:0:0:0:
146,223,47339,2,0,B|132:139,1,57.5999982421876,8|0,0:0|0:0,0:0:0:0:
20,101,47714,1,2,0:0:0:0:
11,73,47839,2,0,B|25:-11,1,57.5999982421876,8|0,0:0|0:0,0:0:0:0:
196,103,48214,5,2,0:0:0:0:
223,111,48339,1,0,0:0:0:0:
251,110,48464,1,0,0:0:0:0:
278,102,48589,1,0,0:0:0:0:
302,86,48714,1,8,0:0:0:0:
406,157,48964,5,0,0:0:0:0:
416,130,49089,1,0,0:0:0:0:
417,101,49214,2,0,L|405:34,1,57.5999982421876,2|0,0:0|0:0,0:0:0:0:
493,168,49464,2,0,L|481:235,1,57.5999982421876
403,295,49714,1,8,0:0:0:0:
403,295,49839,2,0,L|410:335,2,28.7999991210938
386,365,50089,1,0,0:0:0:0:
357,362,50214,6,0,L|269:354,1,57.5999982421876,2|8,0:0|0:0,0:0:0:0:
241,240,50464,2,0,P|244:205|274:160,1,57.5999982421876
184,314,50714,2,0,L|71:324,1,76.7999976562501,2|0,0:0|0:0,0:0:0:0:
74,300,50964,2,0,P|62:251|80:198,1,76.7999976562501
127,171,51214,6,0,L|176:166,2,48.0000018310548,2|8|0,0:0|0:0|0:0,0:0:0:0:
47,115,51464,2,0,L|-2:110,2,48.0000018310548
128,46,51714,2,0,B|152:73|181:76|207:64|231:42|225:3|225:3|254:33|293:15|293:15|333:-2,1,240.000009155274,2|8,0:0|0:0,0:0:0:0:
376,49,52214,5,6,0:0:0:0:
480,34,52464,1,0,0:0:0:0:
495,138,52714,2,0,P|484:194|445:242,1,96,2|0,0:0|0:0,0:0:0:0:
391,153,53214,5,2,0:0:0:0:
303,230,53464,1,0,0:0:0:0:
363,316,53714,2,0,L|468:307,1,96,8|0,0:0|0:0,0:0:0:0:
476,291,54089,1,8,0:0:0:0:
486,269,54214,6,0,P|495:234|478:172,1,96,2|0,0:0|0:0,0:0:0:0:
381,62,54714,2,0,P|367:107|376:154,1,96,2|0,0:0|0:0,0:0:0:0:
303,230,55214,1,2,0:0:0:0:
288,248,55339,2,0,L|231:239,1,48,8|0,0:0|0:0,0:0:0:0:
129,365,55714,2,0,P|121:309|144:250,1,96,8|0,0:0|0:0,0:0:0:0:
128,247,56089,1,0,0:0:0:0:
114,227,56214,6,0,L|-11:207,1,96,2|0,0:0|0:0,0:0:0:0:
185,160,56714,1,2,0:0:0:0:
106,61,56964,1,0,0:0:0:0:
266,25,57214,1,2,0:0:0:0:
265,48,57339,2,0,L|262:133,1,48,8|0,0:0|0:0,0:0:0:0:
325,172,57714,5,8,0:0:0:0:
187,113,57964,1,0,0:0:0:0:
186,136,58089,1,8,0:0:0:0:
185,160,58214,1,2,0:0:0:0:
184,184,58339,2,0,L|181:269,1,48
264,300,58714,5,2,0:0:0:0:
325,172,58964,1,0,0:0:0:0:
405,288,59214,2,0,L|413:200,1,48,2|8,0:0|0:0,0:0:0:0:
487,272,59464,2,0,L|492:208,1,64,0|8,0:0|0:0,0:0:0:0:
474,201,59714,6,0,L|491:6,1,191.999994140625,2|8,0:0|0:0,0:0:0:0:
459,30,60214,5,6,0:0:0:0:
360,68,60464,1,0,0:0:0:0:
262,27,60714,2,0,P|256:78|276:132,1,96,2|0,0:0|0:0,0:0:0:0:
206,205,61214,5,2,0:0:0:0:
100,197,61464,1,0,0:0:0:0:
179,305,61714,2,0,P|235:304|283:273,1,115.199996484375,8|0,0:0|0:0,0:0:0:0:
295,251,62089,2,0,L|317:268,1,16,0|8,0:0|0:0,0:0:0:0:
304,230,62214,6,0,P|335:190|383:172,1,96,2|0,0:0|0:0,0:0:0:0:
398,277,62714,1,8,0:0:0:0:
451,185,62964,1,0,0:0:0:0:
335,102,63214,6,0,L|242:92,1,76.7999976562501,2|8,0:0|0:0,0:0:0:0:
204,42,63464,2,0,L|111:52,1,64
91,104,63714,1,8,0:0:0:0:
236,187,63963,2,0,L|329:197,1,64,0|8,0:0|0:0,0:0:0:0:
344,254,64214,5,2,0:0:0:0:
193,314,64464,1,8,0:0:0:0:
165,217,64713,2,0,P|159:179|183:131,1,64,2|8,0:0|0:0,0:0:0:0:
236,187,64963,2,0,P|242:225|218:273,1,64,0|8,0:0|0:0,0:0:0:0:
193,314,65213,6,0,L|100:324,1,64,2|8,0:0|0:0,0:0:0:0:
73,371,65464,1,0,0:0:0:0:
29,233,65714,1,2,0:0:0:0:
91,104,65964,2,0,P|97:65|85:22,1,64,0|8,0:0|0:0,0:0:0:0:
21,70,66214,5,2,0:0:0:0:
183,151,66964,5,0,0:0:0:0:
253,117,67214,1,0,0:0:0:0:
379,52,67964,5,0,0:0:0:0:
449,86,68214,2,0,P|456:141|440:207,1,115.199996484375,4|0,0:0|0:0,0:0:0:0:
326,226,68964,5,0,0:0:0:0:
256,192,69214,2,0,P|249:137|265:71,1,115.199996484375
133,52,69964,5,0,0:0:0:0:
63,86,70214,2,0,P|56:141|72:207,1,115.199996484375
186,226,70964,5,0,0:0:0:0:
256,192,71214,2,0,P|263:137|247:71,1,115.199996484375
327,226,71964,5,0,0:0:0:0:
370,291,72214,2,0,P|362:338|292:384,1,115.199996484375
185,226,72964,5,0,0:0:0:0:
142,291,73214,2,0,P|150:338|220:384,1,115.199996484375
256,320,73964,1,0,0:0:0:0:
327,226,74214,6,0,P|352:191|379:175,1,57.5999982421876
185,226,74714,2,0,P|160:191|133:175,1,57.5999982421876,0|2,0:0|0:0,0:0:0:0:
256,192,75214,2,0,L|256:136,1,38.399998828125,0|2,0:0|0:0,0:0:0:0:
256,134,75464,1,0,0:0:0:0:
184,59,75714,1,0,0:0:0:0:
328,59,75964,1,2,0:0:0:0:
184,59,76214,6,0,P|157:100|151:140,1,76.8,6|0,0:0|0:0,0:0:0:0:
64,192,76714,2,0,P|86:235|117:261,1,76.8,2|0,0:0|0:0,0:0:0:0:
172,339,77214,2,0,L|246:332,1,51.2,2|0,0:0|0:0,0:0:0:0:
248,332,77464,1,0,0:0:0:0:
215,235,77714,1,2,0:0:0:0:
316,254,77964,1,0,0:0:0:0:
283,157,78214,6,0,L|294:72,1,76.8,2|0,0:0|0:0,0:0:0:0:
384,138,78714,2,0,L|373:53,1,76.8,2|0,0:0|0:0,0:0:0:0:
465,119,79214,2,0,L|474:45,1,51.2,2|8,0:0|0:0,0:0:0:0:
476,42,79464,1,0,0:0:0:0:
454,196,79714,1,2,0:0:0:0:
374,61,79964,1,8,0:0:0:0:
352,215,80214,5,2,0:0:0:0:
394,278,80464,1,2,0:0:0:0:
372,351,80714,1,2,0:0:0:0:
334,357,80839,1,2,0:0:0:0:
296,363,80964,1,2,0:0:0:0:
258,369,81089,1,2,0:0:0:0:
220,375,81214,6,2,L|210:310,1,51.2,2|10,0:0|0:3,0:0:0:0:
146,285,81464,2,0,L|156:220,1,51.2,2|8,0:0|0:0,0:0:0:0:
205,176,81714,2,0,L|278:170,1,51.2,2|0,0:0|0:0,0:0:0:0:
155,117,81964,2,0,L|82:111,1,51.2,2|8,0:0|0:0,0:0:0:0:
39,155,82214,5,0,0:0:0:0:
103,198,82464,5,0,0:0:0:0:
167,155,82714,5,0,0:0:0:0:
231,198,82964,5,0,0:0:0:0:
295,155,83214,6,0,P|337:79|335:35,1,96.0000036621095,6|0,0:0|0:0,0:0:0:0:
359,198,83464,6,0,P|401:274|399:318,1,96.0000036621095,6|0,0:0|0:0,0:0:0:0:
423,155,83714,6,0,P|465:79|463:35,1,96.0000036621095,6|0,0:0|0:0,0:0:0:0:
487,198,83964,6,0,P|508:236|507:258,2,48.0000018310548,2|0|8,0:0|0:0|0:3,0:0:0:0:
476,312,84214,6,0,B|440:323|440:323|337:309,1,124.79999428711,6|0,0:0|0:0,0:0:0:0:
227,223,84714,2,0,P|229:158|273:96,1,124.79999428711,8|0,0:0|0:0,0:0:0:0:
157,29,85214,2,0,L|89:21,1,62.3999971435548,2|0,0:0|0:0,0:0:0:0:
63,93,85464,1,0,0:0:0:0:
63,93,85589,2,0,L|-5:85,1,62.3999971435548,0|8,0:0|0:0,0:0:0:0:
38,196,85839,5,2,0:3:0:0:
25,237,85964,1,2,0:3:0:0:
29,280,86089,1,2,0:3:0:0:
52,316,86214,6,0,L|194:308,1,124.79999428711,2|0,0:0|0:0,0:0:0:0:
321,362,86714,2,0,P|334:296|297:220,1,124.79999428711,8|0,0:0|0:0,0:0:0:0:
200,155,87214,2,0,P|198:119|208:91,1,62.3999971435548,2|8,0:0|0:0,0:0:0:0:
294,60,87464,1,0,0:0:0:0:
294,60,87589,2,0,P|296:24|286:-4,1,62.3999971435548,0|8,0:0|0:0,0:0:0:0:
344,124,87839,21,2,0:3:0:0:
383,141,87964,1,2,0:3:0:0:
426,143,88089,1,2,0:3:0:0:
466,127,88214,5,2,0:0:0:0:
257,176,88464,2,0,P|228:170|179:135,1,62.3999971435548
280,253,88714,5,8,0:0:0:0:
429,227,88964,2,0,P|458:221|507:186,1,62.3999971435548
406,304,89214,5,2,0:0:0:0:
236,321,89464,1,0,0:0:0:0:
236,321,89589,2,0,L|163:311,1,62.3999971435548,0|8,0:0|0:0,0:0:0:0:
41,183,89964,5,0,0:0:0:0:
95,332,90214,2,0,L|105:259,1,62.3999971435548,2|8,0:0|0:0,0:0:0:0:
171,171,90464,2,0,L|156:61,1,83.1999961914064
173,47,90714,21,8,0:0:0:0:
213,32,90839,1,2,0:3:0:0:
256,36,90964,1,2,0:3:0:0:
293,59,91089,1,2,0:3:0:0:
317,96,91214,6,0,L|309:150,1,41.5999980957032,2|8,0:0|0:0,0:0:0:0:
296,228,91464,1,0,0:0:0:0:
501,112,91714,1,8,0:0:0:0:
411,276,91964,2,0,P|414:334|448:375,1,83.1999961914064,0|8,0:0|0:0,0:0:0:0:
454,362,92214,6,0,P|494:318|501:252,1,124.79999428711,6|0,0:0|0:0,0:0:0:0:
384,130,92714,2,0,L|239:115,1,124.79999428711,8|0,0:0|0:0,0:0:0:0:
109,188,93214,2,0,P|96:214|94:260,1,62.3999971435548,2|0,0:0|0:0,0:0:0:0:
47,313,93464,1,0,0:0:0:0:
47,313,93589,2,0,P|63:337|101:361,1,62.3999971435548,0|8,0:0|0:0,0:0:0:0:
188,330,93839,5,2,0:3:0:0:
226,310,93964,1,2,0:3:0:0:
269,307,94089,1,2,0:3:0:0:
310,321,94214,6,0,P|319:243|281:181,1,124.79999428711,2|0,0:0|0:0,0:0:0:0:
130,177,94714,2,0,P|121:99|159:37,1,124.79999428711,8|0,0:0|0:0,0:0:0:0:
316,99,95214,2,0,L|403:84,1,62.3999971435548,2|8,0:0|0:0,0:0:0:0:
416,176,95464,1,0,0:0:0:0:
416,176,95589,2,0,L|503:161,1,62.3999971435548,0|8,0:0|0:0,0:0:0:0:
364,240,95839,21,2,0:3:0:0:
320,232,95964,1,2,0:3:0:0:
276,224,96089,1,2,0:3:0:0:
232,216,96214,5,2,0:0:0:0:
336,353,96464,1,0,0:0:0:0:
339,149,96714,1,8,0:0:0:0:
161,249,96964,1,0,0:0:0:0:
302,250,97214,6,0,L|389:235,1,62.3999971435548,2|0,0:0|0:0,0:0:0:0:
230,331,97464,1,0,0:0:0:0:
230,331,97589,2,0,L|143:316,1,62.3999971435548,0|8,0:0|0:0,0:0:0:0:
75,347,97839,5,2,0:3:0:0:
64,304,97964,1,2,0:3:0:0:
67,260,98089,1,2,0:3:0:0:
83,219,98214,6,0,P|94:190|91:148,1,62.3999971435548,2|8,0:0|0:0,0:0:0:0:
31,94,98464,1,0,0:0:0:0:
193,187,98714,1,8,0:0:0:0:
193,0,98964,1,0,0:0:0:0:
322,145,99214,2,0,P|321:171|317:189,1,41.5999980957032,0|8,0:0|0:0,0:0:0:0:
410,29,99464,1,0,0:0:0:0:
258,73,99714,1,8,0:0:0:0:
386,217,99964,2,0,P|391:263|378:304,1,83.1999961914064,0|8,0:0|0:0,0:0:0:0:
348,324,100214,6,0,L|476:302,1,124.79999428711,6|0,0:0|0:0,0:0:0:0:
437,134,100714,2,0,P|377:120|322:145,1,124.79999428711,8|0,0:0|0:0,0:0:0:0:
218,284,101214,2,0,P|229:307|232:360,1,62.3999971435548,2|0,0:0|0:0,0:0:0:0:
153,338,101464,1,0,0:0:0:0:
153,338,101589,2,0,P|138:359|94:388,1,62.3999971435548,0|8,0:0|0:0,0:0:0:0:
77,306,101839,5,2,0:3:0:0:
67,263,101964,1,2,0:3:0:0:
70,219,102089,1,2,0:3:0:0:
86,178,102214,6,0,P|97:109|45:35,1,124.79999428711,2|0,0:0|0:0,0:0:0:0:
179,85,102589,1,0,0:0:0:0:
179,85,102714,2,0,L|304:72,1,124.79999428711,8|0,0:0|0:0,0:0:0:0:
468,126,103214,6,0,P|475:161|466:198,1,62.3999971435548,2|8,0:0|0:0,0:0:0:0:
409,247,103464,1,0,0:0:0:0:
365,244,103589,1,0,0:0:0:0:
321,241,103714,2,0,L|239:235,1,62.3999971435548,8|0,0:0|0:0,0:0:0:0:
340,334,103964,2,0,L|422:328,1,62.3999971435548
475,293,104214,5,2,0:0:0:0:
396,157,104464,1,0,0:0:0:0:
250,304,104714,1,8,0:0:0:0:
302,141,104964,1,0,0:0:0:0:
183,269,105214,6,0,P|175:300|190:354,1,62.3999971435548,2|0,0:0|0:0,0:0:0:0:
127,215,105464,1,0,0:0:0:0:
127,215,105589,2,0,P|96:223|56:263,1,62.3999971435548,0|8,0:0|0:0,0:0:0:0:
208,125,105964,6,0,P|212:95|202:58,1,62.3999971435548
128,101,106214,2,0,P|104:82|66:72,1,62.3999971435548,2|8,0:0|0:0,0:0:0:0:
15,129,106464,1,0,0:0:0:0:
15,129,106589,1,0,0:0:0:0:
15,129,106714,2,0,L|30:255,1,124.79999428711,8|0,0:0|0:0,0:0:0:0:
183,269,107214,6,0,L|175:332,2,41.5999980957032,2|8|0,0:0|0:0|0:0,0:0:0:0:
216,244,107464,2,0,P|254:224|311:231,1,83.1999961914064
323,253,107714,1,8,0:0:0:0:
414,378,107964,2,0,L|426:277,1,83.1999961914064,0|8,0:0|0:0,0:0:0:0:
458,272,108214,6,0,P|479:210|456:151,1,124.79999428711,6|0,0:0|0:0,0:0:0:0:
312,50,108714,2,0,B|213:32|213:32|248:97,1,124.79999428711,8|0,0:0|0:0,0:0:0:0:
343,124,109214,2,0,P|368:107|393:57,1,62.3999971435548,2|0,0:0|0:0,0:0:0:0:
307,194,109464,1,0,0:0:0:0:
307,194,109589,2,0,P|309:224|340:270,1,62.3999971435548,0|8,0:0|0:0,0:0:0:0:
266,314,109839,21,2,0:3:0:0:
222,309,109964,1,2,0:3:0:0:
178,304,110089,1,2,0:3:0:0:
134,299,110214,5,2,0:0:0:0:
332,368,110464,1,0,0:0:0:0:
217,224,110714,1,8,0:0:0:0:
142,384,110964,1,0,0:0:0:0:
129,214,111214,6,0,P|122:181|91:149,1,62.3999971435548,2|0,0:0|0:0,0:0:0:0:
18,83,111464,1,0,0:0:0:0:
18,83,111589,1,0,0:0:0:0:
18,83,111714,2,0,P|25:50|55:18,1,62.3999971435548,8|0,0:0|0:0,0:0:0:0:
187,91,111964,2,0,P|194:130|178:181,1,62.3999971435548
233,21,112214,5,2,0:0:0:0:
103,87,112464,1,0,0:0:0:0:
283,167,112714,1,8,0:0:0:0:
149,17,112964,1,0,0:0:0:0:
209,206,113214,6,0,P|195:244|203:288,1,62.3999971435548,2|0,0:0|0:0,0:0:0:0:
151,333,113464,1,0,0:0:0:0:
151,333,113589,2,0,L|79:324,1,62.3999971435548,0|8,0:0|0:0,0:0:0:0:
224,369,113839,21,2,0:3:0:0:
267,370,113964,1,2,0:3:0:0:
308,357,114089,1,2,0:3:0:0:
341,328,114214,6,0,L|350:256,1,62.3999971435548,2|0,0:0|0:0,0:0:0:0:
428,214,114464,1,0,0:0:0:0:
224,126,114714,1,8,0:0:0:0:
402,77,114964,1,0,0:0:0:0:
281,16,115214,6,0,P|308:57|308:103,1,83.1999961914064,2|8,0:0|0:0,0:0:0:0:
304,131,115464,1,0,0:0:0:0:
151,333,115714,1,8,0:0:0:0:
64,116,115964,2,0,B|70:52|70:52|106:84,1,83.1999961914064,0|8,0:0|0:0,0:0:0:0:
144,121,116214,5,6,0:0:0:0:
