osu file format v14

[General]
AudioFilename: audio.mp3
AudioLeadIn: 0
PreviewTime: 97040
Countdown: 0
SampleSet: Soft
StackLeniency: 0.7
Mode: 0
LetterboxInBreaks: 0
WidescreenStoryboard: 0

[Editor]
DistanceSpacing: 1.3
BeatDivisor: 4
GridSize: 16
TimelineZoom: 1

[Metadata]
Title:We Are Number One but it's in Japanese
TitleUnicode:We Are Number One but it's in Japanese ☆彡
Artist:Rindou
ArtistUnicode:Rindou
Creator:XVoIR
Version:Orera Saikou! Extra
Source:LazyTown
Tags:robbie rotten mani svavarsson touhou bad apple mrdorian chalwa deadpon3 asserin lukermaster lkr
BeatmapID:1261882
BeatmapSetID:596816

[Difficulty]
HPDrainRate:6
CircleSize:5
OverallDifficulty:8
ApproachRate:9
SliderMultiplier:1.8
SliderTickRate:1

[Events]
//Background and Video events
0,0,"bg.jpg",0,0
Video,0,"v3.mp4"
//Break Periods
2,38985,40466
2,61037,63570
2,84370,85422
2,92148,96440
2,103907,106533
//Storyboard Layer 0 (Background)
//Storyboard Layer 1 (Fail)
//Storyboard Layer 2 (Pass)
//Storyboard Layer 3 (Foreground)
//Storyboard Sound Samples

[TimingPoints]
26763,370.37037037037,4,2,0,100,1,0
26763,-100,4,2,0,100,0,1
32318,-50,4,2,0,100,0,1
32688,-100,4,2,0,100,0,1
38614,-100,4,2,0,100,0,0
53429,-100,4,3,0,100,0,0
56207,-100,4,2,0,100,0,0
70837,-50,4,2,0,100,0,0
71207,-100,4,2,0,100,0,0
97040,-100,4,3,0,100,0,0
97874,-100,4,2,0,100,0,0
107133,-100,4,2,0,100,0,0
113800,-50,4,2,0,100,0,0
114170,-100,4,2,0,100,0,0
131948,-83.3333333333333,4,2,0,100,0,1
149355,-50,4,2,0,100,0,1
149725,-83.3333333333333,4,2,0,100,0,1
157133,-83.3333333333333,4,2,0,100,0,0
158614,-83.3333333333333,4,2,0,100,0,1
158985,-100,4,2,0,100,0,0

[Colours]
Combo1 : 126,210,255
Combo2 : 204,183,67
Combo3 : 204,195,172

[HitObjects]
68,269,26763,6,0,P|120:256|131:134,1,180,4|8,0:2|0:0,0:0:0:0:
256,72,27318,1,0,0:0:0:0:
371,145,27503,1,0,0:0:0:0:
357,187,27595,1,0,0:0:0:0:
367,230,27688,1,0,0:0:0:0:
400,260,27780,1,0,0:0:0:0:
439,282,27874,2,0,P|452:332|436:373,1,90,8|0,0:0|0:0,0:0:0:0:
206,342,28244,6,0,B|270:342|270:342|297:327|297:327|388:327,2,180,0|8|0,0:0|0:0|0:0,0:0:0:0:
80,271,29170,1,0,0:0:0:0:
205,198,29355,1,8,0:0:0:0:
206,342,29540,1,0,0:0:0:0:
67,348,29725,6,0,P|17:310|54:201,1,180,2|8,0:0|0:0,0:0:0:0:
162,258,30281,1,0,0:0:0:0:
278,201,30466,2,0,P|328:163|291:54,1,180,2|8,0:0|0:0,0:0:0:0:
166,113,31022,1,0,0:0:0:0:
245,263,31207,5,2,0:0:0:0:
182,96,31392,1,2,0:0:0:0:
41,207,31577,1,10,0:0:0:0:
196,80,31763,5,2,0:0:0:0:
124,312,31948,1,2,0:0:0:0:
311,197,32318,6,0,L|498:164,1,180,10|0,0:0|0:0,0:0:0:0:
292,124,32688,6,0,P|245:163|316:274,1,180,4|8,0:0|0:0,0:0:0:0:
416,254,33244,1,0,0:0:0:0:
363,117,33429,1,0,0:0:0:0:
341,78,33521,1,0,0:0:0:0:
302,57,33614,1,0,0:0:0:0:
258,62,33706,1,0,0:0:0:0:
223,89,33801,2,0,P|182:108|132:100,1,90,8|0,0:0|0:0,0:0:0:0:
114,248,34170,6,0,P|170:224|294:293,2,180,0|8|0,0:0|0:0|0:0,0:0:0:0:
39,331,35096,1,0,0:0:0:0:
190,312,35281,1,8,0:0:0:0:
99,191,35466,1,0,0:0:0:0:
294,179,35651,6,0,B|285:247|285:247|263:285|263:285|256:360,1,180,2|8,0:0|0:0,0:0:0:0:
385,316,36207,1,0,0:0:0:0:
215,205,36392,2,0,B|224:137|224:137|246:99|246:99|253:24,1,180,2|8,0:0|0:0,0:0:0:0:
124,68,36948,1,0,0:0:0:0:
351,143,37133,5,2,0:0:0:0:
181,25,37318,1,2,0:0:0:0:
212,202,37503,1,10,0:0:0:0:
273,22,37688,5,2,0:0:0:0:
325,259,37874,2,0,P|366:260|411:232,1,90,2|0,0:0|0:0,0:0:0:0:
212,202,38244,2,0,P|171:201|126:229,1,90,8|0,0:0|0:0,0:0:0:0:
242,292,38614,5,4,0:0:0:0:
186,299,41577,5,4,0:0:0:0:
61,239,41763,1,0,0:0:0:0:
222,228,41948,2,0,P|258:272|257:335,1,90,8|0,0:0|0:0,0:0:0:0:
141,196,42318,2,0,P|196:145|297:181,1,180,0|8,0:0|0:0,0:0:0:0:
369,117,42874,1,0,0:0:0:0:
390,226,43059,6,0,P|444:201|481:93,1,180,0|8,0:0|0:0,0:0:0:0:
405,26,43614,1,0,0:0:0:0:
368,138,43800,2,0,L|391:231,1,90
222,228,44170,2,0,L|245:135,1,90,8|0,0:0|0:0,0:0:0:0:
197,309,44540,5,2,0:0:0:0:
121,204,44725,1,0,0:0:0:0:
45,316,44911,1,8,0:0:0:0:
222,228,45096,1,0,0:0:0:0:
35,136,45281,2,0,L|45:320,1,180,0|8,0:0|0:0,0:0:0:0:
121,204,45837,1,0,0:0:0:0:
173,70,46022,6,0,P|128:93|41:41,1,120,2|2,0:0|0:0,0:0:0:0:
37,48,46392,1,8,0:0:0:0:
235,34,46577,1,0,0:0:0:0:
205,151,46763,2,8,P|225:197|266:217,1,90
359,80,47133,2,8,P|339:34|298:14,1,90,8|8,0:2|0:0,0:0:0:0:
327,212,47503,5,2,0:0:0:0:
426,88,47688,1,0,0:0:0:0:
482,238,47874,2,0,L|459:336,1,90,8|0,0:0|0:0,0:0:0:0:
327,212,48244,1,0,0:0:0:0:
492,152,48429,1,0,0:0:0:0:
462,326,48614,1,8,0:0:0:0:
378,151,48800,1,0,0:0:0:0:
318,291,48985,6,0,P|277:302|191:209,1,180,2|10,0:0|0:0,0:0:0:0:
369,252,49540,2,0,P|366:337|340:354,1,90,2|0,0:0|0:0,0:0:0:0:
276,217,49911,1,8,0:0:0:0:
281,195,50003,1,8,0:0:0:0:
286,171,50096,2,0,P|292:122|284:80,1,90,8|0,0:0|0:0,0:0:0:0:
205,22,50466,5,2,0:0:0:0:
89,141,50651,1,0,0:0:0:0:
114,23,50837,1,8,0:0:0:0:
220,153,51022,1,0,0:0:0:0:
30,188,51207,2,0,P|15:132|29:98,1,90
151,239,51577,2,8,P|166:295|152:329,1,90,8|0,0:0|0:0,0:0:0:0:
30,188,51948,6,0,L|225:155,1,180,2|10,0:0|0:0,0:0:0:0:
344,130,52503,1,2,0:0:0:0:
311,251,52688,2,0,L|215:233,1,90
403,181,53059,2,0,L|499:163,1,90,8|8,0:0|0:0,0:0:0:0:
382,295,53429,6,0,P|334:281|309:247,1,90
238,311,53800,2,0,P|213:267|220:225,1,90,8|0,0:0|0:0,0:0:0:0:
247,161,54077,1,0,0:0:0:0:
247,161,54170,1,0,0:0:0:0:
161,94,54355,1,0,0:0:0:0:
138,97,54447,1,0,0:0:0:0:
116,102,54540,2,0,L|26:116,1,90,8|0,0:0|0:0,0:0:0:0:
209,37,54911,6,0,L|259:43,1,45,0|0,3:0|3:0,3:0:0:0:
325,52,55096,2,0,L|375:58,1,45,0|0,3:0|3:0,3:0:0:0:
474,119,55281,5,0,3:0:0:0:
429,124,55373,1,0,3:0:0:0:
387,147,55466,1,0,3:0:0:0:
342,152,55558,1,0,3:0:0:0:
302,171,55651,1,0,3:0:0:0:
302,171,56207,5,0,0:0:0:0:
223,223,56392,2,0,L|212:318,1,90
128,352,56762,1,2,0:0:0:0:
48,304,56948,1,2,0:0:0:0:
128,256,57133,1,0,0:0:0:0:
58,216,57318,1,0,0:0:0:0:
58,216,57411,1,0,0:0:0:0:
58,216,57503,1,2,0:0:0:0:
96,144,57688,1,0,0:0:0:0:
222,147,57874,6,0,P|208:232|127:262,1,180,0|2,0:0|0:0,0:0:0:0:
169,94,58429,1,0,0:0:0:0:
187,80,58521,1,0,0:0:0:0:
207,71,58614,2,0,P|257:58|308:63,1,90
373,108,58985,1,2,0:0:0:0:
384,88,59077,1,0,0:0:0:0:
391,67,59170,1,0,0:0:0:0:
290,147,59355,6,0,P|304:232|385:262,1,180,0|2,0:0|0:0,0:0:0:0:
490,249,59911,1,2,0:0:0:0:
437,339,60096,1,0,0:0:0:0:
374,182,60281,1,0,0:0:0:0:
374,182,60374,1,0,0:0:0:0:
374,182,60466,1,2,0:0:0:0:
313,316,60651,1,0,0:0:0:0:
256,64,60837,5,2,0:0:0:0:
14,180,64170,5,0,0:0:0:0:
249,218,64540,1,0,0:0:0:0:
168,256,64725,1,0,0:0:0:0:
305,276,64911,1,0,3:0:0:0:
349,281,65003,1,0,3:0:0:0:
394,287,65096,1,0,3:0:0:0:
438,293,65188,1,0,3:0:0:0:
483,299,65281,6,0,P|490:240|416:153,1,180,4|8,0:0|0:0,0:0:0:0:
277,114,65837,1,0,0:0:0:0:
166,206,66022,1,0,0:0:0:0:
127,183,66114,1,0,0:0:0:0:
100,147,66207,1,0,0:0:0:0:
90,103,66299,1,0,0:0:0:0:
98,59,66392,2,0,P|154:47|199:53,1,90,8|0,0:0|0:0,0:0:0:0:
313,84,66762,6,0,B|379:77|440:87|440:87|400:54|380:57,2,180,0|8|0,0:0|0:0|0:0,0:0:0:0:
249,144,67688,1,0,0:0:0:0:
343,18,67874,1,8,0:0:0:0:
405,162,68059,1,0,0:0:0:0:
215,115,68244,6,0,B|167:117|167:117|132:98|132:98|26:107,1,180,2|8,0:0|0:0,0:0:0:0:
114,175,68800,1,0,0:0:0:0:
206,42,68985,2,0,B|254:44|254:44|289:25|289:25|395:34,1,180,2|8,0:0|0:0,0:0:0:0:
307,102,69541,1,0,0:0:0:0:
219,258,69725,5,2,0:0:0:0:
141,101,69911,1,2,0:0:0:0:
74,298,70096,1,2,0:0:0:0:
3,148,70281,5,2,0:0:0:0:
286,189,70466,2,0,L|278:299,1,90
402,207,70837,6,0,L|419:14,1,180,2|0,0:0|0:0,0:0:0:0:
286,189,71207,6,0,P|198:216|130:145,1,180,4|8,0:0|0:0,0:0:0:0:
93,57,71762,1,0,0:0:0:0:
49,180,71948,1,0,0:0:0:0:
41,224,72040,1,0,0:0:0:0:
34,268,72133,1,0,0:0:0:0:
27,313,72225,1,0,0:0:0:0:
20,357,72318,2,0,P|71:372|117:353,1,90,8|0,0:0|0:0,0:0:0:0:
214,251,72688,6,0,P|270:211|386:274,2,180,0|8|0,0:0|0:0|0:0,0:0:0:0:
130,263,73614,1,0,0:0:0:0:
248,141,73800,1,8,0:0:0:0:
294,304,73985,1,0,0:0:0:0:
248,141,74170,6,0,B|158:124|158:124|95:60,1,180,2|8,0:0|0:0,0:0:0:0:
308,86,74725,1,0,0:0:0:0:
190,204,74911,2,0,B|280:221|280:221|343:285,1,180,2|8,0:0|0:0,0:0:0:0:
130,259,75466,1,0,0:0:0:0:
376,153,75651,5,0,0:0:0:0:
247,292,75837,1,2,0:0:0:0:
191,59,76022,1,10,0:0:0:0:
376,153,76207,5,2,0:0:0:0:
132,173,76392,2,0,L|125:237,1,45,2|0,3:0|3:0,3:0:0:0:
40,219,76577,2,0,L|33:284,1,45,0|0,3:0|3:0,3:0:0:0:
117,323,76762,1,8,3:2:0:0:
368,256,77133,5,2,0:0:0:0:
208,208,77318,1,0,0:0:0:0:
320,320,77503,5,2,0:0:0:0:
256,144,77688,1,0,0:0:0:0:
256,352,77874,5,2,0:0:0:0:
320,96,78059,2,0,L|384:80,1,45,2|0,3:2|3:0,3:0:0:0:
481,127,78244,1,2,3:2:0:0:
450,134,78336,1,2,3:2:0:0:
419,142,78429,1,2,3:2:0:0:
389,150,78521,1,2,3:2:0:0:
358,158,78614,6,0,L|168:202,1,180,4|8,0:0|0:0,0:0:0:0:
70,164,79170,1,0,0:0:0:0:
205,124,79355,1,0,0:0:0:0:
241,148,79447,1,0,0:0:0:0:
260,189,79540,1,0,0:0:0:0:
253,232,79632,1,0,0:0:0:0:
223,266,79725,2,0,P|176:296|125:293,1,90,8|0,0:0|0:0,0:0:0:0:
327,202,80096,6,0,B|395:235|395:235|431:226|431:226|505:255,2,180,0|8|0,0:0|0:0|0:0,0:0:0:0:
422,139,81022,1,0,0:0:0:0:
458,317,81207,1,8,0:0:0:0:
285,259,81392,1,0,0:0:0:0:
489,173,81577,6,0,P|496:122|390:68,1,180,2|8,0:0|0:0,0:0:0:0:
244,112,82133,1,0,0:0:0:0:
423,138,82318,2,0,L|241:112,1,180,2|8,0:0|0:0,0:0:0:0:
106,85,82874,1,0,0:0:0:0:
141,256,83059,5,2,0:0:0:0:
203,39,83244,1,2,0:0:0:0:
272,176,83429,1,10,0:0:0:0:
435,258,83614,5,2,0:0:0:0:
339,64,83800,2,0,L|326:117,1,45,0|0,3:0|3:0,3:0:0:0:
272,176,83985,2,0,L|259:229,1,45,0|0,3:0|3:0,3:0:0:0:
213,288,84170,1,8,3:2:0:0:
215,290,86022,6,0,L|107:276,1,90
293,257,86392,1,2,0:0:0:0:
393,351,86577,2,0,P|339:356|293:255,1,180
427,282,87133,2,0,P|464:321|462:371,1,90,2|0,0:0|0:0,0:0:0:0:
358,284,87503,6,0,P|358:225|252:195,1,180,0|2,0:0|0:0,0:0:0:0:
171,227,88059,2,0,P|126:240|46:148,1,180
154,73,88614,2,0,L|127:159,1,90,2|0,0:0|0:0,0:0:0:0:
71,72,88985,5,0,0:0:0:0:
204,163,89170,2,0,L|234:67,1,90,0|2,0:0|0:0,0:0:0:0:
331,103,89540,2,0,B|277:91|277:91|250:96|250:96|144:69,1,180
252,13,90096,1,2,0:0:0:0:
282,166,90281,1,0,0:0:0:0:
414,72,90466,6,0,P|366:83|325:106,1,90
380,190,90837,1,2,0:0:0:0:
282,166,91022,2,0,P|314:269|415:288,1,180
493,322,91577,1,2,0:0:0:0:
223,342,91762,5,2,0:0:0:0:
330,102,91948,1,4,0:0:0:0:
330,102,97040,5,0,3:0:0:0:
330,102,97133,2,0,L|446:94,1,90,8|0,3:2|3:0,3:0:0:0:
276,40,97503,2,0,L|160:32,1,90,0|4,3:0|3:2,3:0:0:0:
185,249,97874,6,0,P|235:222|254:103,1,180,4|8,0:0|0:0,0:0:0:0:
166,151,98429,1,0,0:0:0:0:
185,249,98614,2,0,B|254:266|254:266|273:255|273:255|378:276,1,180,0|8,0:0|0:0,0:0:0:0:
291,338,99170,1,0,0:0:0:0:
423,206,99355,6,0,P|431:156|418:114,1,90
377,44,99725,1,8,0:0:0:0:
252,176,99911,2,0,L|129:140,1,90
342,249,100281,2,0,L|465:213,1,90,0|8,0:0|0:0,0:0:0:0:
512,203,100651,1,0,0:0:0:0:
256,272,100837,5,2,0:0:0:0:
400,336,101022,1,0,0:0:0:0:
208,320,101207,5,8,0:0:0:0:
384,256,101392,1,0,0:0:0:0:
272,336,101577,5,2,0:0:0:0:
416,163,101762,1,0,0:0:0:0:
336,352,101948,5,8,0:0:0:0:
381,85,102133,1,0,0:0:0:0:
208,320,102318,5,10,0:0:0:0:
163,53,102503,1,0,0:0:0:0:
100,339,102688,2,0,P|105:289|82:246,1,90,10|0,0:0|0:0,0:0:0:0:
19,115,103059,2,0,P|14:165|37:208,1,90,2|0,0:0|0:0,0:0:0:0:
97,151,103337,1,0,0:0:0:0:
97,151,103429,2,0,L|199:139,1,90,10|0,0:0|0:0,0:0:0:0:
206,138,103707,1,0,0:0:0:0:
148,149,107133,5,0,0:0:0:0:
302,187,107503,2,0,P|299:230|276:272,1,90
251,352,107874,1,0,3:0:0:0:
223,336,107966,1,0,3:0:0:0:
204,311,108059,1,0,3:0:0:0:
195,281,108151,1,0,3:0:0:0:
198,249,108244,6,0,P|285:184|381:222,1,180,4|8,0:0|0:0,0:0:0:0:
297,292,108800,1,0,0:0:0:0:
389,264,108985,1,0,0:0:0:0:
418,231,109077,1,0,0:0:0:0:
426,187,109170,1,0,0:0:0:0:
407,147,109262,1,0,0:0:0:0:
370,123,109355,2,0,P|307:102|270:109,1,90,8|0,0:0|0:0,0:0:0:0:
193,143,109725,6,0,P|141:161|65:49,2,180,0|8|0,0:0|0:0|0:0,0:0:0:0:
284,104,110651,1,0,0:0:0:0:
142,79,110837,1,8,0:0:0:0:
192,215,111022,1,0,0:0:0:0:
284,104,111207,6,0,P|340:98|436:177,1,180,2|8,0:0|0:0,0:0:0:0:
370,256,111762,1,0,0:0:0:0:
227,153,111948,2,0,P|171:147|75:226,1,180,2|8,0:0|0:0,0:0:0:0:
184,336,112503,1,0,0:0:0:0:
303,253,112688,6,0,L|313:148,1,90,2|0,0:0|0:0,0:0:0:0:
176,247,113059,2,0,L|186:352,1,90,10|0,0:0|0:0,0:0:0:0:
321,323,113429,2,0,P|366:294|374:258,1,90,2|0,0:0|0:0,0:0:0:0:
471,315,113800,6,0,P|467:218|390:155,1,180,10|0,0:0|0:0,0:0:0:0:
257,75,114170,6,0,P|246:130|340:190,1,180,4|8,0:0|0:0,0:0:0:0:
469,124,114725,1,0,0:0:0:0:
321,117,114911,1,0,0:0:0:0:
276,111,115003,1,0,0:0:0:0:
233,122,115096,1,0,0:0:0:0:
197,149,115188,1,0,0:0:0:0:
174,187,115281,2,0,P|163:233|171:285,1,90,8|0,0:0|0:0,0:0:0:0:
294,273,115651,6,0,B|367:223|399:303|465:234,2,180,0|8|0,0:0|0:0|0:0,0:0:0:0:
189,340,116577,1,0,0:0:0:0:
255,195,116762,1,8,0:0:0:0:
347,324,116948,1,0,0:0:0:0:
177,251,117133,6,0,B|130:258|130:258|53:149,1,180,2|8,0:0|0:0,0:0:0:0:
166,175,117688,1,0,0:0:0:0:
313,161,117874,2,0,B|360:154|360:154|437:263,1,180,2|8,0:0|0:0,0:0:0:0:
324,237,118429,1,0,0:0:0:0:
453,161,118614,5,0,3:0:0:0:
399,88,118985,1,4,3:2:0:0:
309,93,119355,1,0,3:0:0:0:
218,102,119633,1,0,3:0:0:0:
218,102,119725,2,0,L|114:108,1,90,4|0,3:2|3:0,3:0:0:0:
126,274,120096,5,4,0:0:0:0:
214,256,120281,1,0,0:0:0:0:
195,168,120466,1,8,0:0:0:0:
107,186,120651,1,0,0:0:0:0:
183,329,120837,2,0,L|369:291,1,180,0|8,0:0|0:0,0:0:0:0:
479,266,121392,1,0,0:0:0:0:
365,136,121577,6,0,P|359:185|372:228,1,90
483,353,121948,2,0,P|489:304|476:261,1,90,8|0,0:0|0:0,0:0:0:0:
446,182,122318,1,2,0:0:0:0:
412,300,122503,1,2,0:0:0:0:
276,153,122688,2,0,L|373:134,1,90,10|2,0:0|0:0,0:0:0:0:
194,167,123059,5,0,0:0:0:0:
250,61,123244,1,0,0:0:0:0:
332,230,123429,1,8,0:0:0:0:
434,124,123614,1,0,0:0:0:0:
252,216,123800,2,0,P|270:283|376:301,1,180,0|8,0:0|0:0,0:0:0:0:
465,264,124355,1,0,0:0:0:0:
333,230,124540,6,0,L|240:257,1,90
150,125,124911,2,0,L|243:152,1,90,8|0,0:0|0:0,0:0:0:0:
134,237,125281,1,2,0:0:0:0:
50,132,125466,1,2,0:0:0:0:
152,45,125651,1,10,0:0:0:0:
236,150,125836,1,2,0:0:0:0:
121,248,126022,6,0,P|167:234|273:306,1,180,4|8,0:0|0:0,0:0:0:0:
173,341,126577,1,0,0:0:0:0:
310,364,126762,1,0,0:0:0:0:
352,349,126854,1,0,0:0:0:0:
383,317,126947,1,0,0:0:0:0:
399,275,127039,1,0,0:0:0:0:
394,231,127133,2,0,P|387:183|399:139,1,90,8|0,0:0|0:0,0:0:0:0:
474,250,127503,6,0,P|430:306|323:276,2,180,0|8|0,0:0|0:0|0:0,0:0:0:0:
495,145,128429,1,0,0:0:0:0:
394,230,128614,1,8,0:0:0:0:
377,97,128800,1,0,0:0:0:0:
286,175,128985,6,0,L|103:183,1,180,2|10,0:0|0:0,0:0:0:0:
1,190,129540,1,2,0:0:0:0:
164,274,129725,2,0,L|347:282,1,180,2|10,0:0|0:0,0:0:0:0:
449,289,130280,1,2,0:0:0:0:
402,132,130466,5,0,0:0:0:0:
313,352,130651,1,0,3:0:0:0:
313,352,130744,1,0,3:0:0:0:
313,352,130837,1,8,0:3:0:0:
250,204,131022,1,0,3:0:0:0:
512,169,131207,6,0,L|489:242,1,45,0|0,0:2|3:0,3:0:0:0:
438,301,131392,2,0,L|415:228,1,45,0|0,3:0|3:0,3:0:0:0:
385,127,131577,1,8,0:3:0:0:
252,132,131948,6,0,B|144:192|144:80|32:144,1,215.999993408203,4|8,0:0|0:0,0:0:0:0:
193,71,132503,1,0,0:0:0:0:
94,201,132688,1,0,0:0:0:0:
85,253,132780,1,0,0:0:0:0:
108,301,132873,1,0,0:0:0:0:
155,326,132965,1,0,0:0:0:0:
207,319,133059,2,0,L|315:285,1,107.999996704102,8|0,0:0|0:0,0:0:0:0:
408,131,133429,6,0,P|322:176|315:296,2,215.999993408203,0|8|0,0:0|0:0|0:0,0:0:0:0:
491,273,134355,1,0,0:0:0:0:
318,182,134540,1,8,0:0:0:0:
483,77,134725,1,0,0:0:0:0:
314,39,134911,6,0,B|224:31|224:31|188:61|188:61|96:45,1,215.999993408203,2|8,0:0|0:0,0:0:0:0:
248,111,135466,1,0,0:0:0:0:
92,165,135651,2,0,B|182:157|182:157|218:187|218:187|310:171,1,215.999993408203,2|8,0:0|0:0,0:0:0:0:
158,237,136206,1,0,0:0:0:0:
16,128,136392,6,0,L|6:19,1,107.999996704102,2|0,0:0|0:0,0:0:0:0:
295,173,136762,2,0,L|285:282,1,107.999996704102,10|0,0:0|0:0,0:0:0:0:
139,333,137133,2,0,P|98:336|71:333,1,53.9999983520508,2|0,0:0|0:0,0:0:0:0:
66,193,137318,1,0,0:0:0:0:
83,181,137411,1,0,0:0:0:0:
99,173,137503,2,0,P|140:170|167:173,1,53.9999983520508,8|0,0:0|0:0,0:0:0:0:
237,217,137688,2,0,P|278:220|305:217,1,53.9999983520508
401,303,137874,6,0,L|427:87,1,215.999993408203,4|8,0:0|0:0,0:0:0:0:
501,184,138429,1,0,0:0:0:0:
346,115,138614,1,0,0:0:0:0:
296,93,138706,1,0,0:0:0:0:
243,89,138799,1,0,0:0:0:0:
191,105,138891,1,0,0:0:0:0:
149,137,138985,2,0,P|107:154|45:141,1,107.999996704102,8|0,0:0|0:0,0:0:0:0:
276,25,139355,6,0,B|282:84|282:84|266:132|266:132|278:246,2,215.999993408203,0|8|0,0:0|0:0|0:0,0:0:0:0:
194,69,140281,1,0,0:0:0:0:
361,145,140466,1,8,0:0:0:0:
214,242,140651,1,0,0:0:0:0:
360,145,140837,6,0,B|415:176|415:176|415:352,1,215.999993408203,2|8,0:0|0:0,0:0:0:0:
351,213,141392,1,0,0:0:0:0:
205,310,141577,2,0,B|150:279|150:279|150:103,1,215.999993408203,2|8,0:0|0:0,0:0:0:0:
214,242,142132,1,0,0:0:0:0:
416,328,142318,6,0,P|372:347|310:331,1,107.999996704102,2|0,0:0|0:0,0:0:0:0:
102,329,142688,2,0,P|107:281|152:235,1,107.999996704102,10|0,0:0|0:0,0:0:0:0:
307,111,143059,2,0,P|335:132|348:177,1,53.9999983520508,2|0,3:2|3:2,3:2:0:0:
276,180,143244,2,0,P|281:215|257:256,1,53.9999983520508,0|0,3:2|3:2,3:2:0:0:
206,207,143429,2,0,P|184:235|139:248,1,53.9999983520508,0|0,3:2|3:2,3:2:0:0:
137,176,143614,2,0,P|101:181|60:157,1,53.9999983520508,0|0,3:2|3:2,3:2:0:0:
240,100,143800,6,0,B|330:91|330:91|384:100|384:100|487:89,1,215.999993408203,4|8,0:0|0:0,0:0:0:0:
392,9,144355,1,0,0:0:0:0:
274,179,144540,1,0,0:0:0:0:
221,182,144632,1,0,0:0:0:0:
176,153,144725,1,0,0:0:0:0:
158,103,144817,1,0,0:0:0:0:
174,53,144911,2,0,B|217:50|217:50|272:9,1,107.999996704102,8|0,0:0|0:0,0:0:0:0:
107,154,145281,6,0,B|79:150|45:169|40:186|31:223|31:223|67:277|52:340,2,215.999993408203,0|8|0,0:0|0:0|0:0,0:0:0:0:
283,208,146207,1,0,0:0:0:0:
100,219,146392,1,8,0:0:0:0:
181,55,146577,1,0,0:0:0:0:
342,266,146762,6,0,P|279:287|211:172,1,215.999993408203,2|8,0:0|0:0,0:0:0:0:
411,215,147318,1,0,0:0:0:0:
151,121,147503,2,0,P|214:100|282:215,1,215.999993408203,2|8,0:0|0:0,0:0:0:0:
82,171,148059,1,0,0:0:0:0:
206,32,148244,5,2,0:0:0:0:
134,234,148429,1,2,0:0:0:0:
40,76,148614,1,2,0:0:0:0:
278,102,148800,5,2,0:0:0:0:
86,172,148985,2,0,L|73:227,1,53.9999983520508,2|0,3:2|3:0,3:0:0:0:
149,256,149170,2,0,L|162:311,1,53.9999983520508,0|0,3:0|3:0,3:0:0:0:
245,334,149355,6,0,L|201:157,1,180,10|0,0:0|0:0,0:0:0:0:
276,158,149633,1,0,0:0:0:0:
276,158,149725,6,0,P|362:174|461:71,1,215.999993408203,4|8,0:0|0:0,0:0:0:0:
342,43,150281,1,0,0:0:0:0:
241,74,150466,1,0,0:0:0:0:
187,81,150558,1,0,0:0:0:0:
137,69,150651,1,0,0:0:0:0:
84,75,150743,1,0,0:0:0:0:
35,68,150837,2,0,L|21:181,1,107.999996704102,8|0,0:0|0:0,0:0:0:0:
231,287,151207,6,0,B|168:300|168:300|125:282|125:282|10:303,2,215.999993408203,0|8|0,0:0|0:0|0:0,0:0:0:0:
396,258,152133,1,0,0:0:0:0:
288,129,152318,1,8,0:0:0:0:
231,287,152503,1,0,0:0:0:0:
366,147,152688,6,0,P|360:76|229:49,1,215.999993408203,2|8,0:0|0:0,0:0:0:0:
116,127,153244,1,0,0:0:0:0:
236,43,153429,2,0,P|242:114|373:141,1,215.999993408203,2|8,0:0|0:0,0:0:0:0:
486,63,153985,1,0,0:0:0:0:
318,73,154170,5,2,0:0:0:0:
194,265,154355,1,2,0:0:0:0:
429,162,154540,1,10,0:0:0:0:
200,105,154725,5,2,0:0:0:0:
341,299,154911,2,0,P|353:241|312:192,1,107.999996704102,2|0,0:0|0:0,0:0:0:0:
82,107,155281,2,0,P|70:165|111:214,1,107.999996704102,8|0,0:0|0:0,0:0:0:0:
348,121,155651,5,2,0:0:0:0:
135,72,155837,1,2,0:0:0:0:
209,256,156022,1,10,0:0:0:0:
252,28,156207,5,2,0:0:0:0:
336,240,156392,2,0,L|447:249,1,107.999996704102,2|0,0:0|0:0,0:0:0:0:
202,195,156762,2,0,L|91:204,1,107.999996704102,8|0,0:0|0:0,0:0:0:0:
284,186,157133,5,2,0:0:0:0:
225,107,157318,1,2,0:0:0:0:
196,284,157503,1,10,0:0:0:0:
397,230,157688,5,2,0:0:0:0:
202,195,157874,1,2,0:0:0:0:
448,108,158244,5,2,0:0:0:0:
46,65,158614,1,6,0:0:0:0:
