osu file format v14

[General]
AudioFilename: audio.mp3
AudioLeadIn: 0
PreviewTime: 97040
Countdown: 0
SampleSet: Soft
StackLeniency: 0.7
Mode: 0
LetterboxInBreaks: 0
WidescreenStoryboard: 0

[Editor]
DistanceSpacing: 0.4
BeatDivisor: 4
GridSize: 4
TimelineZoom: 1

[Metadata]
Title:We Are Number One but it's in Japanese
TitleUnicode:We Are Number One but it's in Japanese ☆彡
Artist:Rindou
ArtistUnicode:Rindou
Creator:XVoIR
Version:Chalwa's Normal
Source:LazyTown
Tags:robbie rotten mani svavarsson touhou bad apple mrdorian chalwa deadpon3 asserin lukermaster lkr
BeatmapID:1279341
BeatmapSetID:596816

[Difficulty]
HPDrainRate:3.5
CircleSize:3.5
OverallDifficulty:5
ApproachRate:5.5
SliderMultiplier:1.22
SliderTickRate:1

[Events]
//Background and Video events
0,0,"bg.jpg",0,0
Video,0,"v3.mp4"
//Break Periods
2,61207,63045
2,95281,96008
2,105281,106008
//Storyboard Layer 0 (Background)
//Storyboard Layer 1 (Fail)
//Storyboard Layer 2 (Pass)
//Storyboard Layer 3 (Foreground)
//Storyboard Sound Samples

[TimingPoints]
26763,370.37037037037,4,2,0,100,1,0
26763,-100,4,2,0,100,0,1
32318,-100,4,2,0,100,0,1
32688,-100,4,2,0,100,0,1
38614,-100,4,2,0,100,0,0
41577,-100,4,2,0,100,0,0
53429,-100,4,3,0,100,0,0
54911,-100,4,3,0,100,0,0
56207,-100,4,2,0,100,0,0
64170,-100,4,2,0,100,0,0
65281,-100,4,2,0,100,0,0
70837,-100,4,2,0,100,0,0
86022,-100,4,2,0,100,0,0
90466,-100,4,2,0,100,0,0
91948,-100,4,2,0,100,0,0
97040,-100,4,3,0,100,0,0
97874,-100,4,2,0,100,0,0
107133,-100,4,2,0,100,0,0
113800,-100,4,2,0,100,0,0
114170,-100,4,2,0,100,0,0
131948,-100,4,2,0,100,0,1
149355,-100,4,2,0,100,0,1
149725,-100,4,2,0,100,0,1
157133,-100,4,2,0,100,0,0
158614,-100,4,2,0,100,0,1
158985,-100,4,2,0,100,0,0

[Colours]
Combo1 : 126,210,255
Combo2 : 204,183,67
Combo3 : 204,195,172

[HitObjects]
172,72,26763,6,0,L|164:200,1,122,4|8,0:2|0:0,0:0:0:0:
136,268,27318,1,0,0:0:0:0:
200,312,27503,2,0,P|256:296|316:316,1,122,0|8,0:0|0:0,0:0:0:0:
388,272,28059,1,0,0:0:0:0:
359,197,28244,2,0,L|351:75,2,122,0|8|0,0:0|0:0|0:0,0:0:0:0:
256,320,29355,1,8,0:0:0:0:
140,216,29725,6,0,B|136:152|136:152|168:80,1,122,2|8,0:0|0:0,0:0:0:0:
286,206,30466,2,0,B|286:270|286:270|246:334,1,122,2|8,0:0|0:0,0:0:0:0:
212,164,31207,2,0,P|252:128|328:132,1,122,2|10,0:0|0:0,0:0:0:0:
392,164,31763,1,2,0:0:0:0:
468,136,31948,2,0,L|484:72,2,61,2|0|10,0:0|0:0|0:0,0:0:0:0:
464,296,32688,6,0,B|448:356|448:356|416:348|380:356,1,122,4|8,0:0|0:0,0:0:0:0:
312,340,33244,1,0,0:0:0:0:
232,352,33429,2,0,B|204:345|172:353|172:353|156:293,1,122,0|8,0:0|0:0,0:0:0:0:
124,216,33985,1,0,0:0:0:0:
168,148,34170,2,0,P|212:112|280:116,1,122,0|8,0:0|0:0,0:0:0:0:
380,236,34911,2,0,P|336:272|268:268,1,122,0|8,0:0|0:0,0:0:0:0:
204,236,35466,1,0,0:0:0:0:
132,268,35651,6,0,P|72:270|25:233,2,122,2|8|2,0:0|0:0|0:0,0:0:0:0:
272,192,36763,1,8,0:0:0:0:
420,244,37133,2,0,L|432:316,2,61,2|2|10,0:0|0:0|0:0,0:0:0:0:
460,176,37688,1,2,0:0:0:0:
460,176,37874,2,0,L|440:52,1,122,2|8,0:0|0:0,0:0:0:0:
256,192,38614,12,4,40837,0:0:0:0:
216,280,41577,6,0,L|144:288,2,61,4|0|8,0:0|0:0|0:0,0:0:0:0:
292,252,42133,1,0,0:0:0:0:
324,180,42318,2,0,L|456:172,1,122,0|8,0:0|0:0,0:0:0:0:
436,60,43059,2,0,L|314:67,1,122,0|8,0:0|0:0,0:0:0:0:
236,68,43614,1,0,0:0:0:0:
164,36,43800,2,0,L|86:40,2,61,0|0|8,0:0|0:0|0:0,0:0:0:0:
296,124,44540,6,0,P|302:157|294:185,1,61,2|0,0:0|0:0,0:0:0:0:
264,256,44911,2,0,P|258:289|266:317,1,61,8|0,0:0|0:0,0:0:0:0:
324,368,45281,2,0,P|264:348|196:376,1,122,0|8,0:0|0:0,0:0:0:0:
64,300,46022,2,0,B|92:248|92:248|76:180,1,122,2|8,0:0|0:0,0:0:0:0:
8,148,46577,1,0,0:0:0:0:
28,72,46763,2,0,L|4:8,2,61,0|0|8,0:0|0:0|0:2,0:0:0:0:
188,52,47503,6,0,P|248:68|308:48,1,122,2|8,0:0|0:0,0:0:0:0:
376,16,48059,1,0,0:0:0:0:
428,76,48244,2,0,L|432:140,1,61,0|0,0:0|0:0,0:0:0:0:
396,208,48614,1,8,0:0:0:0:
272,308,48985,2,0,P|212:292|140:320,1,122,2|10,0:0|0:0,0:0:0:0:
112,372,49540,2,0,L|104:244,1,122,2|8,0:0|0:0,0:0:0:0:
144,180,50096,1,8,0:0:0:0:
96,116,50281,1,0,0:0:0:0:
96,116,50466,6,0,P|144:100|208:132,1,122,2|8,0:0|0:0,0:0:0:0:
272,184,51022,1,0,0:0:0:0:
340,144,51207,2,0,L|376:72,2,61,0|0|8,0:0|0:0|0:0,0:0:0:0:
328,304,51948,2,0,P|264:320|196:292,1,122,2|10,0:0|0:0,0:0:0:0:
148,256,52503,2,0,P|90:239|31:255,2,122,2|0|8,0:0|0:0|0:0,0:0:0:0:
211,303,53429,5,0,0:0:0:0:
283,163,53800,1,8,0:0:0:0:
427,227,54170,1,0,0:0:0:0:
355,367,54540,1,8,0:0:0:0:
211,303,54911,6,0,L|139:267,2,61,0|0|0,3:0|3:0|3:0,0:0:0:0:
272,352,55466,1,0,3:0:0:0:
312,284,55651,2,0,B|353:237|353:237|352:164,1,122,0|0,3:0|0:0,0:0:0:0:
352,96,56207,1,0,0:0:0:0:
284,136,56392,6,0,P|224:144|152:120,1,122,0|2,0:0|0:0,0:0:0:0:
128,56,56948,2,0,L|100:176,1,122,2|0,0:0|0:0,0:0:0:0:
124,248,57503,1,2,0:0:0:0:
268,316,57874,2,0,B|332:304|332:304|392:320,1,122,0|2,0:0|0:0,0:0:0:0:
456,356,58429,2,0,P|436:320|460:228,1,122,0|0,0:0|0:0,0:0:0:0:
488,172,58985,2,0,P|492:140|484:112,1,61,2|0,0:0|0:0,0:0:0:0:
444,44,59355,6,0,L|308:44,1,122,0|2,0:0|0:0,0:0:0:0:
260,92,59911,1,2,0:0:0:0:
196,44,60096,2,0,L|52:44,2,122,0|2|2,0:0|0:0|0:0,0:0:0:0:
320,356,64170,6,0,B|352:360|376:348|376:348|404:360|440:356,2,122,0|0|0,0:0|0:0|3:0,0:0:0:0:
240,356,65096,1,0,3:0:0:0:
172,312,65281,6,0,L|164:184,1,122,4|8,0:0|0:0,0:0:0:0:
136,116,65836,1,0,0:0:0:0:
200,72,66021,2,0,P|256:88|316:68,1,122,0|8,0:0|0:0,0:0:0:0:
388,112,66577,1,0,0:0:0:0:
359,187,66762,2,0,L|351:309,2,122,0|8|0,0:0|0:0|0:0,0:0:0:0:
256,64,67873,1,8,0:0:0:0:
136,168,68243,6,0,B|136:232|136:232|176:296,1,122,2|8,0:0|0:0,0:0:0:0:
286,178,68984,2,0,B|286:114|286:114|246:50,1,122,2|8,0:0|0:0,0:0:0:0:
216,220,69725,2,0,P|256:256|332:252,1,122,2|2,0:0|0:0,0:0:0:0:
392,220,70281,1,2,0:0:0:0:
468,248,70466,2,0,L|484:312,2,61,0|0|2,0:0|0:0|0:0,0:0:0:0:
464,88,71206,6,0,B|448:28|448:28|416:36|380:28,1,122,4|8,0:0|0:0,0:0:0:0:
312,44,71762,1,0,0:0:0:0:
232,32,71947,2,0,B|204:39|172:31|172:31|156:91,1,122,0|8,0:0|0:0,0:0:0:0:
124,168,72503,1,0,0:0:0:0:
168,236,72688,2,0,P|212:272|280:268,1,122,0|8,0:0|0:0,0:0:0:0:
380,148,73429,2,0,P|336:112|268:116,1,122,0|8,0:0|0:0,0:0:0:0:
204,148,73984,1,0,0:0:0:0:
132,116,74169,6,0,P|72:114|24:160,2,122,2|8|2,0:0|0:0|0:0,0:0:0:0:
272,192,75281,1,8,0:0:0:0:
420,140,75651,2,0,L|432:68,2,61,0|2|10,0:0|0:0|0:0,0:0:0:0:
460,208,76206,1,2,0:0:0:0:
460,208,76392,2,0,L|440:332,1,122,2|8,3:0|3:2,0:0:0:0:
284,348,77133,6,0,L|224:340,1,61,2|0,0:0|0:0,0:0:0:0:
164,288,77503,1,2,0:0:0:0:
164,288,77688,1,0,0:0:0:0:
228,240,77874,2,0,L|288:232,1,61,2|2,0:0|3:2,0:0:0:0:
348,180,78244,1,2,3:2:0:0:
348,180,78429,1,2,3:2:0:0:
304,112,78614,6,0,L|168:88,1,122,4|8,0:0|0:0,0:0:0:0:
108,60,79170,1,0,0:0:0:0:
112,140,79355,2,0,P|120:172|112:204,1,61,0|0,0:0|0:0,0:0:0:0:
84,272,79725,2,0,P|76:304|84:336,1,61,8|0,0:0|0:0,0:0:0:0:
152,372,80096,2,0,B|216:356|216:356|284:368,1,122,0|8,0:0|0:0,0:0:0:0:
368,240,80837,2,0,B|304:256|304:256|236:244,1,122,0|8,0:0|0:0,0:0:0:0:
176,220,81392,1,0,0:0:0:0:
224,156,81577,6,0,P|240:104|204:32,2,122,2|8|2,0:0|0:0|0:0,0:0:0:0:
164,304,82688,1,8,0:0:0:0:
320,336,83059,6,0,L|400:344,2,61,2|2|10,0:0|0:0|0:0,0:0:0:0:
240,344,83614,1,2,0:0:0:0:
272,272,83800,2,0,P|284:216|256:160,1,122,0|8,3:0|3:2,0:0:0:0:
180,132,84355,2,0,L|320:96,1,122,0|0,0:0|0:0,0:0:0:0:
200,224,85096,2,0,L|60:260,1,122,0|0,0:0|0:0,0:0:0:0:
180,132,85837,1,0,0:0:0:0:
180,131,86022,6,0,P|239:135|283:176,1,122,0|2,0:0|0:0,0:0:0:0:
324,244,86577,2,0,P|367:284|427:288,1,122,0|0,0:0|0:0,0:0:0:0:
504,272,87133,1,2,0:0:0:0:
464,120,87503,2,0,P|404:123|360:164,1,122,0|2,0:0|0:0,0:0:0:0:
319,232,88058,2,0,P|275:272|215:276,1,122,0|0,0:0|0:0,0:0:0:0:
140,260,88614,2,0,L|72:268,1,61,2|0,0:0|0:0,0:0:0:0:
4,240,88985,6,0,B|32:184|32:184|12:128,1,122,0|2,0:0|0:0,0:0:0:0:
84,96,89540,1,0,0:0:0:0:
84,96,89725,2,0,L|104:156,2,61,0|0|2,0:0|0:0|0:0,0:0:0:0:
120,24,90281,1,0,0:0:0:0:
120,24,90466,6,0,B|180:36|180:36|244:24,1,122,0|2,0:0|0:0,0:0:0:0:
300,76,91022,1,0,0:0:0:0:
336,148,91208,2,0,L|317:206,2,61,0|0|2,0:0|0:0|0:0,0:0:0:0:
344,308,91948,6,0,B|304:336|224:320|192:244|216:180|216:180|168:212|168:296|168:296|108:284|108:284|40:312,2,488,4|0|0,0:0|0:0|0:0,0:0:0:0:
276,120,97133,6,0,L|276:88,2,30.5,8|0|0,3:2|0:0|3:0,0:0:0:0:
320,184,97503,2,0,L|320:244,1,61,0|4,3:0|3:2,0:0:0:0:
296,324,97874,6,0,B|236:320|236:320|172:328,1,122,4|8,0:0|0:0,0:0:0:0:
100,356,98429,1,0,0:0:0:0:
112,276,98614,2,0,L|112:152,1,122,0|8,0:0|0:0,0:0:0:0:
252,80,99355,2,0,P|284:88|312:80,1,61,0|0,0:0|0:0,0:0:0:0:
384,52,99725,1,8,0:0:0:0:
448,96,99911,2,0,L|480:220,2,122,0|0|0,0:0|0:0|0:0,0:0:0:0:
384,52,100837,6,0,P|352:46|300:53,1,61,2|0,0:0|0:0,0:0:0:0:
252,80,101207,2,0,P|221:81|191:75,1,61,8|0,0:0|0:0,0:0:0:0:
120,39,101577,2,0,P|114:71|121:123,1,61,2|0,0:0|0:0,0:0:0:0:
148,171,101947,2,0,P|149:201|143:231,1,61,8|0,0:0|0:0,0:0:0:0:
87,288,102318,6,0,P|134:274|206:307,1,122,10|10,0:0|0:0,0:0:0:0:
254,358,102874,1,0,0:0:0:0:
323,320,103059,2,0,L|359:199,1,122,2|10,0:0|0:0,0:0:0:0:
423,158,103614,2,0,B|361:162|361:162|294:138,2,122,0|0|0,0:0|0:0|0:0,0:0:0:0:
475,217,104540,2,0,L|439:338,1,122,0|0,0:0|0:0,0:0:0:0:
256,128,107133,6,0,B|256:168|256:168|260:180|260:180|252:180|252:180|256:192|256:192|256:240,2,122,0|0|0,0:0|0:0|3:0,0:0:0:0:
336,264,108244,6,0,P|292:312|176:216,1,244,4|0,0:0|0:0,0:0:0:0:
284,112,109355,1,8,0:0:0:0:
336,264,109725,2,0,B|360:320|360:320|392:320|416:288,1,122,0|8,0:0|0:0,0:0:0:0:
360,140,110466,2,0,B|336:84|336:84|304:84|280:116,1,122,0|8,0:0|0:0,0:0:0:0:
336,264,111207,6,0,L|384:376,2,122,2|8|2,0:0|0:0|0:0,0:0:0:0:
344,104,112318,1,8,0:0:0:0:
216,196,112688,2,0,B|180:220|124:184|116:128|132:84|132:84|132:84|64:84|64:84|40:144|64:204,1,366,2|10,0:0|0:0,0:0:0:0:
192,288,114170,6,0,P|268:264|264:112,1,244,4|0,0:0|0:0,0:0:0:0:
116,148,115281,1,8,0:0:0:0:
192,288,115651,2,0,L|304:336,1,122,0|8,0:0|0:0,0:0:0:0:
228,196,116392,2,0,L|116:148,1,122,0|8,0:0|0:0,0:0:0:0:
192,288,117133,6,0,B|228:304|228:304|272:304|272:304|312:324,2,122,2|8|2,0:0|0:0|0:0,0:0:0:0:
84,172,118244,1,8,0:0:0:0:
240,144,118614,2,0,B|272:160|272:160|320:144|368:108|356:56|336:32|304:32|296:64|276:104|320:144|368:160|368:160|416:144,1,366,0|4,3:0|3:2,0:0:0:0:
344,296,120096,6,0,L|276:308,1,61,4|0,0:0|0:0,0:0:0:0:
208,284,120466,2,0,L|140:296,1,61,8|0,0:0|0:0,0:0:0:0:
72,276,120837,2,0,P|84:228|64:152,1,122,0|8,0:0|0:0,0:0:0:0:
92,84,121392,1,0,0:0:0:0:
92,84,121577,2,0,L|216:56,2,122,0|8|2,0:0|0:0|0:0,0:0:0:0:
67,158,122503,1,2,0:0:0:0:
112,224,122688,2,0,P|144:228|184:224,1,61,10|2,0:0|0:0,0:0:0:0:
244,188,123059,6,0,P|276:184|316:188,1,61,0|0,0:0|0:0,0:0:0:0:
380,208,123429,2,0,P|412:212|452:208,1,61,8|0,0:0|0:0,0:0:0:0:
500,160,123800,1,0,0:0:0:0:
380,56,124170,2,0,P|348:52|308:56,1,61,8|0,0:0|0:0,0:0:0:0:
252,92,124540,6,0,L|184:92,2,61,0|0|8,0:0|0:0|0:0,0:0:0:0:
320,136,125096,1,0,0:0:0:0:
252,176,125281,2,0,L|184:176,2,61,2|2|10,0:0|0:0|0:0,0:0:0:0:
320,220,125837,1,2,0:0:0:0:
264,276,126022,6,0,L|120:276,1,122,4|8,0:0|0:0,0:0:0:0:
84,224,126577,1,0,0:0:0:0:
44,156,126762,2,0,L|40:88,1,61,0|0,0:0|0:0,0:0:0:0:
92,32,127133,2,0,L|160:28,1,61,8|0,0:0|0:0,0:0:0:0:
224,64,127503,2,0,L|359:56,1,122,0|8,0:0|0:0,0:0:0:0:
472,152,128244,2,0,L|336:144,1,122,0|8,0:0|0:0,0:0:0:0:
272,164,128800,1,0,0:0:0:0:
196,192,128985,6,0,L|60:199,2,122,2|10|2,0:0|0:0|0:0,0:0:0:0:
328,284,130096,1,10,0:0:0:0:
280,132,130466,2,0,P|212:92|148:100,3,122,0|8|0|8,0:0|0:3|0:2|0:3,0:0:0:0:
96,232,131948,6,0,B|160:232|160:232|208:264,1,122,4|8,0:0|0:0,0:0:0:0:
272,312,132503,1,0,0:0:0:0:
332,260,132688,2,0,L|332:132,1,122,0|8,0:0|0:0,0:0:0:0:
272,72,133244,1,0,0:0:0:0:
208,120,133429,2,0,B|160:152|160:152|96:152,2,122,0|8|0,0:0|0:0|0:0,0:0:0:0:
328,16,134540,1,8,0:0:0:0:
432,136,134911,6,0,B|448:160|436:192|432:196|432:192|436:196|420:236|432:256,2,122,2|8|2,0:0|0:0|0:0,0:0:0:0:
328,16,136022,1,8,0:0:0:0:
220,132,136392,2,0,P|188:128|156:132,1,61,2|0,0:0|0:0,0:0:0:0:
160,212,136762,2,0,P|192:216|224:212,1,61,10|0,0:0|0:0,0:0:0:0:
300,216,137133,2,0,L|316:344,1,122,2|8,0:0|0:0,0:0:0:0:
472,336,137874,6,0,L|456:208,1,122,4|8,0:0|0:0,0:0:0:0:
384,184,138429,1,0,0:0:0:0:
324,236,138614,2,0,P|268:260|216:236,1,122,0|8,0:0|0:0,0:0:0:0:
160,180,139170,1,0,0:0:0:0:
216,124,139355,2,0,P|272:100|324:124,2,122,0|8|0,0:0|0:0|0:0,0:0:0:0:
104,236,140466,1,8,0:0:0:0:
224,336,140837,6,0,B|276:336|276:336|280:332|280:332|280:340|280:340|284:336|284:336|336:336,2,122,2|8|2,0:0|0:0|0:0,0:0:0:0:
104,232,141948,1,8,0:0:0:0:
228,132,142318,1,2,0:0:0:0:
284,76,142503,1,0,0:0:0:0:
340,132,142688,2,0,P|376:136|408:132,2,61,10|0|2,0:0|0:0|3:2,0:0:0:0:
204,52,143429,1,0,3:2:0:0:
284,188,143800,6,0,P|300:244|276:304,1,122,4|8,0:0|0:0,0:0:0:0:
216,352,144355,1,0,0:0:0:0:
160,296,144540,2,0,P|128:292|96:296,1,61,0|0,0:0|0:0,0:0:0:0:
24,316,144911,2,0,L|12:244,1,61,8|0,0:0|0:0,0:0:0:0:
60,188,145281,6,0,B|52:128|52:128|76:72,1,122,0|8,0:0|0:0,0:0:0:0:
236,76,146022,2,0,B|244:136|244:136|220:192,1,122,0|8,0:0|0:0,0:0:0:0:
164,248,146577,1,0,0:0:0:0:
220,304,146762,2,0,P|284:292|340:308,2,122,2|8|2,0:0|0:0|0:0,0:0:0:0:
68,356,147874,1,8,0:0:0:0:
68,196,148244,6,0,L|68:120,2,61,2|2|2,0:0|0:0|0:0,0:0:0:0:
32,268,148800,1,2,0:0:0:0:
112,268,148985,2,0,B|144:268|144:268|200:288|200:288|232:288,1,122,2|10,3:2|0:0,0:0:0:0:
384,320,149725,6,0,B|392:288|380:268|380:268|380:252|380:252|368:232|380:200,1,122,4|8,0:0|0:0,0:0:0:0:
420,132,150281,1,0,0:0:0:0:
340,128,150466,2,0,L|272:128,1,61,0|0,0:0|0:0,0:0:0:0:
216,176,150837,2,0,L|148:176,1,61,8|0,0:0|0:0,0:0:0:0:
84,216,151207,2,0,P|84:272|128:324,2,122,0|8|0,0:0|0:0|0:0,0:0:0:0:
188,96,152318,1,8,0:0:0:0:
292,216,152688,6,0,P|292:272|248:324,2,122,2|8|2,0:0|0:0|0:0,0:0:0:0:
188,96,153799,1,8,0:0:0:0:
336,44,154170,2,0,B|368:40|368:40|400:48,1,61,2|2,0:0|0:0,0:0:0:0:
440,112,154540,2,0,B|444:144|444:144|436:176,1,61,10|2,0:0|0:0,0:0:0:0:
404,244,154911,2,0,B|400:276|400:276|408:304|408:304|380:324|340:308,1,122,2|8,0:0|0:0,0:0:0:0:
196,276,155651,6,0,B|164:280|164:280|132:272,1,61,2|2,0:0|0:0,0:0:0:0:
92,208,156021,2,0,B|88:176|88:176|96:144,1,61,10|2,0:0|0:0,0:0:0:0:
128,76,156392,2,0,B|132:44|132:44|124:16|124:16|152:-4|192:12,1,122,2|8,0:0|0:0,0:0:0:0:
336,40,157133,5,2,0:0:0:0:
384,104,157318,1,2,0:0:0:0:
332,164,157503,1,10,0:0:0:0:
384,224,157688,1,2,0:0:0:0:
324,276,157874,2,0,B|300:276|300:276|280:284|280:284|252:284|252:284|228:292|228:292|204:292,2,122,2|2|6,0:0|0:0|0:0,0:0:0:0:
