osu file format v14

[General]
AudioFilename: audio.mp3
AudioLeadIn: 0
PreviewTime: 48889
Countdown: 0
SampleSet: Soft
StackLeniency: 0.7
Mode: 0
LetterboxInBreaks: 0
WidescreenStoryboard: 1

[Editor]
Bookmarks: 18256,34666,51076,67487,83897,88023,100307,116717,133128,151589,167999,184410,200563
DistanceSpacing: 2.3
BeatDivisor: 4
GridSize: 16
TimelineZoom: 2.2

[Metadata]
Title:XS
TitleUnicode:XS
Artist:Rina Sawayama
ArtistUnicode:Rina Sawayama
Creator:AJT
Version:yaspo's XS
Source:
Tags:english pop rock nu metal r&b electropop electronic corsace co2021 qf dt4 apollo apo11o mrowswares yaspo seolv lukas [_l_u_k_a_s_] jamesjan3 jamesjan mkguh -_ascended_- ascended -ascended-
BeatmapID:3258973
BeatmapSetID:1595537

[Difficulty]
HPDrainRate:4
CircleSize:4
OverallDifficulty:8
ApproachRate:8
SliderMultiplier:2.5
SliderTickRate:1

[Events]
//Background and Video events
0,0,"pexels-steve-johnson-1606591.jpg",0,0
Video,505,"video.mp4"
//Break Periods
//Storyboard Layer 0 (Background)
//Storyboard Layer 1 (Fail)
//Storyboard Layer 2 (Pass)
//Storyboard Layer 3 (Foreground)
//Storyboard Layer 4 (Overlay)
//Storyboard Sound Samples
Sample,1870,0,"soundeffect.wav",100
Sample,200555,0,"gasp.wav",100

[TimingPoints]
16229,512.820512820513,4,2,4,70,1,0
16229,-100,4,2,4,70,0,0
18280,-76.9230769230769,4,2,4,70,0,0
19305,-200,4,2,4,70,0,0
20331,-133.333333333333,4,2,4,70,0,0
21870,-200,4,2,4,70,0,0
22382,-76.9230769230769,4,2,4,70,0,0
23408,-200,4,2,4,70,0,0
24434,-133.333333333333,4,2,4,70,0,0
25203,-100,4,2,4,70,0,0
25459,-133.333333333333,4,2,4,70,0,0
25972,-200,4,2,4,70,0,0
26485,-76.9230769230769,4,2,4,70,0,0
27511,-200,4,2,4,70,0,0
28536,-133.333333333333,4,2,4,70,0,0
30075,-200,4,2,4,70,0,0
30587,-76.9230769230769,4,2,4,70,0,0
31613,-200,4,2,4,70,0,0
32639,-100,4,2,4,70,0,0
34690,-100,4,2,4,77,0,0
35716,-200,4,2,4,77,0,0
36741,-100,4,2,4,77,0,0
37767,-200,4,2,4,77,0,0
38664,-100,4,2,4,77,0,0
39818,-200,4,2,4,77,0,0
40844,-100,4,2,4,77,0,0
42382,-76.9230769230769,4,2,4,77,0,0
42895,-100,4,2,4,77,0,0
43921,-200,4,2,4,77,0,0
44946,-100,4,2,4,77,0,0
45972,-200,4,2,4,77,0,0
46998,-100,4,2,4,77,0,0
48023,-200,4,2,4,77,0,0
49049,-76.9230769230769,4,2,4,85,0,0
51100,-100,4,2,4,90,0,0
52126,-200,4,2,4,90,0,0
52639,-100,4,2,4,90,0,0
53152,-100,4,2,4,90,0,0
53664,-58.8235294117647,4,2,4,90,0,0
54690,-333.333333333333,4,2,4,90,0,0
55075,-333.333333333333,4,2,4,5,0,0
55203,-100,4,2,4,90,0,0
56229,-200,4,2,4,90,0,0
56741,-100,4,2,4,90,0,0
57254,-100,4,2,4,90,0,0
57766,-58.8235294117647,4,2,4,90,0,0
58792,-333.333333333333,4,2,4,90,0,0
59177,-333.333333333333,4,2,4,5,0,0
59305,-100,4,2,4,90,0,0
60331,-200,4,2,4,90,0,0
61870,-58.8235294117647,4,2,4,90,0,0
62895,-333.333333333333,4,2,4,90,0,0
63280,-333.333333333333,4,2,4,5,0,0
63409,-100,4,2,4,90,0,0
64434,-200,4,2,4,90,0,0
64946,-100,4,2,4,90,0,0
65459,-76.9230769230769,4,2,4,90,0,0
67511,-100,4,2,4,93,0,0
68537,-100,4,2,4,93,0,0
69050,-100,4,2,4,93,0,0
69563,-100,4,2,4,93,0,0
70075,-58.8235294117647,4,2,4,93,0,0
71100,-333.333333333333,4,2,4,93,0,0
71485,-333.333333333333,4,2,4,5,0,0
71614,-100,4,2,4,93,0,0
72640,-200,4,2,4,93,0,0
73152,-100,4,2,4,93,0,0
73665,-100,4,2,4,93,0,0
74177,-58.8235294117647,4,2,4,93,0,0
75203,-333.333333333333,4,2,4,93,0,0
75587,-333.333333333333,4,2,4,5,0,0
75716,-100,4,2,4,93,0,0
76742,-200,4,2,4,93,0,0
78281,-58.8235294117647,4,2,4,93,0,0
79306,-333.333333333333,4,2,4,93,0,0
79690,-333.333333333333,4,2,4,5,0,0
79820,-100,4,2,4,93,0,0
80845,-200,4,2,4,93,0,0
81357,-100,4,2,4,93,0,0
81870,-76.9230769230769,4,2,4,93,0,0
83921,-133.333333333333,4,2,4,70,0,0
88023,-76.9230769230769,4,2,4,70,0,0
89049,-200,4,2,4,70,0,0
90075,-100,4,2,4,70,0,0
90844,-100,4,2,4,70,0,0
91100,-133.333333333333,4,2,4,70,0,0
91613,-100,4,2,4,70,0,0
92126,-76.9230769230769,4,2,4,70,0,0
93152,-200,4,2,4,70,0,0
94177,-133.333333333333,4,2,4,70,0,0
95716,-200,4,2,4,70,0,0
96228,-76.9230769230769,4,2,4,70,0,0
97254,-200,4,2,4,70,0,0
98280,-100,4,2,4,70,0,0
100331,-100,4,2,4,77,0,0
101357,-200,4,2,4,77,0,0
102382,-100,4,2,4,77,0,0
103408,-200,4,2,4,77,0,0
104305,-100,4,2,4,77,0,0
105459,-200,4,2,4,77,0,0
106485,-100,4,2,4,77,0,0
108023,-76.9230769230769,4,2,4,77,0,0
108536,-100,4,2,4,77,0,0
109562,-200,4,2,4,77,0,0
110587,-100,4,2,4,77,0,0
111613,-200,4,2,4,77,0,0
112639,-100,4,2,4,77,0,0
113664,-200,4,2,4,77,0,0
114690,-76.9230769230769,4,2,4,85,0,0
116229,-133.333333333333,4,2,4,85,0,0
116741,-100,4,2,4,93,0,0
117767,-100,4,2,4,93,0,0
118152,-333.333333333333,4,2,4,5,0,0
118280,-100,4,2,4,93,0,0
118793,-100,4,2,4,93,0,0
119305,-58.8235294117647,4,2,4,93,0,0
120330,-333.333333333333,4,2,4,93,0,0
120716,-333.333333333333,4,2,4,5,0,0
120844,-100,4,2,4,93,0,0
121870,-200,4,2,4,93,0,0
122382,-100,4,2,4,93,0,0
122895,-100,4,2,4,93,0,0
123407,-58.8235294117647,4,2,4,93,0,0
124433,-333.333333333333,4,2,4,93,0,0
124818,-333.333333333333,4,2,4,5,0,0
124946,-100,4,2,4,93,0,0
125972,-200,4,2,4,93,0,0
127511,-58.8235294117647,4,2,4,93,0,0
128536,-333.333333333333,4,2,4,93,0,0
128921,-333.333333333333,4,2,4,5,0,0
129050,-100,4,2,4,93,0,0
130075,-200,4,2,4,93,0,0
130587,-100,4,2,4,93,0,0
131100,-76.9230769230769,4,2,4,93,0,0
133152,-58.8235294117647,4,2,4,77,0,0
134177,-133.333333333333,4,2,4,77,0,0
134946,-58.8235294117647,4,2,4,77,0,0
135716,-133.333333333333,4,2,4,77,0,0
136740,-76.9230769230769,4,2,4,77,0,0
137254,-58.8235294117647,4,2,4,77,0,0
138279,-133.333333333333,4,2,4,77,0,0
139048,-58.8235294117647,4,2,4,77,0,0
139818,-133.333333333333,4,2,4,77,0,0
140331,-58.8235294117647,4,2,4,77,0,0
140842,-76.9230769230769,4,2,4,77,0,0
141357,-58.8235294117647,4,2,4,77,0,0
142382,-133.333333333333,4,2,4,77,0,0
143151,-58.8235294117647,4,2,4,77,0,0
143921,-133.333333333333,4,2,4,77,0,0
144434,-76.9230769230769,4,2,4,77,0,0
145459,-66.6666666666667,4,2,4,77,0,0
146484,-133.333333333333,4,2,4,77,0,0
147254,-76.9230769230769,4,2,4,85,0,0
149049,-200,4,2,4,85,0,0
149562,-76.9230769230769,4,2,4,85,0,0
151100,-76.9230769230769,4,2,2,85,0,0
151613,-100,4,2,4,97,0,0
152639,-100,4,2,4,97,0,0
153152,-100,4,2,4,97,0,0
153665,-100,4,2,4,97,0,0
154177,-58.8235294117647,4,2,4,97,0,0
155202,-200,4,2,4,97,0,0
155331,-333.333333333333,4,2,4,5,0,0
155459,-200,4,2,4,97,0,0
155587,-333.333333333333,4,2,4,5,0,0
155716,-100,4,2,4,97,0,0
156741,-133.333333333333,4,2,4,97,0,0
157254,-100,4,2,4,97,0,0
157767,-100,4,2,4,97,0,0
158279,-58.8235294117647,4,2,4,97,0,0
159305,-200,4,2,4,97,0,0
159434,-333.333333333333,4,2,4,5,0,0
159562,-200,4,2,4,97,0,0
159690,-333.333333333333,4,2,4,5,0,0
159818,-100,4,2,4,97,0,0
160844,-200,4,2,4,97,0,0
162383,-58.8235294117647,4,2,4,97,0,0
163408,-333.333333333333,4,2,4,97,0,0
163793,-333.333333333333,4,2,4,5,0,0
163922,-100,4,2,4,97,0,0
164946,-133.333333333333,4,2,4,97,0,0
165459,-100,4,2,4,97,0,0
165972,-76.9230769230769,4,2,4,97,0,0
168023,-100,4,2,4,93,0,0
169049,-100,4,2,4,93,0,0
169562,-100,4,2,4,93,0,0
170075,-100,4,2,4,93,0,0
170587,-58.8235294117647,4,2,4,93,0,0
171612,-200,4,2,4,93,0,0
171741,-333.333333333333,4,2,4,5,0,0
171870,-200,4,2,4,93,0,0
171998,-333.333333333333,4,2,4,5,0,0
172126,-100,4,2,4,93,0,0
173151,-133.333333333333,4,2,4,93,0,0
173664,-100,4,2,4,93,0,0
174177,-100,4,2,4,93,0,0
174689,-58.8235294117647,4,2,4,93,0,0
175715,-200,4,2,4,93,0,0
175844,-333.333333333333,4,2,4,5,0,0
175972,-200,4,2,4,93,0,0
176100,-333.333333333333,4,2,4,5,0,0
176228,-100,4,2,4,93,0,0
177254,-200,4,2,4,93,0,0
178793,-58.8235294117647,4,2,4,93,0,0
179818,-333.333333333333,4,2,4,93,0,0
180203,-333.333333333333,4,2,4,5,0,0
180332,-100,4,2,4,93,0,0
181356,-200,4,2,4,93,0,0
181869,-100,4,2,4,93,0,0
182382,-76.9230769230769,4,2,4,93,0,0
184434,-76.9230769230769,4,2,4,77,0,0
185459,-133.333333333333,4,2,4,77,0,0
185972,-100,4,2,4,77,0,0
186998,-200,4,2,4,77,0,0
188536,-76.9230769230769,4,2,4,77,0,0
189561,-133.333333333333,4,2,4,77,0,0
190074,-100,4,2,4,77,0,0
191100,-200,4,2,4,77,0,0
192126,-100,4,2,4,77,0,0
192639,-58.8235294117647,4,2,4,77,0,0
193664,-133.333333333333,4,2,4,77,0,0
194177,-100,4,2,4,77,0,0
196741,-76.9230769230769,4,2,4,77,0,0
197767,-133.333333333333,4,2,4,77,0,0
198793,-76.9230769230769,4,2,4,77,0,0

[Colours]
Combo1 : 154,97,97
Combo2 : 201,193,180
Combo3 : 238,226,196

[HitObjects]
46,134,16228,6,0,B|67:54|67:54|75:129,1,125,0|0,1:0|0:0,0:0:0:0:
123,263,16613,2,0,B|144:343|144:343|152:268,1,125,0|0,1:0|0:0,0:0:0:0:
194,168,16998,2,0,B|235:123|235:123|164:139,1,125,0|0,1:0|0:0,0:0:0:0:
74,232,17382,2,0,B|33:277|33:277|104:261,1,125,0|0,1:0|0:0,0:0:0:0:
192,224,17767,2,0,L|36:162,1,125,0|0,1:0|0:0,0:0:0:0:
372,357,18280,6,0,B|331:240|522:196|456:62,1,324.999985122681,10|8,2:2|0:1,0:0:0:0:
413,341,19305,2,4,P|411:324|407:311,1,31.25,4|4,0:3|0:3,0:0:0:0:
358,246,19562,1,4,0:3:0:0:
498,109,19818,2,0,P|486:138|481:169,1,62.5,8|0,0:1|0:0,0:0:0:0:
334,246,20331,5,8,2:2:0:0:
332,170,20459,1,0,0:0:0:0:
297,103,20587,1,8,2:2:0:0:
239,55,20716,1,0,0:0:0:0:
174,93,20844,1,8,0:1:0:0:
331,260,21100,1,2,0:2:0:0:
109,111,21357,1,4,0:3:0:0:
174,111,21485,1,4,0:3:0:0:
230,146,21613,1,4,0:3:0:0:
58,339,21870,2,0,P|40:312|27:270,1,62.5,8|0,0:1|0:0,0:0:0:0:
5,195,22382,6,0,P|152:213|243:371,1,324.999985122681,10|8,2:2|0:1,0:0:0:0:
351,268,23408,2,0,P|325:277|299:298,1,31.25,4|4,0:3|0:3,0:0:0:0:
261,337,23664,1,4,0:3:0:0:
165,211,23921,1,8,0:1:0:0:
373,274,24177,1,8,0:2:0:0:
272,126,24434,5,8,0:2:0:0:
227,186,24562,1,0,0:0:0:0:
159,218,24690,1,8,0:2:0:0:
103,168,24818,1,0,0:0:0:0:
30,150,24946,1,8,0:1:0:0:
117,0,25203,2,0,P|118:46|131:80,1,62.5,2|2,0:0|0:0,0:0:0:0:
243,187,25459,1,4,0:3:0:0:
261,124,25587,1,4,0:3:0:0:
307,77,25715,1,4,0:3:0:0:
435,234,25972,2,2,P|412:211|367:193,1,62.5,8|0,0:1|0:0,0:0:0:0:
106,347,26485,6,0,B|26:363|26:363|-10:320|10:243|57:267|72:188|42:124,1,324.999985122681,10|8,0:2|0:1,0:0:0:0:
127,357,27511,2,4,P|125:340|121:327,1,31.25,4|4,0:3|0:3,0:0:0:0:
72,262,27768,1,4,0:3:0:0:
200,155,28023,1,8,3:1:0:0:
200,155,28152,2,0,P|195:169|193:185,1,31.25,0|0,3:0|2:0,3:3:0:0:
356,244,28408,1,0,3:0:0:0:
356,244,28536,6,0,P|353:210|336:160,1,46.8750017881394,8|0,3:2|0:0,0:0:0:0:
311,63,28793,1,8,3:2:0:0:
232,57,28921,1,0,3:0:0:0:
317,42,29049,1,8,3:1:0:0:
111,177,29305,2,0,P|115:210|123:226,1,46.8750017881394,2|0,0:2|0:0,0:0:0:0:
247,358,29562,1,4,0:3:0:0:
305,348,29690,1,4,0:3:0:0:
248,346,29819,1,4,0:3:0:0:
503,171,30075,2,0,P|492:137|464:96,1,62.5,8|0,0:1|0:0,0:0:0:0:
376,25,30587,6,0,P|401:232|481:366,1,324.999985122681,10|8,0:2|0:1,0:0:0:0:
83,333,31613,2,4,P|85:319|91:302,1,31.25,4|4,0:3|0:3,0:0:0:0:
128,231,31870,1,4,0:3:0:0:
128,231,32126,1,8,0:1:0:0:
142,131,32382,1,8,3:2:0:0:
142,131,32511,1,0,3:0:0:0:
128,231,32639,6,0,P|63:196|42:135,1,125,8|0,0:3|0:0,0:0:0:0:
290,181,33023,2,0,L|322:314,1,125,4|0,0:3|0:0,0:0:0:0:
176,34,33408,2,0,P|238:-5|302:7,1,125,8|0,0:3|0:0,0:0:0:0:
209,224,33793,1,4,0:3:0:0:
228,305,34049,1,8,0:2:0:0:
228,305,34177,1,8,0:2:0:0:
247,382,34434,1,8,0:2:0:0:
441,291,34690,5,8,3:2:0:0:
419,212,34818,1,0,3:0:0:0:
496,232,34946,2,0,P|475:324|471:363,1,125,2|8,3:2|0:1,0:0:0:0:
409,198,35459,1,0,0:0:0:0:
302,274,35716,6,4,P|298:245|297:221,1,31.25,4|4,0:3|0:3,0:0:0:0:
234,327,35972,1,4,0:3:0:0:
0,136,36229,2,0,P|3:104|13:74,1,62.5,8|0,0:1|3:0,0:0:0:0:
26,53,36613,1,0,3:0:0:0:
100,21,36741,5,8,3:2:0:0:
168,65,36870,1,0,3:0:0:0:
94,100,36998,1,10,3:2:0:0:
57,172,37126,1,0,3:0:0:0:
47,252,37254,2,0,P|64:301|75:390,1,125,8|0,3:1|0:0,0:0:0:0:
177,167,37767,6,4,P|171:178|168:196,1,31.25,4|4,0:3|0:3,0:0:0:0:
248,204,38023,1,4,0:3:0:0:
468,32,38280,2,0,P|482:59|491:89,1,62.5,8|0,0:1|3:0,0:0:0:0:
475,118,38664,1,0,3:0:0:0:
415,174,38793,5,8,3:2:0:0:
400,253,38921,1,0,3:0:0:0:
477,227,39049,2,0,P|454:198|424:86,1,125,2|8,0:2|0:1,0:0:0:0:
397,272,39562,1,0,0:0:0:0:
354,55,39818,6,4,P|346:70|341:88,1,31.25,4|4,0:3|0:3,0:0:0:0:
328,162,40075,1,4,0:3:0:0:
30,75,40331,1,8,0:1:0:0:
70,230,40587,1,8,0:0:0:0:
70,230,40844,5,8,3:2:0:0:
49,151,40972,1,0,3:0:0:0:
127,172,41101,1,8,3:2:0:0:
205,192,41229,1,0,3:0:0:0:
231,268,41357,1,8,3:1:0:0:
433,7,41613,5,2,0:2:0:0:
284,175,41870,1,4,0:3:0:0:
345,155,41998,1,4,0:3:0:0:
405,135,42126,1,4,0:3:0:0:
12,301,42382,2,0,B|127:276|113:406|240:370,1,243.749988842011,10|0,0:1|0:0,0:0:0:0:
311,361,42895,5,8,3:2:0:0:
259,298,43023,1,0,3:0:0:0:
179,318,43152,2,0,B|133:310|113:376|60:360,1,125,2|8,3:2|0:1,0:0:0:0:
256,278,43664,1,0,0:0:0:0:
79,175,43921,6,4,P|93:186|108:195,1,31.25,4|4,0:3|0:3,0:0:0:0:
183,223,44177,1,4,0:3:0:0:
373,18,44434,2,0,P|402:6|432:2,1,62.5,8|0,0:1|3:0,0:0:0:0:
458,16,44818,1,0,3:0:0:0:
503,83,44946,5,8,3:2:0:0:
421,91,45075,1,0,3:0:0:0:
353,45,45203,1,10,3:2:0:0:
272,33,45331,1,0,3:0:0:0:
198,68,45459,2,0,B|155:60|133:95|115:132|49:91,1,125,8|0,0:1|0:0,0:0:0:0:
0,191,45972,6,4,P|28:180|46:176,1,31.25,4|4,0:3|0:3,0:0:0:0:
111,195,46228,1,4,0:3:0:0:
307,364,46485,2,0,P|336:373|367:376,1,62.5,8|0,0:1|3:0,0:0:0:0:
392,355,46869,1,0,3:0:0:0:
437,287,46998,5,8,3:2:0:0:
512,258,47126,1,0,3:0:0:0:
500,339,47254,2,0,P|467:321|351:311,1,125,2|8,3:2|0:1,0:0:0:0:
509,244,47767,1,0,0:0:0:0:
307,220,48023,6,4,P|321:198|344:176,1,31.25,4|4,0:3|0:3,0:0:0:0:
387,141,48280,1,4,0:3:0:0:
89,304,48536,1,8,0:1:0:0:
42,129,48792,1,8,0:2:0:0:
42,129,49049,6,0,B|22:26|22:26|96:111,1,162.499992561341,0|0,1:0|0:0,0:0:0:0:
144,277,49434,2,0,B|109:376|109:376|88:265,1,162.499992561341,0|0,1:0|0:0,0:0:0:0:
165,136,49818,2,0,B|331:107,1,162.499992561341,0|0,1:0|0:0,0:0:0:0:
411,257,50203,2,0,B|250:284,1,162.499992561341,0|0,1:0|0:0,0:0:0:0:
455,88,50587,2,0,B|424:162|424:162|529:147,1,162.499992561341,0|0,1:0|0:0,0:0:0:0:
287,345,51100,5,8,0:2:0:0:
257,272,51229,1,0,3:0:0:0:
176,266,51357,1,0,3:0:0:0:
99,292,51485,1,0,3:0:0:0:
93,372,51613,1,8,2:1:0:0:
12,367,51741,1,0,2:0:0:0:
18,285,51870,1,2,3:3:0:0:
321,353,52126,6,0,P|315:325|313:291,1,62.5,2|0,0:0|0:0,0:0:0:0:
334,2,52639,5,4,3:3:0:0:
397,52,52767,1,0,3:0:0:0:
386,132,52895,1,4,3:3:0:0:
311,161,53023,1,0,3:0:0:0:
247,112,53152,6,0,P|214:92|165:79,1,62.5,8|0,0:0|0:0,0:0:0:0:
279,291,53408,2,0,P|269:328|244:372,1,62.5,8|0,0:0|0:0,0:0:0:0:
407,58,53664,1,8,0:1:0:0:
279,276,53921,6,0,P|176:289|102:393,1,212.500004053116,2|2,0:2|0:3,0:0:0:0:
381,368,54434,1,2,0:2:0:0:
108,239,54690,6,0,P|96:219|84:185,1,56.2499982833863,8|0,0:1|0:0,0:0:0:0:
12,80,55203,5,8,3:2:0:0:
4,164,55331,1,0,3:0:0:0:
84,169,55459,1,0,3:0:0:0:
153,127,55587,1,0,3:0:0:0:
189,53,55716,1,8,3:1:0:0:
0,63,55972,5,2,0:0:0:0:
279,64,56229,2,0,P|270:33|265:2,1,62.5,2|0,0:0|0:0,0:0:0:0:
317,163,56741,5,0,3:3:0:0:
398,171,56870,1,0,3:3:0:0:
462,219,56998,1,4,3:3:0:0:
497,291,57126,1,0,3:3:0:0:
503,369,57254,6,0,P|507:337|513:307,1,62.5,8|0,0:2|0:0,0:0:0:0:
286,175,57511,2,0,P|292:205|295:236,1,62.5,8|0,0:2|0:0,0:0:0:0:
498,308,57767,1,8,0:1:0:0:
512,53,58023,6,0,P|428:42|388:190,1,212.500004053116,2|2,0:0|0:3,0:0:0:0:
481,303,58536,1,2,0:0:0:0:
188,232,58793,6,0,P|197:258|211:282,1,56.2499982833863,2|0,0:1|0:0,0:0:0:0:
270,357,59305,5,8,3:2:0:0:
196,319,59434,1,0,3:0:0:0:
114,312,59562,1,0,3:0:0:0:
36,333,59690,1,0,3:0:0:0:
57,255,59818,1,8,3:1:0:0:
125,298,59946,1,0,3:0:0:0:
178,358,60075,1,0,3:0:0:0:
115,130,60331,6,0,L|103:68,1,62.5,0|0,0:0|0:0,0:0:0:0:
21,69,60844,1,4,0:3:0:0:
205,223,61100,1,4,0:3:0:0:
256,209,61229,1,0,0:0:0:0:
309,193,61357,6,0,L|324:107,1,62.5,8|8,0:2|0:2,0:0:0:0:
242,104,61870,1,8,0:1:0:0:
309,358,62126,6,0,P|363:272|489:266,1,212.500004053116,2|2,0:0|0:3,0:0:0:0:
280,357,62639,1,2,0:0:0:0:
475,160,62895,6,0,P|484:136|489:90,1,56.2499982833863,2|0,0:0|0:0,0:0:0:0:
494,21,63408,5,8,3:2:0:0:
420,58,63537,1,0,3:0:0:0:
338,65,63665,1,0,3:0:0:0:
260,44,63793,1,0,3:0:0:0:
281,122,63921,1,8,3:1:0:0:
349,79,64049,1,0,3:0:0:0:
402,19,64178,1,0,3:0:0:0:
158,20,64434,6,0,P|161:50|172:79,1,62.5,2|0,0:0|0:0,0:0:0:0:
116,365,64946,5,8,3:1:0:0:
24,349,65075,1,0,3:0:0:0:
11,259,65203,1,0,3:0:0:0:
93,218,65331,1,0,3:0:0:0:
166,285,65459,6,0,B|239:373|239:373|227:287,1,162.499992561341,0|0,1:0|0:0,0:0:0:0:
161,104,65844,2,0,B|60:120|60:120|131:150,1,162.499992561341,0|0,1:0|0:0,0:0:0:0:
312,256,66229,2,0,B|264:239|264:239|240:97,1,162.499992561341,0|0,1:0|0:0,0:0:0:0:
272,48,66613,2,0,B|320:65|320:65|344:207,1,162.499992561341,0|0,1:0|0:0,0:0:0:0:
485,212,66998,2,0,B|434:278|434:278|420:200,1,162.499992561341,0|4,1:0|0:3,0:0:0:0:
302,384,67511,5,8,3:2:0:0:
225,354,67640,1,0,3:3:0:0:
147,329,67768,1,0,3:3:0:0:
73,362,67896,1,0,3:3:0:0:
5,253,68023,5,8,3:1:0:0:
80,284,68152,1,0,3:0:0:0:
156,310,68280,2,0,B|186:321|186:321|234:285,1,62.5,2|0,3:0|2:0,2:2:0:0:
339,65,68536,6,0,P|318:173|317:273,1,187.5,2|0,0:2|0:0,0:0:0:0:
496,72,69049,5,4,3:3:0:0:
416,60,69177,1,0,3:3:0:0:
337,49,69305,1,4,3:3:0:0:
269,94,69434,1,0,3:3:0:0:
206,144,69562,6,0,P|219:185|222:240,1,62.5,8|0,0:2|0:0,0:0:0:0:
66,367,69818,1,8,3:2:0:0:
87,343,69946,1,0,3:0:0:0:
98,309,70075,1,8,0:1:0:0:
6,15,70331,6,0,P|37:56|84:80,1,106.250002026558,2|0,0:3|0:0,0:0:0:0:
253,118,70587,2,0,P|218:157|169:176,1,106.250002026558,2|0,0:3|0:0,0:0:0:0:
153,1,70844,1,2,0:3:0:0:
21,262,71100,6,0,P|8:295|5:321,1,56.2499982833863,8|0,0:1|0:0,0:0:0:0:
43,380,71614,5,8,3:2:0:0:
33,277,71742,1,0,3:0:0:0:
112,255,71870,1,0,3:0:0:0:
189,282,71998,1,0,3:0:0:0:
226,354,72127,1,8,3:1:0:0:
314,106,72382,6,0,B|320:208|218:233|231:353,1,250,2|0,0:0|0:0,0:0:0:0:
331,18,73152,5,8,3:1:0:0:
338,97,73281,1,0,3:0:0:0:
399,152,73408,1,4,3:3:0:0:
480,163,73537,1,0,3:0:0:0:
512,59,73664,5,8,3:2:0:0:
255,218,73921,1,8,0:2:0:0:
255,218,74049,1,0,1:0:0:0:
233,120,74177,1,0,1:0:0:0:
425,314,74434,6,0,P|386:281|330:273,1,106.250002026558,2|0,0:3|0:0,0:0:0:0:
180,257,74690,1,0,3:0:0:0:
180,257,74818,1,8,0:1:0:0:
180,257,74946,2,0,P|159:285|171:395,1,106.250002026558,2|0,0:3|0:0,0:0:0:0:
467,177,75203,6,0,P|461:148|445:119,1,56.2499982833863,8|0,0:1|0:0,0:0:0:0:
422,89,75716,5,8,3:2:0:0:
498,61,75845,1,0,3:0:0:0:
429,104,75973,1,0,3:0:0:0:
347,108,76101,1,0,3:0:0:0:
274,71,76229,1,8,3:1:0:0:
229,4,76357,1,0,3:0:0:0:
260,80,76485,1,2,3:0:0:0:
111,260,76742,6,0,L|174:247,1,62.5,2|0,0:0|0:0,0:0:0:0:
239,195,77255,1,4,0:3:0:0:
83,360,77511,1,4,0:3:0:0:
136,352,77640,1,0,0:0:0:0:
187,342,77767,6,0,L|250:329,1,62.5,8|8,0:0|0:0,0:0:0:0:
290,261,78281,1,8,0:1:0:0:
203,26,78537,6,0,P|149:112|23:118,1,212.500004053116,2|2,0:3|0:3,0:0:0:0:
232,27,79050,1,2,0:3:0:0:
76,210,79306,6,0,P|67:234|62:280,1,56.2499982833863,8|0,0:1|0:0,0:0:0:0:
90,299,79818,5,8,3:2:0:0:
14,327,79947,1,0,3:3:0:0:
83,284,80075,1,0,3:3:0:0:
165,280,80203,1,0,3:3:0:0:
238,317,80331,1,8,3:1:0:0:
283,384,80459,1,0,3:3:0:0:
252,308,80588,1,0,3:3:0:0:
474,366,80845,6,0,P|485:336|488:305,1,62.5,2|0,0:0|0:0,0:0:0:0:
406,78,81357,5,8,3:1:0:0:
498,93,81486,1,0,3:0:0:0:
512,185,81614,1,4,3:0:0:0:
428,226,81742,1,0,3:0:0:0:
360,162,81870,6,0,B|335:50|335:50|313:156,1,162.499992561341,0|0,1:0|0:0,0:0:0:0:
198,267,82254,2,0,B|163:376|163:376|235:295,1,162.499992561341,0|0,1:0|0:0,0:0:0:0:
364,316,82639,2,0,L|249:172,1,162.499992561341,0|0,1:0|0:0,0:0:0:0:
218,23,83023,2,0,L|158:174,1,162.499992561341,0|0,1:0|0:0,0:0:0:0:
198,267,83408,1,8,2:2:0:0:
198,267,83664,1,8,0:0:0:0:
0,218,83921,6,0,B|118:165|161:275|204:381|326:323,1,375.000014305115,2|0,0:0|0:0,0:0:0:0:
480,264,85716,1,2,0:0:0:0:
480,264,85972,2,0,P|455:223|406:191,1,93.7500035762788,2|0,0:0|0:0,0:0:0:0:
282,316,86485,2,0,P|330:314|382:288,1,93.7500035762788,2|0,0:0|0:0,0:0:0:0:
340,118,86998,2,0,P|316:160|313:218,1,93.7500035762788,2|0,0:0|0:0,0:0:0:0:
295,365,87511,1,2,0:0:0:0:
233,297,87767,1,2,0:0:0:0:
193,383,88023,6,0,P|67:338|68:146,1,324.999985122681,8|8,0:2|0:1,0:0:0:0:
127,16,89049,2,4,P|133:29|135:47,1,31.25,4|4,0:3|0:3,0:0:0:0:
140,127,89305,1,4,0:3:0:0:
0,33,89562,1,8,0:1:0:0:
64,177,89818,1,8,0:0:0:0:
233,22,90075,5,8,0:0:0:0:
307,15,90203,1,0,0:0:0:0:
379,34,90331,1,8,0:0:0:0:
438,79,90459,1,0,0:0:0:0:
403,145,90587,2,0,P|404:193|433:288,1,125,8|0,0:1|0:0,0:0:0:0:
310,320,90972,1,0,3:0:0:0:
310,320,91100,2,4,P|282:304|247:299,2,46.8750017881394,4|4|4,3:3|0:3|0:3,0:0:0:0:
508,271,91485,1,0,3:0:0:0:
511,351,91613,2,0,P|480:357|454:373,1,62.5,8|0,3:1|0:0,0:0:0:0:
324,333,91870,1,4,0:3:0:0:
391,24,92126,6,0,B|348:148|400:281|400:281|403:232|418:208,1,324.999985122681,8|8,0:2|0:1,0:0:0:0:
512,156,93152,2,4,P|496:151|474:147,1,31.25,4|4,0:3|0:3,0:0:0:0:
384,132,93408,1,4,0:3:0:0:
260,15,93664,2,0,P|230:26|203:41,1,62.5,8|0,0:1|0:0,0:0:0:0:
284,27,94049,1,0,3:3:0:0:
312,96,94177,5,8,3:2:0:0:
242,123,94305,1,0,3:3:0:0:
166,120,94434,1,8,3:2:0:0:
107,73,94562,1,0,3:3:0:0:
32,81,94690,2,0,P|11:127|5:176,1,93.7500035762788,8|0,0:1|0:0,0:0:0:0:
107,365,95203,1,4,0:3:0:0:
116,304,95331,1,4,0:3:0:0:
58,284,95459,1,4,0:3:0:0:
348,214,95716,2,0,P|334:183|314:153,1,62.5,8|0,0:1|0:0,0:0:0:0:
25,355,96229,6,0,P|48:194|123:48,1,324.999985122681,8|8,0:0|0:1,0:0:0:0:
266,221,97254,1,2,0:0:0:0:
266,221,97511,1,2,0:0:0:0:
186,197,97767,2,0,P|154:221|122:255,1,62.5,8|8,0:1|0:2,0:0:0:0:
266,221,98152,1,0,3:0:0:0:
320,151,98280,6,0,L|314:6,1,125,4|0,0:3|0:0,0:0:0:0:
490,101,98664,2,0,P|438:110|428:217,1,125,8|0,0:3|0:3,0:0:0:0:
283,365,99049,2,0,P|258:309|200:296,1,125,4|0,0:3|0:0,0:0:0:0:
512,328,99434,1,8,0:3:0:0:
432,300,99690,1,8,0:0:0:0:
432,300,99818,1,8,0:0:0:0:
350,264,100075,1,8,0:0:0:0:
438,99,100331,5,8,3:2:0:0:
416,20,100459,1,0,3:0:0:0:
492,40,100587,2,0,P|485:110|404:98,1,125,2|8,3:2|0:1,0:0:0:0:
268,5,101100,1,0,0:0:0:0:
304,136,101357,6,4,P|331:124|354:117,1,31.25,4|4,0:3|0:3,0:0:0:0:
418,105,101613,1,4,0:3:0:0:
170,368,101870,2,0,B|116:356|116:356|132:335,1,62.5,8|0,0:1|3:0,0:0:0:0:
100,332,102254,1,0,3:0:0:0:
21,311,102382,5,8,3:2:0:0:
77,252,102511,1,0,3:0:0:0:
155,272,102639,1,10,3:2:0:0:
232,294,102767,1,0,3:0:0:0:
267,366,102895,2,0,P|272:295|190:293,1,125,8|0,3:1|0:0,0:0:0:0:
135,114,103408,6,4,P|119:109|104:107,1,31.25,4|4,0:3|0:3,0:0:0:0:
19,96,103664,1,4,0:3:0:0:
303,81,103921,2,0,P|298:51|299:9,1,62.5,8|0,0:1|3:0,0:0:0:0:
270,25,104305,1,0,3:0:0:0:
196,61,104434,5,8,3:2:0:0:
124,98,104562,1,0,3:0:0:0:
112,17,104690,2,0,P|167:26|212:99,1,125,2|8,0:2|0:1,0:0:0:0:
156,353,105203,1,0,0:0:0:0:
18,229,105459,6,4,P|45:217|68:210,1,31.25,4|4,0:3|0:3,0:0:0:0:
132,198,105715,1,4,0:3:0:0:
363,375,105972,1,8,0:1:0:0:
156,353,106228,1,8,0:0:0:0:
156,353,106485,5,8,3:2:0:0:
102,292,106613,1,0,3:0:0:0:
182,278,106742,1,8,3:2:0:0:
262,267,106870,1,0,3:0:0:0:
316,328,106998,1,8,3:1:0:0:
28,333,107254,6,0,P|20:302|19:271,1,62.5,2|0,0:2|0:0,0:0:0:0:
177,181,107511,1,4,0:3:0:0:
191,240,107639,1,4,0:3:0:0:
248,263,107767,2,0,P|279:243|309:209,1,62.5,4|0,0:3|0:0,0:0:0:0:
480,0,108023,2,0,P|370:10|392:156,1,243.749988842011,10|0,0:1|0:0,0:0:0:0:
350,157,108536,5,8,3:2:0:0:
270,140,108664,1,0,3:0:0:0:
192,165,108793,2,0,P|270:195|292:248,1,125,2|8,3:2|0:1,0:0:0:0:
361,381,109305,1,0,0:0:0:0:
443,277,109562,6,4,P|436:297|424:320,1,31.25,4|4,0:3|0:3,0:0:0:0:
383,381,109818,1,4,0:3:0:0:
491,90,110075,2,0,P|479:61|460:36,1,62.5,8|0,0:1|3:0,0:0:0:0:
512,7,110459,1,0,3:0:0:0:
431,17,110587,5,8,3:2:0:0:
410,96,110716,1,0,3:0:0:0:
330,113,110844,1,10,3:2:0:0:
250,128,110972,1,0,3:0:0:0:
235,43,111100,2,0,P|167:97|157:167,1,125,8|0,0:1|0:0,0:0:0:0:
0,121,111613,6,4,P|4:99|14:75,1,31.25,4|4,0:3|0:3,0:0:0:0:
49,12,111869,1,4,0:3:0:0:
51,284,112126,2,0,P|60:313|76:340,1,62.5,8|0,0:1|3:0,0:0:0:0:
113,357,112510,1,0,3:0:0:0:
129,277,112639,5,8,3:2:0:0:
85,208,112767,1,0,3:0:0:0:
3,210,112895,2,0,P|41:200|160:189,1,125,2|8,3:2|0:1,0:0:0:0:
418,203,113408,1,0,0:0:0:0:
211,217,113664,6,4,P|234:204|265:197,1,31.25,4|4,0:3|0:3,0:0:0:0:
323,185,113921,1,4,0:3:0:0:
47,303,114177,1,8,0:1:0:0:
0,132,114433,1,8,0:2:0:0:
0,132,114690,6,0,B|68:86|68:86|194:119,1,162.499992561341,0|0,1:0|0:0,0:0:0:0:
30,314,115075,2,0,B|107:334|107:334|175:288,1,162.499992561341,0|0,1:0|0:0,0:0:0:0:
232,96,115459,2,0,L|261:268,1,162.499992561341,0|0,1:0|0:0,0:0:0:0:
352,239,115844,2,0,L|324:78,1,162.499992561341,0|0,1:0|0:0,0:0:0:0:
46,201,116229,2,0,B|80:218|95:249|95:249|98:216|126:185,1,140.625005364418,0|0,1:0|0:0,0:0:0:0:
246,166,116741,5,8,3:2:0:0:
195,103,116870,1,0,3:3:0:0:
276,91,116998,1,0,3:3:0:0:
351,128,117126,1,0,3:3:0:0:
411,73,117254,1,8,3:1:0:0:
373,0,117382,1,0,3:0:0:0:
292,11,117510,2,0,B|255:23|255:23|249:46,1,62.5,2|0,3:0|2:0,2:2:0:0:
377,277,117767,6,0,P|461:286|457:372,1,187.5,2|0,0:2|0:0,0:0:0:0:
511,172,118279,5,4,3:3:0:0:
430,147,118407,1,0,3:3:0:0:
365,196,118535,1,4,3:3:0:0:
300,246,118664,1,0,3:3:0:0:
297,327,118792,6,0,P|289:296|287:265,1,62.5,8|0,0:2|0:0,0:0:0:0:
417,56,119048,1,8,3:2:0:0:
431,90,119176,1,0,3:0:0:0:
432,124,119305,1,8,0:1:0:0:
206,323,119561,6,0,P|181:276|130:245,1,106.250002026558,2|0,0:3|0:0,0:0:0:0:
20,277,119818,2,0,P|-3:324|-1:376,1,106.250002026558,2|0,0:3|0:0,0:0:0:0:
204,343,120074,1,2,0:3:0:0:
26,84,120331,6,0,P|16:57|14:28,1,56.2499982833863,8|0,0:1|0:0,0:0:0:0:
39,81,120844,5,8,3:2:0:0:
85,11,120972,1,0,3:0:0:0:
164,28,121100,1,0,3:0:0:0:
172,108,121228,1,0,3:0:0:0:
184,188,121357,2,0,P|221:194|262:215,1,62.5,8|0,3:1|0:0,0:0:0:0:
435,170,121613,6,0,P|324:168|183:208,1,250,2|0,0:0|0:0,0:0:0:0:
507,380,122382,5,8,3:1:0:0:
428,363,122510,1,0,3:0:0:0:
420,283,122638,1,4,3:3:0:0:
408,203,122767,1,0,3:0:0:0:
313,250,122895,1,8,3:2:0:0:
84,294,123151,1,8,0:2:0:0:
84,294,123279,1,0,1:0:0:0:
171,337,123407,1,0,1:0:0:0:
304,63,123664,6,0,P|281:108|288:164,1,106.250002026558,2|0,0:3|0:0,0:0:0:0:
487,187,123920,1,0,3:0:0:0:
487,187,124049,1,8,0:1:0:0:
486,188,124177,2,0,P|453:146|404:128,1,106.250002026558,2|0,0:3|0:0,0:0:0:0:
208,371,124433,6,0,P|202:342|204:306,1,56.2499982833863,8|0,0:1|0:0,0:0:0:0:
283,343,124946,5,8,3:2:0:0:
239,272,125075,1,0,3:0:0:0:
161,250,125203,1,0,3:0:0:0:
81,267,125331,1,0,3:0:0:0:
127,333,125459,5,8,3:1:0:0:
48,355,125587,1,0,3:0:0:0:
2,287,125715,1,2,3:0:0:0:
137,89,125972,6,0,L|147:161,1,62.5,2|0,0:0|0:0,0:0:0:0:
157,239,126485,1,4,0:3:0:0:
318,379,126741,1,4,0:3:0:0:
326,326,126870,1,0,0:0:0:0:
336,274,126997,6,0,L|347:208,1,62.5,8|8,0:0|0:0,0:0:0:0:
296,132,127511,1,8,0:1:0:0:
178,365,127767,6,0,P|124:279|-2:273,1,212.500004053116,2|2,0:3|0:3,0:0:0:0:
207,364,128280,1,2,0:3:0:0:
314,89,128536,6,0,P|313:60|309:32,1,56.2499982833863,8|0,0:1|0:0,0:0:0:0:
231,41,129049,5,8,3:2:0:0:
275,112,129178,1,0,3:3:0:0:
353,134,129306,1,0,3:3:0:0:
433,117,129434,1,0,3:3:0:0:
387,51,129562,5,8,3:1:0:0:
466,29,129690,1,0,3:3:0:0:
512,97,129818,1,0,3:3:0:0:
216,10,130075,6,0,P|212:41|201:70,1,62.5,2|0,0:0|0:0,0:0:0:0:
0,174,130587,5,8,3:1:0:0:
81,173,130716,1,0,3:0:0:0:
127,239,130844,1,4,3:0:0:0:
166,309,130972,1,0,3:0:0:0:
122,377,131100,6,0,B|44:365|44:365|2:266,1,162.499992561341,0|0,1:0|0:0,0:0:0:0:
65,80,131485,2,0,B|146:89|146:89|188:188,1,162.499992561341,0|0,1:0|0:0,0:0:0:0:
254,201,131870,2,0,B|219:312|219:312|238:355,1,162.499992561341,0|0,1:0|0:0,0:0:0:0:
313,311,132254,2,0,B|349:201|349:201|330:158,1,162.499992561341,0|0,1:0|0:0,0:0:0:0:
251,113,132638,1,8,2:2:0:0:
139,247,132895,1,8,0:0:0:0:
0,12,133152,5,12,0:0:0:0:
0,12,133408,2,0,B|67:-2|96:66|113:139|194:104,1,212.500004053116,2|8,0:0|0:1,0:0:0:0:
244,227,133921,1,2,0:0:0:0:
10,131,134177,2,0,P|57:110|99:44,2,93.7500035762788,2|4|8,0:3|0:3|0:1,0:0:0:0:
67,356,134946,6,0,B|134:370|163:302|180:229|261:264,1,212.500004053116,2|8,0:0|0:2,0:0:0:0:
429,182,135459,1,2,0:0:0:0:
262,368,135716,2,0,P|221:345|197:305,1,93.7500035762788,8|0,0:1|0:0,0:0:0:0:
295,198,136229,1,2,0:0:0:0:
376,319,136485,1,10,0:2:0:0:
510,189,136741,1,8,0:1:0:0:
305,218,136998,1,10,0:0:0:0:
475,4,137254,5,8,0:2:0:0:
475,4,137511,2,0,P|367:121|292:112,1,212.500004053116,2|8,0:0|0:1,0:0:0:0:
455,275,138023,1,0,0:0:0:0:
221,153,138280,2,0,P|261:180|290:236,2,93.7500035762788,2|4|8,0:0|0:3|0:1,0:0:0:0:
28,379,139049,6,0,P|136:262|211:271,1,212.500004053116,2|8,0:0|0:2,0:0:0:0:
19,133,139562,1,2,0:0:0:0:
264,281,139818,2,0,P|261:309|246:336,1,46.8750017881394,8|0,0:1|0:0,0:0:0:0:
148,296,140075,2,0,P|151:268|166:241,1,46.8750017881394,0|0,0:0|0:0,0:0:0:0:
358,58,140331,6,0,B|301:53|255:84|255:84|202:203|133:230|133:230|59:189|-49:221,1,425.000008106232,2|8,0:0|0:1,0:0:0:0:
438,91,141100,1,8,0:0:0:0:
448,172,141229,1,8,0:0:0:0:
459,252,141357,5,12,0:0:0:0:
459,252,141613,2,0,P|355:276|320:378,1,212.500004053116,2|8,0:0|0:1,0:0:0:0:
512,336,142126,1,2,0:0:0:0:
242,219,142382,2,0,P|231:283|248:336,2,93.7500035762788,2|4|8,0:0|0:3|0:1,0:0:0:0:
155,130,143152,6,0,P|51:106|16:4,1,212.500004053116,4|8,0:3|0:0,0:0:0:0:
239,57,143664,1,2,0:0:0:0:
33,198,143921,1,8,0:1:0:0:
33,198,144177,1,2,0:0:0:0:
252,377,144434,6,0,P|214:314|225:179,1,162.499992561341,2|8,0:0|0:0,0:0:0:0:
284,183,144818,1,0,3:0:0:0:
284,183,144946,2,0,P|321:120|310:-14,1,162.499992561341,8|0,0:1|0:0,0:0:0:0:
477,371,145459,6,0,B|331:316|410:203|321:5|126:20|126:20|110:145|-7:197,1,750.000028610231,14|0,0:0|0:0,0:0:0:0:
168,334,146741,1,8,0:0:0:0:
306,198,146998,1,8,0:1:0:0:
61,365,147254,1,8,0:0:0:0:
45,285,147382,1,8,0:0:0:0:
30,204,147511,6,0,B|12:98|12:98|80:23,1,162.499992561341,0|0,1:0|0:0,0:0:0:0:
235,255,147895,2,0,B|271:214|271:214|253:108,1,162.499992561341,0|0,1:0|0:0,0:0:0:0:
153,343,148280,2,0,L|121:137,1,162.499992561341,0|0,1:0|0:0,0:0:0:0:
333,360,148664,2,0,L|301:154,1,162.499992561341,0|0,1:0|0:0,0:0:0:0:
512,97,149049,2,2,B|466:105|466:105|478:167,1,93.75,0|0,1:0|0:0,0:0:0:0:
402,237,149562,5,0,1:0:0:0:
382,156,149690,2,0,B|372:110|372:110|296:65,1,81.2499962806703,8|8,0:0|0:0,0:0:0:0:
144,112,149946,1,0,1:0:0:0:
144,112,150075,2,0,B|133:66|133:66|152:37,1,81.2499962806703,8|8,0:0|0:0,0:0:0:0:
298,300,150331,1,0,1:0:0:0:
279,220,150459,2,0,L|255:107,1,81.2499962806703,8|8,0:0|0:0,0:0:0:0:
89,348,150716,1,0,1:0:0:0:
89,348,150844,2,0,L|65:235,1,81.2499962806703,8|8,0:0|0:0,0:0:0:0:
19,12,151100,2,2,P|98:102|237:39,1,243.749988842011,2|0,0:0|0:0,0:0:0:0:
277,11,151613,5,8,3:2:0:0:
352,39,151742,1,0,3:3:0:0:
377,116,151870,1,0,3:3:0:0:
491,79,151998,5,0,3:3:0:0:
479,159,152126,1,8,3:1:0:0:
406,195,152254,1,0,3:0:0:0:
326,181,152382,2,0,P|297:163|264:158,1,62.5,2|0,3:0|2:0,2:2:0:0:
14,369,152639,5,6,0:3:0:0:
64,360,152767,1,4,0:3:0:0:
115,352,152895,1,4,0:3:0:0:
0,183,153151,5,4,3:3:0:0:
77,205,153279,1,0,3:3:0:0:
154,228,153407,1,4,3:3:0:0:
231,253,153536,1,0,3:3:0:0:
244,332,153664,6,0,P|258:304|267:273,1,62.5,8|0,0:2|0:0,0:0:0:0:
42,59,153921,2,0,P|48:89|60:118,1,62.5,8|0,3:2|3:0,0:0:0:0:
267,168,154177,1,8,0:1:0:0:
0,363,154433,6,0,P|25:316|200:300,1,212.500004053116,2|2,0:3|0:3,0:0:0:0:
332,374,154946,1,2,0:3:0:0:
69,195,155202,6,0,P|63:175|59:149,1,31.25,8|0,0:1|0:0,0:0:0:0:
230,220,155459,2,0,P|244:204|264:188,1,31.25,8|0,0:3|0:0,0:0:0:0:
328,356,155716,5,8,3:2:0:0:
409,356,155844,1,0,3:0:0:0:
454,287,155972,1,0,3:0:0:0:
418,214,156100,1,0,3:0:0:0:
448,136,156229,5,8,3:1:0:0:
145,182,156485,5,2,0:0:0:0:
306,204,156741,2,4,P|273:196|225:191,1,46.8750017881394,4|4,0:3|0:3,0:0:0:0:
42,181,156998,1,4,0:3:0:0:
7,0,157254,5,8,3:1:0:0:
44,79,157382,1,2,3:2:0:0:
129,94,157510,1,2,3:2:0:0:
215,106,157639,1,2,3:2:0:0:
302,118,157767,6,0,P|319:151|325:179,1,62.5,8|0,3:2|0:0,0:0:0:0:
140,362,158023,2,0,P|147:331|162:304,1,62.5,8|0,0:2|2:0,0:0:0:0:
312,113,158280,1,8,2:1:0:0:
512,0,158536,6,0,P|440:36|465:202,1,212.500004053116,2|2,0:3|3:0,0:0:0:0:
156,61,159049,1,2,0:3:0:0:
156,61,159177,1,8,0:0:0:0:
70,68,159305,2,0,P|55:54|46:39,1,31.25,4|0,0:3|0:0,0:0:0:0:
208,188,159562,2,0,P|223:187|238:181,1,31.25,4|0,0:3|0:0,0:0:0:0:
29,331,159818,5,8,3:2:0:0:
90,270,159947,1,0,3:0:0:0:
179,263,160075,1,0,3:0:0:0:
254,308,160203,1,0,3:0:0:0:
328,353,160331,1,8,3:1:0:0:
417,346,160459,1,0,3:0:0:0:
479,285,160588,1,2,3:0:0:0:
197,252,160844,5,4,0:3:0:0:
192,208,160972,1,4,0:3:0:0:
187,164,161100,1,4,0:3:0:0:
346,11,161357,6,0,L|337:76,1,62.5,4|4,0:3|0:3,0:0:0:0:
330,152,161742,1,0,3:0:0:0:
403,116,161870,2,0,L|417:174,2,31.25,8|2|8,0:0|0:0|0:0,0:0:0:0:
315,158,162383,1,8,0:1:0:0:
334,365,162639,6,0,P|388:279|514:273,1,212.500004053116,2|2,0:3|0:3,0:0:0:0:
299,362,163152,1,2,0:3:0:0:
487,170,163408,6,0,P|486:141|482:113,1,56.2499982833863,8|0,0:1|0:0,0:0:0:0:
455,79,163921,5,8,3:2:0:0:
400,140,164050,1,2,3:2:0:0:
320,147,164178,1,2,3:2:0:0:
253,102,164306,1,2,3:2:0:0:
308,41,164434,1,8,3:1:0:0:
388,34,164562,1,0,3:3:0:0:
455,79,164690,1,0,3:3:0:0:
169,140,164946,6,4,P|164:97|154:72,1,46.8750017881394,6|4,0:3|0:3,0:0:0:0:
137,14,165203,1,4,0:3:0:0:
0,253,165459,5,8,3:1:0:0:
93,237,165588,1,0,3:0:0:0:
187,224,165716,1,4,3:0:0:0:
281,210,165844,1,0,3:0:0:0:
346,283,165972,6,0,B|405:307|462:267|462:267|401:243,1,162.499992561341,0|0,1:0|0:0,0:0:0:0:
172,36,166357,2,0,B|231:12|288:51|288:51|227:76,1,162.499992561341,0|0,1:0|0:0,0:0:0:0:
77,37,166742,2,0,B|44:90|42:148|42:148|62:175|61:191,1,162.499992561341,0|0,1:0|0:0,0:0:0:0:
237,372,167126,2,0,B|270:319|272:261|272:261|252:234|253:218,1,162.499992561341,0|0,1:0|0:0,0:0:0:0:
453,297,167510,1,8,2:2:0:0:
453,297,167767,1,8,0:0:0:0:
472,90,168023,5,8,3:2:0:0:
392,86,168152,1,0,3:3:0:0:
365,15,168280,1,0,3:3:0:0:
448,24,168408,5,0,3:3:0:0:
464,100,168536,1,8,3:1:0:0:
405,154,168664,1,0,3:0:0:0:
324,143,168792,2,0,P|287:139|247:154,1,62.5,2|0,3:0|2:0,2:2:0:0:
48,251,169049,5,6,0:3:0:0:
36,202,169177,1,4,0:3:0:0:
25,153,169305,1,4,0:3:0:0:
237,154,169561,5,4,3:3:0:0:
317,167,169689,1,0,3:3:0:0:
350,240,169817,1,4,3:3:0:0:
387,312,169946,1,0,3:3:0:0:
427,381,170074,6,0,P|439:352|445:321,1,62.5,8|0,0:2|0:0,0:0:0:0:
223,163,170331,2,0,P|229:193|241:222,1,62.5,8|0,3:2|3:0,0:0:0:0:
467,310,170587,1,8,0:1:0:0:
500,18,170843,6,0,P|453:41|429:88,1,106.250002026558,2|0,0:3|0:0,0:0:0:0:
222,61,171100,1,6,0:3:0:0:
222,61,171229,1,4,0:3:0:0:
222,61,171357,2,0,P|219:113|247:157,1,106.250002026558,6|0,0:3|0:0,0:0:0:0:
361,336,171612,6,0,P|367:316|371:287,1,31.25,8|0,0:1|0:0,0:0:0:0:
202,228,171870,2,0,P|205:243|210:258,1,31.25,8|0,0:3|0:0,0:0:0:0:
95,376,172126,5,8,3:2:0:0:
27,317,172254,1,0,3:0:0:0:
35,236,172382,1,0,3:0:0:0:
46,155,172510,1,0,3:0:0:0:
59,74,172639,1,8,3:1:0:0:
176,338,172895,1,2,0:0:0:0:
339,176,173152,6,4,P|305:172|263:177,1,46.8750017881394,4|4,0:3|0:3,0:0:0:0:
181,174,173408,1,4,0:3:0:0:
504,0,173664,1,8,3:1:0:0:
496,81,173792,1,0,3:2:0:0:
485,162,173920,1,4,3:3:0:0:
475,244,174049,1,0,3:2:0:0:
395,154,174177,6,0,P|357:160|316:177,1,62.5,8|0,3:2|0:0,0:0:0:0:
200,331,174434,2,0,P|229:340|260:344,1,62.5,8|0,0:2|2:0,0:0:0:0:
25,147,174690,1,8,2:1:0:0:
76,303,174946,6,0,P|31:277|7:231,1,106.250002026558,2|0,0:3|0:0,0:0:0:0:
265,187,175203,1,4,3:3:0:0:
265,187,175331,1,4,0:3:0:0:
265,187,175459,2,0,P|219:213|194:259,1,106.250002026558,6|0,0:3|0:0,0:0:0:0:
172,375,175715,2,0,P|165:362|159:343,1,31.25,4|0,0:3|0:0,0:0:0:0:
7,231,175972,2,0,P|14:218|28:203,1,31.25,4|0,0:3|0:0,0:0:0:0:
265,187,176228,5,8,3:2:0:0:
265,187,176357,1,0,2:0:0:0:
265,187,176485,1,0,2:0:0:0:
265,187,176613,1,0,2:0:0:0:
320,287,176741,1,8,1:1:0:0:
400,279,176869,1,0,3:0:0:0:
481,269,176998,1,2,3:0:0:0:
512,25,177254,5,4,0:3:0:0:
471,21,177382,1,4,0:3:0:0:
431,15,177510,1,4,0:3:0:0:
343,210,177767,6,0,L|430:196,1,62.5,4|4,0:3|0:3,0:0:0:0:
490,192,178152,1,0,3:0:0:0:
512,109,178280,2,0,L|424:95,1,62.5,8|8,0:0|0:0,0:0:0:0:
476,325,178793,1,8,0:1:0:0:
253,375,179049,6,0,P|199:289|152:276,1,106.250002026558,2|0,0:3|0:0,0:0:0:0:
6,230,179305,1,6,0:3:0:0:
6,230,179434,1,4,0:3:0:0:
6,230,179562,2,0,P|45:195|96:183,1,106.250002026558,6|0,0:3|0:0,0:0:0:0:
205,21,179818,2,0,P|204:55|195:82,1,56.2499982833863,8|0,0:1|0:0,0:0:0:0:
123,43,180331,5,8,3:2:0:0:
75,109,180460,1,2,3:2:0:0:
156,118,180588,1,2,3:2:0:0:
218,67,180716,1,2,3:2:0:0:
284,19,180844,1,8,3:1:0:0:
365,24,180972,1,0,3:3:0:0:
414,88,181100,1,0,3:3:0:0:
95,85,181357,6,4,P|96:116|107:145,1,62.5,6|4,0:3|0:3,0:0:0:0:
4,382,181869,5,8,3:1:0:0:
39,297,181998,1,0,3:0:0:0:
129,281,182126,1,4,3:0:0:0:
220,268,182254,1,0,3:0:0:0:
287,205,182382,6,2,B|314:202|314:202|392:247|392:247|406:295|439:309,1,162.499992561341,0|0,1:0|0:0,0:1:0:0:
512,48,182767,2,2,B|485:45|485:45|407:90|407:90|393:138|360:152,1,162.499992561341,0|0,1:0|0:0,0:1:0:0:
285,293,183152,2,2,B|185:308|185:308|157:338|150:386,1,162.499992561341,0|0,1:0|0:0,0:1:0:0:
11,217,183536,2,2,B|110:232|110:232|139:262|146:310,1,162.499992561341,0|0,1:0|0:0,0:1:0:0:
203,221,183920,1,8,2:2:0:0:
357,373,184177,1,8,0:0:0:0:
280,17,184434,6,8,P|252:176|241:369,1,324.999985122681,8|8,0:1|0:1,0:1:0:0:
300,90,185203,1,2,0:3:0:0:
452,155,185459,2,4,P|431:144|389:134,1,46.8750017881394,4|4,0:3|0:3,0:3:0:0:
310,113,185716,1,4,0:3:0:0:
130,274,185972,6,0,P|105:248|88:210,1,62.5,4|0,0:3|0:0,0:0:0:0:
190,44,186229,2,0,P|169:20|143:2,1,62.5,4|0,0:3|0:0,0:0:0:0:
41,98,186485,5,8,0:0:0:0:
113,115,186613,1,0,0:0:0:0:
168,164,186741,1,8,0:0:0:0:
197,233,186870,1,0,0:0:0:0:
204,308,186998,6,0,P|240:307|278:292,1,62.5,8|2,0:1|0:3,0:0:0:0:
480,238,187511,1,4,0:3:0:0:
465,272,187639,1,4,0:3:0:0:
455,308,187767,1,4,0:3:0:0:
274,379,188023,1,8,0:3:0:0:
249,307,188152,1,8,0:3:0:0:
253,231,188280,1,8,0:3:0:0:
26,40,188536,6,0,P|162:167|303:217,1,324.999985122681,8|8,0:0|0:1,0:0:0:0:
347,74,189305,1,2,0:3:0:0:
489,28,189562,2,4,P|460:33|418:48,1,46.8750017881394,4|4,0:3|0:3,0:3:0:0:
345,89,189818,1,4,0:3:0:0:
398,246,190075,5,2,0:0:0:0:
480,256,190203,1,2,0:0:0:0:
405,263,190331,1,6,0:3:0:0:
342,303,190459,1,2,0:0:0:0:
286,353,190587,2,0,P|244:362|204:356,1,62.5,8|0,0:0|0:0,0:0:0:0:
96,181,190844,2,0,P|74:158|47:143,1,62.5,8|0,0:0|0:0,0:0:0:0:
63,360,191100,2,0,P|83:346|108:317,1,62.5,8|0,0:1|0:0,0:0:0:0:
198,153,191613,1,4,0:3:0:0:
189,116,191741,1,4,0:3:0:0:
169,83,191870,1,4,0:3:0:0:
332,13,192126,6,0,P|311:43|291:100,1,62.5,4|0,0:3|0:0,0:0:0:0:
308,279,192382,2,0,P|323:312|362:358,1,62.5,4|0,0:3|0:0,0:0:0:0:
512,157,192639,6,0,B|418:112|307:165|314:351|161:354|116:236,1,425.000008106232,8|8,0:0|0:1,0:0:0:0:
14,143,193408,1,2,0:3:0:0:
169,17,193664,2,4,P|161:49|138:97,1,46.8750017881394,4|4,0:3|0:3,0:3:0:0:
30,148,193921,1,4,0:3:0:0:
98,334,194177,6,0,P|122:311|187:280,1,62.5,4|0,0:3|0:0,0:0:0:0:
202,121,194434,2,0,P|178:100|151:84,1,62.5,4|0,0:3|0:0,0:0:0:0:
23,319,194690,5,10,0:0:0:0:
5,245,194818,1,2,0:0:0:0:
78,264,194946,1,10,0:0:0:0:
149,288,195075,1,0,0:0:0:0:
220,311,195203,1,8,0:1:0:0:
452,361,195459,6,0,P|436:307|440:236,1,125,2|4,0:3|0:3,0:0:0:0:
480,174,195844,1,4,0:3:0:0:
463,100,195972,1,4,0:3:0:0:
245,239,196229,1,8,0:3:0:0:
239,195,196357,1,8,0:3:0:0:
257,155,196485,1,8,0:3:0:0:
404,25,196741,6,0,B|330:187|353:362,1,324.999985122681,8|8,0:0|0:1,0:0:0:0:
338,350,197511,1,2,0:3:0:0:
477,305,197767,2,2,P|479:338|477:360,2,46.8750017881394
455,172,198280,1,8,0:1:0:0:
303,253,198536,1,8,0:2:0:0:
79,117,198793,6,0,B|119:10|119:10|128:87,1,162.499992561341,0|0,1:0|0:0,0:0:0:0:
185,258,199177,2,0,B|203:370|203:370|157:308,1,162.499992561341,0|0,1:0|0:0,0:0:0:0:
61,200,199562,2,0,B|16:267|16:267|97:261,1,162.499992561341,0|0,1:0|0:0,0:0:0:0:
231,178,199946,2,0,B|275:110|275:110|194:116,1,162.499992561341,0|0,1:0|0:0,0:0:0:0:
147,188,200331,1,0,1:0:0:0:
