osu file format v14

[General]
AudioFilename: audio.mp3
AudioLeadIn: 0
PreviewTime: 48889
Countdown: 0
SampleSet: Soft
StackLeniency: 0.7
Mode: 0
LetterboxInBreaks: 0
WidescreenStoryboard: 1

[Editor]
Bookmarks: 18256,34666,51076,67487,83897,88023,100307,116717,133128,151589,167999,184410,200563
DistanceSpacing: 1.4
BeatDivisor: 4
GridSize: 8
TimelineZoom: 2.7

[Metadata]
Title:XS
TitleUnicode:XS
Artist:Rina Sawayama
ArtistUnicode:Rina Sawayama
Creator:AJT
Version:Oh me, oh my!
Source:
Tags:english pop rock nu metal r&b electropop electronic corsace co2021 qf dt4 apollo apo11o mrowswares yaspo seolv lukas [_l_u_k_a_s_] jamesjan3 jamesjan mkguh -_ascended_- ascended -ascended-
BeatmapID:3258972
BeatmapSetID:1595537

[Difficulty]
HPDrainRate:5
CircleSize:3.6
OverallDifficulty:8
ApproachRate:9
SliderMultiplier:2.5
SliderTickRate:1

[Events]
//Background and Video events
0,0,"pexels-steve-johnson-1606591.jpg",0,0
Video,505,"video.mp4"
//Break Periods
//Storyboard Layer 0 (Background)
//Storyboard Layer 1 (Fail)
//Storyboard Layer 2 (Pass)
//Storyboard Layer 3 (Foreground)
//Storyboard Layer 4 (Overlay)
//Storyboard Sound Samples
Sample,1870,0,"soundeffect.wav",100
Sample,200555,0,"gasp.wav",100

[TimingPoints]
16229,512.820512820513,4,2,4,70,1,0
16229,-100,4,2,4,70,0,0
18280,-76.9230769230769,4,2,4,70,0,0
19305,-200,4,2,4,70,0,0
20331,-80,4,2,4,70,0,0
21357,-66.6666666666667,4,2,4,70,0,0
21870,-133.333333333333,4,2,4,70,0,0
22382,-76.9230769230769,4,2,4,70,0,0
23408,-200,4,2,4,70,0,0
24434,-74.0740740740741,4,2,4,70,0,0
25203,-100,4,2,4,70,0,0
25459,-57.1428571428571,4,2,4,70,0,0
25972,-200,4,2,4,70,0,0
26485,-76.9230769230769,4,2,4,70,0,0
27511,-200,4,2,4,70,0,0
28536,-68.9655172413793,4,2,4,70,0,0
29305,-50,4,2,4,70,0,0
29370,-50,4,2,4,5,0,0
29562,-50,4,2,4,70,0,0
30075,-200,4,2,4,70,0,0
30587,-76.9230769230769,4,2,4,70,0,0
31613,-200,4,2,4,70,0,0
32639,-100,4,2,4,70,0,0
34690,-100,4,2,4,77,0,0
35716,-200,4,2,4,77,0,0
36741,-50,4,2,4,77,0,0
37767,-200,4,2,4,77,0,0
38664,-50,4,2,4,77,0,0
39818,-200,4,2,4,77,0,0
40844,-50,4,2,4,77,0,0
42382,-76.9230769230769,4,2,4,77,0,0
42895,-83.3333333333333,4,2,4,77,0,0
43921,-200,4,2,4,77,0,0
44946,-50,4,2,4,77,0,0
45972,-200,4,2,4,77,0,0
46998,-50,4,2,4,77,0,0
48023,-200,4,2,4,77,0,0
49049,-100,4,2,4,85,0,0
51100,-100,4,2,4,90,0,0
52126,-200,4,2,4,90,0,0
52639,-100,4,2,4,90,0,0
53152,-100,4,2,4,90,0,0
53664,-58.8235294117647,4,2,4,90,0,0
54690,-333.333333333333,4,2,4,90,0,0
55075,-333.333333333333,4,2,4,5,0,0
55203,-100,4,2,4,90,0,0
56229,-200,4,2,4,90,0,0
56741,-100,4,2,4,90,0,0
57254,-50,4,2,4,90,0,0
57766,-58.8235294117647,4,2,4,90,0,0
58792,-333.333333333333,4,2,4,90,0,0
59177,-333.333333333333,4,2,4,5,0,0
59305,-100,4,2,4,90,0,0
60331,-200,4,2,4,90,0,0
61357,-50,4,2,4,90,0,0
61870,-58.8235294117647,4,2,4,90,0,0
62895,-250,4,2,4,90,0,0
63280,-250,4,2,4,5,0,0
63408,-50,4,2,4,90,0,0
64434,-200,4,2,4,90,0,0
64946,-100,4,2,4,90,0,0
65459,-100,4,2,4,90,0,0
67511,-50,4,2,4,93,0,0
68536,-100,4,2,4,93,0,0
69050,-100,4,2,4,93,0,0
69562,-50,4,2,4,93,0,0
70075,-58.8235294117647,4,2,4,93,0,0
71100,-333.333333333333,4,2,4,93,0,0
71485,-333.333333333333,4,2,4,5,0,0
71614,-100,4,2,4,93,0,0
72639,-200,4,2,4,93,0,0
73152,-100,4,2,4,93,0,0
73664,-142.857142857143,4,2,4,93,0,0
73857,-142.857142857143,4,2,4,5,0,0
73921,-50,4,2,4,93,0,0
74498,-50,4,2,4,5,0,0
74690,-50,4,2,4,93,0,0
75203,-333.333333333333,4,2,4,93,0,0
75587,-333.333333333333,4,2,4,5,0,0
75716,-100,4,2,4,93,0,0
76742,-200,4,2,4,93,0,0
77767,-50,4,2,4,93,0,0
78281,-58.8235294117647,4,2,4,93,0,0
79306,-333.333333333333,4,2,4,93,0,0
79690,-333.333333333333,4,2,4,5,0,0
79820,-100,4,2,4,93,0,0
80845,-1000,4,2,4,93,0,0
81357,-100,4,2,4,93,0,0
81870,-100,4,2,4,93,0,0
83921,-133.333333333333,4,2,4,70,0,0
88023,-76.9230769230769,4,2,4,70,0,0
89049,-200,4,2,4,70,0,0
90075,-66.6666666666667,4,2,4,70,0,0
90844,-100,4,2,4,70,0,0
91100,-66.6666666666667,4,2,4,70,0,0
91613,-100,4,2,4,70,0,0
91870,-200,4,2,4,70,0,0
91998,-200,4,2,4,70,0,0
92126,-76.9230769230769,4,2,4,70,0,0
93152,-200,4,2,4,70,0,0
93729,-200,4,2,4,5,0,0
93921,-200,4,2,4,70,0,0
94177,-66.6666666666667,4,2,4,70,0,0
95203,-50,4,2,4,70,0,0
95716,-200,4,2,4,70,0,0
96228,-66.6666666666667,4,2,4,70,0,0
97254,-500,4,2,4,70,0,0
98280,-100,4,2,4,70,0,0
100331,-100,4,2,4,77,0,0
101357,-200,4,2,4,77,0,0
102382,-100,4,2,4,77,0,0
103408,-200,4,2,4,77,0,0
103921,-400,4,2,4,77,0,0
104305,-100,4,2,4,77,0,0
105459,-200,4,2,4,77,0,0
106485,-100,4,2,4,77,0,0
108023,-76.9230769230769,4,2,4,77,0,0
108536,-100,4,2,4,77,0,0
109562,-200,4,2,4,77,0,0
110587,-100,4,2,4,77,0,0
111613,-200,4,2,4,77,0,0
112639,-100,4,2,4,77,0,0
113664,-200,4,2,4,77,0,0
114690,-100,4,2,4,85,0,0
116229,-1000,4,2,4,85,0,0
116741,-100,4,2,4,93,0,0
117767,-200,4,2,4,93,0,0
117831,-200,4,2,4,5,0,0
118152,-333.333333333333,4,2,4,5,0,0
118280,-100,4,2,4,93,0,0
118793,-50,4,2,4,93,0,0
119305,-58.8235294117647,4,2,4,93,0,0
120330,-333.333333333333,4,2,4,93,0,0
120716,-333.333333333333,4,2,4,5,0,0
120844,-100,4,2,4,93,0,0
121870,-200,4,2,4,93,0,0
122382,-100,4,2,4,93,0,0
122895,-142.857142857143,4,2,4,93,0,0
123087,-142.857142857143,4,2,4,5,0,0
123152,-50,4,2,4,93,0,0
123729,-50,4,2,4,5,0,0
123921,-50,4,2,4,93,0,0
124433,-333.333333333333,4,2,4,93,0,0
124818,-333.333333333333,4,2,4,5,0,0
124946,-100,4,2,4,93,0,0
125972,-200,4,2,4,93,0,0
128023,-58.8235294117647,4,2,4,93,0,0
128536,-333.333333333333,4,2,4,93,0,0
128921,-333.333333333333,4,2,4,5,0,0
129050,-100,4,2,4,93,0,0
130075,-1000,4,2,4,93,0,0
130587,-100,4,2,4,93,0,0
131100,-100,4,2,4,93,0,0
133152,-58.8235294117647,4,2,4,77,0,0
134177,-133.333333333333,4,2,4,77,0,0
134946,-58.8235294117647,4,2,4,77,0,0
135716,-133.333333333333,4,2,4,77,0,0
136229,-66.6666666666667,4,2,4,77,0,0
136740,-76.9230769230769,4,2,4,77,0,0
137254,-58.8235294117647,4,2,4,77,0,0
138279,-133.333333333333,4,2,4,77,0,0
139048,-58.8235294117647,4,2,4,77,0,0
139818,-133.333333333333,4,2,4,77,0,0
140331,-50,4,2,4,77,0,0
140842,-76.9230769230769,4,2,4,77,0,0
141357,-58.8235294117647,4,2,4,77,0,0
142382,-133.333333333333,4,2,4,77,0,0
143151,-58.8235294117647,4,2,4,77,0,0
143921,-133.333333333333,4,2,4,77,0,0
144434,-51.2820512820513,4,2,4,77,0,0
144946,-76.9230769230769,4,2,4,77,0,0
145459,-66.6666666666667,4,2,4,77,0,0
146484,-133.333333333333,4,2,4,77,0,0
147254,-100,4,2,4,85,0,0
149049,-200,4,2,4,85,0,0
149562,-76.9230769230769,4,2,4,85,0,0
151100,-76.9230769230769,4,2,2,85,0,0
151613,-100,4,2,4,97,0,0
152639,-100,4,2,4,97,0,0
153152,-100,4,2,4,97,0,0
153665,-100,4,2,4,97,0,0
154177,-58.8235294117647,4,2,4,97,0,0
154417,-40,4,2,4,97,0,0
155202,-200,4,2,4,97,0,0
155331,-333.333333333333,4,2,4,5,0,0
155459,-100,4,2,4,97,0,0
155523,-100,4,2,4,5,0,0
155587,-333.333333333333,4,2,4,5,0,0
155716,-100,4,2,4,97,0,0
156741,-133.333333333333,4,2,4,97,0,0
157254,-100,4,2,4,97,0,0
157767,-100,4,2,4,97,0,0
158279,-58.8235294117647,4,2,4,97,0,0
158536,-40,4,2,4,97,0,0
159305,-200,4,2,4,97,0,0
159434,-333.333333333333,4,2,4,5,0,0
159562,-200,4,2,4,97,0,0
159690,-333.333333333333,4,2,4,5,0,0
159818,-100,4,2,4,97,0,0
160844,-200,4,2,4,97,0,0
162383,-58.8235294117647,4,2,4,97,0,0
162639,-50,4,2,4,97,0,0
163408,-333.333333333333,4,2,4,97,0,0
163729,-333.333333333333,4,2,4,5,0,0
163793,-333.333333333333,4,2,4,5,0,0
163922,-100,4,2,4,97,0,0
164946,-33.3333333333333,4,2,4,97,0,0
165459,-100,4,2,4,97,0,0
165972,-100,4,2,4,97,0,0
168023,-100,4,2,4,93,0,0
169049,-100,4,2,4,93,0,0
169562,-100,4,2,4,93,0,0
170075,-100,4,2,4,93,0,0
170587,-58.8235294117647,4,2,4,93,0,0
171741,-58.8235294117647,4,2,4,5,0,0
171870,-58.8235294117647,4,2,4,93,0,0
171998,-333.333333333333,4,2,4,5,0,0
172126,-100,4,2,4,93,0,0
173151,-133.333333333333,4,2,4,93,0,0
173664,-100,4,2,4,93,0,0
174177,-100,4,2,4,93,0,0
174689,-58.8235294117647,4,2,4,93,0,0
175972,-58.8235294117647,4,2,4,93,0,0
176228,-500,4,2,37,93,0,0
176741,-500,4,2,4,93,0,0
177254,-200,4,2,4,93,0,0
178793,-58.8235294117647,4,2,4,93,0,0
179818,-500,4,2,4,93,0,0
180011,-500,4,2,4,5,0,0
180075,-500,4,2,4,93,0,0
180203,-333.333333333333,4,2,4,5,0,0
180332,-100,4,2,4,93,0,0
181356,-200,4,2,4,93,0,0
181485,-200,4,2,4,5,0,0
181741,-200,4,2,4,93,0,0
181869,-100,4,2,4,93,0,0
182382,-100,4,2,4,93,0,0
184434,-100,4,2,4,77,0,0
185459,-200,4,2,4,77,0,0
185972,-200,4,2,4,77,0,0
186998,-200,4,2,4,77,0,0
189562,-200,4,2,4,77,0,0
190075,-100,4,2,4,77,0,0
190587,-200,4,2,4,77,0,0
194690,-100,4,2,4,77,0,0
195203,-200,4,2,4,77,0,0
198793,-100,4,2,4,77,0,0
200331,-33.3333333333333,4,2,4,77,0,0
200555,-133.333333333333,4,2,4,77,0,0
200587,-133.333333333333,4,2,4,77,0,0
200620,-133.333333333333,4,2,4,5,0,0
200652,-133.333333333333,4,2,4,77,0,0

[Colours]
Combo1 : 154,97,97
Combo2 : 201,193,180
Combo3 : 238,226,196

[HitObjects]
0,0,16228,6,0,P|42:58|96:96,1,125,0|0,1:0|0:0,0:0:0:0:
427,89,16613,2,0,P|476:50|512:0,1,125,0|0,1:0|0:0,0:0:0:0:
0,0,16998,6,0,P|42:58|96:96,1,125,0|0,1:0|0:0,0:0:0:0:
427,89,17383,2,0,P|476:50|512:0,1,125,0|0,1:0|0:0,0:0:0:0:
0,0,17767,6,0,P|16:26|42:59,1,62.5,0|0,1:0|0:0,0:0:0:0:
35,51,18023,2,0,P|54:76|82:90,1,62.5,0|0,1:0|0:0,0:0:0:0:
38,305,18280,6,0,B|-61:205|114:126|-23:-29,1,324.999985122681,10|8,2:2|0:1,0:0:0:0:
0,167,19049,1,2,0:0:0:0:
38,305,19305,2,4,P|57:309|70:317,1,31.25,4|4,0:3|0:3,0:0:0:0:
67,314,19562,1,4,0:3:0:0:
368,272,19818,2,0,P|397:260|428:255,1,62.5,8|0,0:1|0:0,0:0:0:0:
464,266,20203,5,0,0:0:0:0:
464,266,20331,2,0,P|464:223|442:161,3,78.125,8|0|8|0,2:2|0:0|2:2|0:0,0:0:0:0:
455,189,20844,1,8,0:1:0:0:
455,189,21100,1,2,0:2:0:0:
208,64,21357,2,0,B|201:44|154:21|125:25,2,93.7500035762788,4|4|4,0:3|0:3|0:3,0:0:0:0:
304,320,21870,2,0,B|310:339|357:362|386:358,1,93.7500035762788,8|4,0:1|0:3,0:0:0:0:
147,384,22382,6,0,B|264:371|289:184|435:170,1,324.999985122681,10|8,2:2|0:1,0:0:0:0:
295,309,23152,1,2,0:0:0:0:
111,296,23408,2,0,P|85:305|59:326,1,31.25,4|4,0:3|0:3,0:0:0:0:
81,306,23664,1,4,0:3:0:0:
0,144,23921,1,8,0:1:0:0:
160,0,24177,1,8,0:2:0:0:
160,0,24305,1,0,0:0:0:0:
159,0,24434,6,0,P|151:37|155:82,3,84.3750003218651,8|0|8|0,0:2|0:0|0:2|0:0,0:0:0:0:
155,82,24946,1,8,0:1:0:0:
429,164,25203,2,0,P|430:210|455:186,1,62.5,2|2,0:0|0:0,0:0:0:0:
464,206,25459,2,0,P|461:242|446:317,2,109.375001043081,4|4|4,0:3|0:3|0:3,0:0:0:0:
118,311,25972,2,2,P|90:325|69:348,1,62.5,8|0,0:1|0:0,0:0:0:0:
140,129,26485,6,0,B|30:11|174:288|193:399,1,324.999985122681,10|8,0:2|0:1,0:0:0:0:
182,232,27254,1,2,0:0:0:0:
11,117,27511,2,4,P|9:100|5:87,1,31.25,4|4,0:3|0:3,0:0:0:0:
4,86,27768,1,4,0:3:0:0:
256,16,28023,1,8,3:1:0:0:
256,16,28152,2,0,P|261:30|263:46,1,31.25,0|0,3:0|2:0,3:3:0:0:
348,152,28408,1,0,3:0:0:0:
348,152,28536,6,0,B|347:144|394:109|447:130,4,90.6250027656556,8|0|8|0|8,3:2|0:0|3:2|3:0|3:1,0:0:0:0:
80,159,29305,2,0,P|79:188|86:162,1,62.5,2|0,0:2|0:0,0:0:0:0:
164,232,29562,6,0,B|165:244|90:298|8:266,2,125,4|4|4,0:3|0:3|0:3,0:0:0:0:
417,226,30075,2,0,P|442:221|425:202,1,62.5,8|0,0:1|0:0,0:0:0:0:
239,48,30587,6,0,B|176:9|47:-19|32:73|149:96|250:85,1,324.999985122681,10|8,0:2|0:1,0:0:0:0:
54,29,31357,1,2,0:0:0:0:
126,163,31613,2,4,P|140:165|157:171,1,31.25,4|4,0:3|0:3,0:0:0:0:
156,170,31870,1,4,0:3:0:0:
121,272,32126,1,8,0:1:0:0:
245,340,32382,1,8,3:2:0:0:
245,340,32511,1,0,3:0:0:0:
304,288,32639,6,0,B|398:241|412:384|546:279,3,187.500007152558,8|4|4|8,0:3|0:3|0:3|0:3,0:0:0:0:
245,340,34049,1,8,0:2:0:0:
245,340,34177,1,8,0:2:0:0:
304,288,34434,1,8,0:2:0:0:
496,144,34690,6,0,L|478:60,1,62.5,8|0,3:2|3:0,0:0:0:0:
483,83,34946,2,0,P|391:104|352:108,1,125,2|8,3:2|0:1,0:0:0:0:
288,32,35459,1,0,0:0:0:0:
252,220,35716,1,4,0:3:0:0:
224,272,35844,1,4,0:3:0:0:
256,224,35972,1,4,0:3:0:0:
144,128,36229,2,0,P|112:131|82:141,1,62.5,8|0,0:1|3:0,0:0:0:0:
16,97,36613,1,0,3:0:0:0:
16,97,36741,6,0,P|33:146|42:233,4,125,8|0|10|0|8,3:2|3:0|3:2|3:0|3:1,0:0:0:0:
124,300,37767,1,4,0:3:0:0:
112,352,37895,1,4,0:3:0:0:
124,300,38023,1,4,0:3:0:0:
256,128,38280,2,0,P|270:155|279:185,1,62.5,8|0,0:1|3:0,0:0:0:0:
368,224,38664,1,0,3:0:0:0:
368,224,38793,6,0,P|417:207|504:198,1,125,8|0,3:2|3:0,0:0:0:0:
493,222,39049,2,0,P|431:229|372:249,2,125,2|0|8,0:2|0:0|0:1,0:0:0:0:
493,222,39562,1,0,0:0:0:0:
256,0,39818,1,4,0:3:0:0:
240,48,39946,1,4,0:3:0:0:
256,0,40075,1,4,0:3:0:0:
30,75,40331,1,8,0:1:0:0:
70,230,40587,2,0,P|61:251|63:272,1,31.25,8|0,0:0|0:0,0:0:0:0:
60,259,40844,6,0,P|120:261|217:325,4,125,8|0|8|0|8,3:2|3:0|3:2|3:0|3:1,0:0:0:0:
256,384,41613,1,2,0:2:0:0:
256,0,41870,1,4,0:3:0:0:
272,48,41998,1,4,0:3:0:0:
256,0,42127,1,4,0:3:0:0:
256,0,42382,2,0,P|263:89|282:6,1,243.749988842011,10|0,0:1|0:0,0:0:0:0:
318,175,42895,6,0,B|289:191|289:191|233:183,1,74.9999977111817,8|0,3:2|3:0,0:0:0:0:
247,185,43151,2,0,P|281:333|288:396,1,149.999995422363,2|8,3:2|0:1,0:0:0:0:
192,384,43664,1,0,0:0:0:0:
464,272,43921,1,4,0:3:0:0:
412,244,44049,1,4,0:3:0:0:
464,272,44177,1,4,0:3:0:0:
144,176,44434,2,0,P|115:164|85:160,1,62.5,8|0,0:1|3:0,0:0:0:0:
84,159,44818,1,0,3:0:0:0:
84,159,44946,6,0,P|67:208|58:295,4,125,8|0|10|0|8,3:2|3:0|3:2|3:0|0:1,0:0:0:0:
304,16,45972,1,4,0:3:0:0:
256,1,46100,1,4,0:3:0:0:
304,16,46228,1,4,0:3:0:0:
336,192,46485,2,0,P|365:201|396:204,1,62.5,8|0,0:1|3:0,0:0:0:0:
463,258,46870,1,0,3:0:0:0:
463,258,46999,6,0,P|446:209|437:122,1,125,8|0,3:2|3:0,0:0:0:0:
461,133,47255,2,0,P|468:195|488:254,2,125,2|0|8,3:2|0:0|0:1,0:0:0:0:
461,133,47767,1,0,0:0:0:0:
209,77,48023,1,4,0:3:0:0:
145,93,48151,1,4,0:3:0:0:
209,77,48280,1,4,0:3:0:0:
256,192,48536,1,8,0:1:0:0:
42,129,48792,1,8,0:2:0:0:
0,384,49049,6,0,P|42:326|96:288,1,125,0|0,1:0|0:0,0:0:0:0:
427,294,49434,2,0,P|476:333|512:384,1,125,0|0,1:0|0:0,0:0:0:0:
0,384,49819,6,0,P|42:326|96:288,1,125,0|0,1:0|0:0,0:0:0:0:
427,294,50204,2,0,P|476:333|512:384,1,125,0|0,1:0|0:0,0:0:0:0:
7,384,50588,6,0,P|23:358|49:325,1,62.5,0|0,1:0|0:0,0:0:0:0:
42,332,50844,2,0,P|61:307|89:293,1,62.5,0|0,1:0|0:0,0:0:0:0:
160,192,51100,5,8,0:2:0:0:
144,160,51229,1,0,3:0:0:0:
160,64,51357,1,0,3:0:0:0:
192,48,51485,1,0,3:0:0:0:
256,112,51613,1,8,2:1:0:0:
336,130,51741,1,0,2:0:0:0:
371,203,51870,1,2,3:3:0:0:
371,203,52126,6,0,P|399:197|433:195,1,62.5,2|0,0:0|0:0,0:0:0:0:
160,208,52639,5,4,3:3:0:0:
144,176,52768,1,0,3:0:0:0:
160,80,52896,1,4,3:3:0:0:
192,64,53024,1,0,3:0:0:0:
252,153,53152,6,0,P|259:138|257:159,1,62.5,8|0,0:0|0:0,0:0:0:0:
62,114,53408,2,0,P|55:99|57:120,1,62.5,8|0,0:0|0:0,0:0:0:0:
131,289,53664,1,8,0:1:0:0:
421,171,53921,5,2,0:2:0:0:
512,0,54178,2,0,P|434:67|421:171,1,212.500004053116,2|2,0:3|0:2,0:0:0:0:
131,289,54690,2,0,P|156:290|139:303,1,56.2499982833863,8|0,0:1|0:0,0:0:0:0:
225,368,55203,5,8,3:2:0:0:
257,384,55332,1,0,3:0:0:0:
353,368,55460,1,0,3:0:0:0:
369,336,55588,1,0,3:0:0:0:
282,274,55716,1,8,3:1:0:0:
476,238,55972,6,0,P|485:207|468:186,1,62.5,2|0,0:0|0:0,0:0:0:0:
468,186,56229,2,0,P|448:186|395:172,1,62.5,2|0,0:0|0:0,0:0:0:0:
0,0,56741,5,0,3:3:0:0:
24,86,56870,1,0,3:3:0:0:
46,78,56998,1,4,3:3:0:0:
146,86,57126,1,0,3:3:0:0:
134,104,57254,6,0,P|128:153|128:228,1,125,8|0,0:2|0:0,0:0:0:0:
128,228,57511,2,0,P|82:235|6:267,2,125,8|0|8,0:2|0:0|0:1,0:0:0:0:
191,311,58023,6,0,P|283:325|434:389,2,212.500004053116,2|2|2,0:0|0:3|0:0,0:0:0:0:
180,326,58793,2,0,P|150:330|101:351,1,74.9999977111817,2|8,0:1|3:2,0:0:0:0:
77,344,59434,5,0,3:0:0:0:
32,256,59562,1,0,3:0:0:0:
46,228,59690,1,0,3:0:0:0:
31,167,59818,1,8,3:1:0:0:
77,209,59946,1,0,3:0:0:0:
139,216,60075,1,0,3:0:0:0:
157,206,60331,6,0,P|166:165|203:79,1,125,2|4,0:0|0:3,0:0:0:0:
0,0,61100,1,4,0:3:0:0:
48,16,61229,1,0,0:0:0:0:
0,0,61357,6,0,P|13:40|25:163,3,125,8|0|8|0,0:2|0:0|0:2|0:0,0:0:0:0:
25,121,61870,1,8,0:1:0:0:
101,223,62126,6,0,B|192:299|234:173|320:271,2,212.500004053116,2|2|2,0:0|0:3|0:0,0:0:0:0:
242,325,62895,2,0,P|249:358|281:346,1,74.9999977111817,2|0,0:0|0:0,0:0:0:0:
298,340,63408,6,0,P|324:343|435:376,1,125,8|0,3:2|3:0,0:0:0:0:
512,192,63664,2,0,P|486:195|375:228,1,125,0|0,3:0|3:0,0:0:0:0:
283,164,63921,1,8,3:1:0:0:
362,208,64049,1,0,3:0:0:0:
416,96,64178,1,0,3:0:0:0:
512,192,64434,6,0,P|507:215|501:259,1,62.5,2|0,0:0|0:0,0:0:0:0:
283,164,64946,5,8,3:1:0:0:
362,208,65075,1,0,3:0:0:0:
436,119,65203,1,0,3:0:0:0:
512,87,65331,1,0,3:0:0:0:
512,0,65459,6,0,P|470:58|416:96,1,125,0|0,1:0|0:0,0:0:0:0:
84,89,65844,2,0,P|35:50|0:0,1,125,0|0,1:0|0:0,0:0:0:0:
512,0,66229,6,0,P|470:58|416:96,1,125,0|0,1:0|0:0,0:0:0:0:
84,89,66614,2,0,P|35:50|0:0,1,125,0|0,1:0|0:0,0:0:0:0:
512,3,66998,6,0,P|497:30|468:62,1,62.5,0|0,1:0|0:0,0:0:0:0:
476,54,67254,2,0,P|457:79|429:93,1,62.5,4|0,0:3|0:0,0:0:0:0:
256,192,67511,6,0,B|288:240|224:288|256:320,3,125,8|0|0|0,3:2|3:3|3:3|3:3,0:0:0:0:
336,352,68024,1,8,3:1:0:0:
176,352,68152,1,0,3:0:0:0:
336,352,68281,1,2,3:0:0:0:
0,192,68536,6,0,B|19:163|59:181|59:181|83:149|121:183,1,125,2|0,0:2|0:0,0:0:0:0:
336,352,69049,5,4,3:3:0:0:
176,352,69177,1,0,3:3:0:0:
336,352,69306,1,4,3:3:0:0:
176,352,69434,1,0,3:3:0:0:
256,192,69562,6,0,B|288:240|224:288|256:320,1,125,8|0,0:2|0:0,0:0:0:0:
256,192,69818,2,0,B|288:144|224:96|256:64,1,125,8|0,3:2|3:0,0:0:0:0:
250,311,70075,1,8,0:1:0:0:
89,171,70331,5,2,0:3:0:0:
0,0,70588,2,0,P|78:67|90:171,1,212.500004053116,2|2,0:3|0:3,0:0:0:0:
381,289,71100,2,0,P|356:290|373:303,1,56.2499982833863,8|0,0:1|0:0,0:0:0:0:
304,368,71613,5,8,3:2:0:0:
235,382,71742,1,0,3:0:0:0:
164,311,71870,1,0,3:0:0:0:
103,277,71998,1,0,3:0:0:0:
129,214,72126,1,8,3:1:0:0:
0,64,72382,6,0,P|-9:33|8:12,1,62.5,2|0,0:0|0:0,0:0:0:0:
8,12,72639,2,0,P|28:12|81:-2,1,62.5
177,362,73152,5,8,3:1:0:0:
96,316,73280,1,0,3:0:0:0:
130,233,73408,1,4,3:3:0:0:
64,171,73536,1,0,3:0:0:0:
144,96,73664,6,0,P|138:47|148:45,1,65.624997997284,8|0,3:2|0:0,0:0:0:0:
157,42,73921,2,0,P|203:49|279:81,2,125,8|0|0,0:2|1:0|1:0,0:0:0:0:
368,288,74434,6,0,P|374:337|364:339,1,62.5,2|0,0:3|0:0,0:0:0:0:
355,342,74691,2,0,P|309:335|233:303,2,125,0|8|2,3:0|0:1|0:3,0:0:0:0:
0,192,75203,2,0,P|6:163|22:134,1,56.2499982833863,8|0,0:1|0:0,0:0:0:0:
57,59,75716,5,8,3:2:0:0:
133,31,75845,1,0,3:0:0:0:
215,79,75973,1,0,3:0:0:0:
297,75,76101,1,0,3:0:0:0:
377,11,76229,1,8,3:1:0:0:
444,56,76357,1,0,3:0:0:0:
368,25,76485,1,2,3:0:0:0:
512,384,76742,6,0,L|449:371,1,62.5,2|0,0:0|0:0,0:0:0:0:
0,384,77254,2,0,L|63:371,1,62.5,4|4,0:3|0:3,0:0:0:0:
77,344,77640,1,0,0:0:0:0:
144,272,77767,6,0,P|179:271|281:241,1,125,8|0,0:0|0:0,0:0:0:0:
248,153,78023,2,0,P|213:154|111:184,1,125,8|0,0:0|0:0,0:0:0:0:
265,248,78281,1,8,0:1:0:0:
512,16,78537,6,0,B|429:-51|367:108|295:-27,2,212.500004053116,2|2|2,0:3|0:3|0:3,0:0:0:0:
496,192,79306,2,0,P|505:216|510:262,1,56.2499982833863,8|0,0:1|0:0,0:0:0:0:
455,325,79818,5,8,3:2:0:0:
379,353,79947,1,0,3:3:0:0:
297,305,80075,1,0,3:3:0:0:
215,309,80203,1,0,3:3:0:0:
135,373,80331,1,8,3:1:0:0:
68,328,80459,1,0,3:3:0:0:
144,359,80587,1,0,3:3:0:0:
256,192,80845,6,0,L|256:208,1,12.5,2|0,0:0|0:0,0:0:0:0:
0,0,81357,5,8,3:1:0:0:
48,96,81486,1,0,3:0:0:0:
0,192,81613,1,4,3:0:0:0:
48,288,81742,1,0,3:0:0:0:
0,384,81870,6,0,P|42:326|96:288,1,125,0|0,1:0|0:0,0:0:0:0:
427,294,82255,2,0,P|476:333|512:384,1,125,0|0,1:0|0:0,0:0:0:0:
0,384,82640,6,0,P|42:326|96:288,1,125,0|0,1:0|0:0,0:0:0:0:
427,294,83023,2,0,P|476:333|512:384,1,125,0|0,1:0|0:0,0:0:0:0:
0,384,83409,6,0,P|16:358|42:325,1,62.5,8|0,2:2|0:0,0:0:0:0:
35,333,83665,2,0,P|54:308|82:294,1,62.5,8|0,0:0|0:0,0:0:0:0:
256,192,83921,5,2,0:0:0:0:
256,192,84049,12,0,85459,0:0:0:0:
0,326,85716,5,2,0:0:0:0:
0,326,85972,2,0,P|41:301|42:239,1,93.7500035762788,2|0,0:0|0:0,0:0:0:0:
0,160,86485,1,2,0:0:0:0:
0,160,86741,2,0,P|29:161|45:145,1,46.8750017881394,2|0,0:0|0:0,0:0:0:0:
96,64,86998,6,0,L|85:37,6,23.4375008940697,2|0|0|0|0|0|0,0:0|0:0|0:0|0:0|0:0|0:0|0:0,0:0:0:0:
133,93,87511,2,0,L|126:134,2,23.4375008940697,2|0|0,0:0|0:0|0:0,0:0:0:0:
173,69,87767,1,2,0:0:0:0:
173,69,88023,6,0,B|174:102|360:136|462:7,1,324.999985122681,8|8,0:2|0:1,0:0:0:0:
318,146,89049,2,4,P|331:140|349:138,1,31.25,4|4,0:3|0:3,0:0:0:0:
347,138,89305,1,4,0:3:0:0:
208,240,89562,1,8,0:1:0:0:
96,208,89818,1,8,0:0:0:0:
48,176,89946,1,0,0:0:0:0:
96,224,90075,6,0,P|92:256|90:332,3,93.7500035762788,8|0|8|0,0:0|0:0|0:0|0:0,0:0:0:0:
7,384,90587,2,0,P|90:341|183:331,1,187.500007152558,8|0,0:1|0:0,0:0:0:0:
294,332,90972,1,0,3:0:0:0:
294,332,91100,2,4,P|266:316|184:300,2,93.7500035762788,4|4|4,3:3|0:3|0:3,0:0:0:0:
512,16,91613,2,0,P|495:47|455:38,1,62.5,8|0,3:1|0:0,0:0:0:0:
391,24,91870,1,4,0:3:0:0:
409,323,92126,6,0,B|414:386|359:443|287:100,1,324.999985122681,8|8,0:2|0:1,0:0:0:0:
279,259,92895,1,2,0:0:0:0:
342,57,93152,2,4,P|325:45|304:43,1,31.25,4|4,0:3|0:3,0:0:0:0:
315,42,93408,1,4,0:3:0:0:
512,0,93664,2,0,P|507:13|508:26,1,15.625,8|0,0:1|0:0,0:0:0:0:
315,42,93921,1,0,3:0:0:0:
256,96,94049,1,0,3:3:0:0:
176,80,94177,6,0,P|145:100|109:170,1,93.7500035762788,8|0,3:2|3:3,0:0:0:0:
69,222,94434,2,0,P|95:186|73:148,1,93.7500035762788,8|0,3:2|3:3,0:0:0:0:
0,9,94690,1,8,0:1:0:0:
281,28,94946,1,2,0:0:0:0:
14,56,95203,6,0,P|19:121|35:204,2,125,4|4|4,0:3|0:3|0:3,0:0:0:0:
96,256,95716,1,8,0:1:0:0:
256,192,95972,1,2,0:0:0:0:
512,384,96229,6,0,B|392:366|351:266|301:388|144:362,1,375.000014305115,8|8,0:0|0:1,0:0:0:0:
80,80,97254,2,0,P|94:86|108:84,3,25,2|2|8|8,0:0|0:0|0:1|0:2,0:0:0:0:
80,80,98152,1,0,3:0:0:0:
22,26,98280,6,0,B|94:-37|96:106|180:72,3,187.500007152558,4|8|4|8,0:3|0:3|0:3|0:3,0:0:0:0:
459,187,99690,1,8,0:0:0:0:
459,187,99818,1,8,0:0:0:0:
256,208,100075,1,8,0:0:0:0:
109,307,100331,5,8,3:2:0:0:
44,316,100459,1,0,3:0:0:0:
109,307,100587,2,0,P|88:215|84:176,1,125,2|8,3:2|0:1,0:0:0:0:
0,62,101100,1,2,0:0:0:0:
204,51,101357,6,4,P|189:55|175:63,1,31.25,4|4,0:3|0:3,0:0:0:0:
204,51,101613,1,4,0:3:0:0:
208,272,101870,2,0,P|187:261|180:239,1,31.25,8|0,0:1|0:0,0:0:0:0:
242,180,102126,2,0,P|252:159|274:152,1,31.25,0|0,3:0|3:0,0:0:0:0:
403,77,102382,5,8,3:2:0:0:
468,68,102510,1,0,3:0:0:0:
403,77,102639,5,10,3:2:0:0:
468,68,102767,1,0,3:0:0:0:
403,77,102895,2,0,P|424:169|428:208,1,125,8|2,3:1|0:0,0:0:0:0:
204,333,103408,6,4,P|189:329|175:321,1,31.25,4|4,0:3|0:3,0:0:0:0:
204,333,103664,1,4,0:3:0:0:
0,192,103921,6,0,P|15:196|29:204,1,31.25,8|0,0:1|3:0,0:0:0:0:
28,203,104305,1,0,3:0:0:0:
154,203,104434,5,8,3:2:0:0:
90,171,104562,1,0,3:0:0:0:
154,203,104690,2,0,P|246:182|285:178,1,125,2|8,0:2|0:1,0:0:0:0:
304,272,105203,1,2,0:0:0:0:
512,112,105459,6,4,P|485:100|462:93,1,31.25,4|4,0:3|0:3,0:0:0:0:
425,39,105715,1,4,0:3:0:0:
384,224,105972,1,8,0:1:0:0:
256,112,106229,2,0,P|263:94|269:65,1,31.25,8|0,0:0|0:0,0:0:0:0:
192,16,106485,5,8,3:2:0:0:
112,32,106613,1,0,3:0:0:0:
192,16,106741,1,8,3:2:0:0:
112,32,106870,1,0,3:0:0:0:
192,16,106998,1,8,3:1:0:0:
192,16,107254,6,0,P|183:49|178:87,1,62.5,2|0,0:2|0:0,0:0:0:0:
256,256,107511,1,4,0:3:0:0:
192,304,107639,1,4,0:3:0:0:
256,256,107767,2,0,P|246:222|238:182,1,62.5,4|0,0:3|0:0,0:0:0:0:
409,166,108023,2,0,P|442:188|458:225,1,81.2499962806703,10|0,0:1|0:0,0:0:0:0:
351,30,108280,2,0,P|342:69|315:98,1,81.2499962806703,2|0,0:0|0:0,0:0:0:0:
130,173,108536,5,8,3:2:0:0:
48,144,108664,1,0,3:0:0:0:
130,173,108793,2,0,P|118:234|110:314,1,125,2|8,3:2|0:1,0:0:0:0:
176,368,109305,1,2,0:0:0:0:
256,192,109562,6,4,P|276:185|299:173,1,31.25,4|4,0:3|0:3,0:0:0:0:
256,192,109818,1,4,0:3:0:0:
160,96,110075,2,0,P|131:84|106:55,1,62.5,8|0,0:1|3:0,0:0:0:0:
176,0,110459,1,0,3:0:0:0:
256,32,110587,5,8,3:2:0:0:
176,0,110716,1,0,3:0:0:0:
256,32,110844,1,10,3:2:0:0:
176,0,110972,1,0,3:0:0:0:
256,32,111100,2,0,P|269:91|265:172,1,125,8|2,0:1|0:0,0:0:0:0:
0,121,111613,6,4,P|4:99|14:75,1,31.25,4|4,0:3|0:3,0:0:0:0:
49,12,111869,1,4,0:3:0:0:
51,284,112126,2,0,P|60:313|65:327,1,31.25,8|0,0:1|0:0,0:0:0:0:
144,336,112382,2,0,P|173:345|187:350,1,31.25,0|0,3:0|3:0,0:0:0:0:
272,256,112639,5,8,3:2:0:0:
352,288,112767,1,0,3:0:0:0:
272,256,112895,2,0,P|262:218|251:99,1,125,2|8,3:2|0:1,0:0:0:0:
288,48,113408,1,2,0:0:0:0:
112,40,113664,6,4,P|89:27|58:20,1,31.25,4|4,0:3|0:3,0:0:0:0:
112,40,113921,1,4,0:3:0:0:
288,48,114177,1,8,0:1:0:0:
202,0,114433,1,8,0:2:0:0:
512,0,114690,6,0,P|470:58|416:96,1,125,0|0,1:0|0:0,0:0:0:0:
84,89,115075,2,0,P|35:50|0:0,1,125,0|0,1:0|0:0,0:0:0:0:
512,0,115460,6,0,P|470:58|416:96,1,125,0|0,1:0|0:0,0:0:0:0:
84,89,115845,2,0,P|35:50|0:0,1,125,0|0,1:0|0:0,0:0:0:0:
256,0,116229,6,0,L|256:16,1,12.5,0|0,1:0|0:0,0:0:0:0:
16,192,116741,5,8,3:2:0:0:
96,240,116870,1,0,3:3:0:0:
176,192,116998,1,0,3:3:0:0:
256,240,117126,1,0,3:3:0:0:
336,192,117254,1,8,3:1:0:0:
416,240,117382,1,0,3:0:0:0:
496,192,117510,1,2,3:0:0:0:
256,0,117767,6,0,L|256:16,1,15.625,2|0,0:2|0:0,0:0:0:0:
176,192,118280,5,4,3:3:0:0:
336,192,118408,1,0,3:3:0:0:
336,192,118536,1,4,3:3:0:0:
176,192,118664,1,0,3:3:0:0:
336,192,118793,6,0,B|384:224|432:160|464:192,1,125,8|0,0:2|0:0,0:0:0:0:
176,192,119049,2,0,B|128:224|80:160|48:192,1,125,8|0,3:2|3:0,0:0:0:0:
256,240,119305,1,8,0:1:0:0:
512,0,119562,6,0,B|470:61|380:-23|475:192,2,212.500004053116,2|2|2,0:3|0:3|0:3,0:0:0:0:
270,360,120331,2,0,P|254:379|252:359,1,56.2499982833863,8|0,0:1|0:0,0:0:0:0:
224,272,120844,5,8,3:2:0:0:
288,208,120972,1,0,3:0:0:0:
224,144,121100,1,0,3:0:0:0:
288,80,121228,1,0,3:0:0:0:
224,16,121357,2,0,P|187:10|146:-11,1,62.5,8|0,3:1|0:0,0:0:0:0:
352,144,121613,6,0,P|389:150|430:171,1,62.5,2|0,0:0|0:0,0:0:0:0:
224,16,121870,2,0,P|187:10|146:-11,1,62.5,2|0,0:0|0:0,0:0:0:0:
288,272,122382,5,8,3:1:0:0:
224,208,122510,1,0,3:0:0:0:
288,272,122638,1,4,3:3:0:0:
224,80,122766,1,0,3:0:0:0:
288,16,122895,6,0,P|337:22|339:12,1,65.624997997284,8|0,3:2|0:0,0:0:0:0:
358,21,123152,2,0,P|404:28|480:60,2,125,8|0|0,0:2|1:0|1:0,0:0:0:0:
224,368,123664,6,0,P|175:362|173:372,1,62.5,2|0,0:3|0:0,0:0:0:0:
154,363,123921,2,0,P|108:356|32:324,2,125,0|8|2,3:0|0:1|0:3,0:0:0:0:
512,192,124433,2,0,P|503:220|483:250,1,56.2499982833863,8|0,0:1|0:0,0:0:0:0:
460,345,124946,5,8,3:2:0:0:
384,320,125075,1,0,3:0:0:0:
320,268,125203,1,0,3:0:0:0:
268,192,125331,1,0,3:0:0:0:
320,115,125459,1,8,3:1:0:0:
384,63,125587,1,0,3:0:0:0:
460,38,125716,1,2,3:0:0:0:
0,384,125972,6,0,L|63:371,1,62.5,2|0,0:0|0:0,0:0:0:0:
512,384,126484,2,0,L|449:371,1,62.5,4|4,0:3|0:3,0:0:0:0:
420,362,126870,1,0,0:0:0:0:
512,384,126998,6,0,L|449:371,1,62.5,8|8,0:0|0:0,0:0:0:0:
0,384,127511,2,0,L|63:371,1,62.5,8|2,0:1|0:3,0:0:0:0:
0,0,128023,6,0,B|42:61|132:-23|37:192,1,212.500004053116,2|2,0:3|0:3,0:0:0:0:
7,264,128536,2,0,P|16:292|36:322,1,56.2499982833863,8|0,0:1|0:0,0:0:0:0:
51,345,129049,5,8,3:2:0:0:
128,320,129178,1,0,3:3:0:0:
192,268,129306,1,0,3:3:0:0:
243,192,129434,1,0,3:3:0:0:
192,115,129562,1,8,3:1:0:0:
128,64,129690,1,0,3:3:0:0:
51,38,129819,1,0,3:3:0:0:
256,384,130075,6,0,L|256:368,1,12.5,2|0,0:0|0:0,0:0:0:0:
512,0,130587,5,8,3:1:0:0:
464,96,130716,1,0,3:0:0:0:
512,192,130843,1,4,3:0:0:0:
464,288,130972,1,0,3:0:0:0:
512,384,131100,6,0,P|470:326|416:288,1,125,0|0,1:0|0:0,0:0:0:0:
85,294,131485,2,0,P|36:333|0:384,1,125,0|0,1:0|0:0,0:0:0:0:
512,384,131870,6,0,P|470:326|416:288,1,125,0|0,1:0|0:0,0:0:0:0:
85,294,132254,2,0,P|36:333|0:384,1,125,0|0,1:0|0:0,0:0:0:0:
512,384,132639,6,0,P|496:358|470:325,1,62.5,8|0,2:2|0:0,0:0:0:0:
477,333,132895,2,0,P|458:308|430:294,1,62.5,8|0,0:0|0:0,0:0:0:0:
256,192,133152,5,12,0:0:0:0:
266,182,133408,2,0,B|339:99|261:335,1,212.500004053116,2|8,0:0|0:1,0:0:0:0:
263,329,133921,1,2,0:0:0:0:
376,93,134177,2,0,B|311:20|379:228,1,187.500007152558,2|8,0:3|0:1,0:0:0:0:
240,0,134946,6,0,B|285:-37|328:21|321:60|255:94|258:147,1,212.500004053116,2|8,0:0|0:2,0:0:0:0:
263,227,135459,1,2,0:0:0:0:
178,324,135716,2,0,P|137:301|145:350,1,93.7500035762788,8|0,0:1|0:0,0:0:0:0:
112,368,136100,1,0,0:0:0:0:
112,368,136229,2,0,L|21:-19,2,375.000014305115,2|8|8,0:0|0:1|0:2,0:0:0:0:
170,98,137511,6,0,B|17:242|283:200,1,212.500004053116,2|8,0:0|0:1,0:0:0:0:
304,192,138023,1,0,0:0:0:0:
364,126,138280,1,2,0:0:0:0:
382,83,138536,1,4,0:3:0:0:
384,46,138793,1,8,0:1:0:0:
160,0,139049,6,0,P|204:4|404:42,1,212.500004053116,2|8,0:0|0:2,0:0:0:0:
340,191,139562,1,2,0:0:0:0:
294,298,139818,1,8,0:1:0:0:
400,368,140075,1,0,3:0:0:0:
400,368,140203,1,0,3:0:0:0:
400,368,140331,6,0,L|491:-19,1,375.000014305115,2|0,3:2|0:0,0:0:0:0:
462,0,140844,6,0,L|508:196,1,162.499992561341,8|8,0:1|0:0,0:0:0:0:
384,64,141229,2,0,L|283:74,1,81.2499962806703,8|12,0:0|0:0,0:0:0:0:
0,0,141613,5,2,0:0:0:0:
64,179,141869,1,8,0:1:0:0:
181,27,142126,1,2,0:0:0:0:
94,193,142382,2,0,L|110:318,1,93.7500035762788,2|4,0:0|0:3,0:0:0:0:
192,352,142895,1,8,0:1:0:0:
205,343,143152,2,0,P|307:318|417:325,1,212.500004053116,4|8,0:3|0:0,0:0:0:0:
428,338,143664,5,2,0:0:0:0:
368,160,143921,1,8,0:1:0:0:
400,32,144177,1,2,0:0:0:0:
456,336,144434,6,0,P|405:128|404:75,1,243.750000929832,2|8,0:0|0:0,0:0:0:0:
512,0,144818,1,0,3:0:0:0:
512,0,144946,2,0,P|461:208|460:261,1,243.749988842011,8|0,0:1|0:0,0:0:0:0:
0,0,145459,6,0,B|162:68|83:181|23:338|43:387|35:388|227:344|15:-45|226:19|368:19,1,750.000028610231,14|0,0:0|0:0,0:0:0:0:
512,384,146741,1,8,0:0:0:0:
434,350,146998,1,8,0:1:0:0:
512,192,147254,1,8,0:0:0:0:
512,96,147382,1,8,0:0:0:0:
512,0,147511,6,0,P|470:58|416:96,1,125,0|0,1:0|0:0,0:0:0:0:
84,89,147896,2,0,P|35:50|0:0,1,125,0|0,1:0|0:0,0:0:0:0:
512,0,148280,6,0,P|470:58|416:96,1,125,0|0,1:0|0:0,0:0:0:0:
84,89,148664,2,0,P|35:50|0:0,1,125,0|0,1:0|0:0,0:0:0:0:
256,0,149049,5,0,1:0:0:0:
256,0,149305,1,2,0:0:0:0:
512,0,149562,5,0,1:0:0:0:
500,84,149690,1,8,0:0:0:0:
448,160,149818,1,8,0:0:0:0:
432,384,149946,5,0,1:0:0:0:
381,312,150074,1,8,0:0:0:0:
368,224,150202,1,8,0:0:0:0:
320,0,150331,5,0,1:0:0:0:
302,86,150459,1,8,0:0:0:0:
256,160,150587,1,8,0:0:0:0:
240,384,150715,5,0,1:0:0:0:
188,311,150843,1,8,0:0:0:0:
176,224,150971,1,8,0:0:0:0:
0,0,151100,6,2,L|11:251,1,243.749988842011,2|0,0:0|0:0,0:1:0:0:
48,384,151613,5,8,3:2:0:0:
138,359,151742,1,0,3:3:0:0:
204,293,151870,1,0,3:3:0:0:
256,214,151999,1,0,3:3:0:0:
309,293,152126,1,8,3:1:0:0:
374,359,152254,1,0,3:0:0:0:
463,377,152382,2,0,P|478:349|479:304,1,62.5,2|0,3:0|2:0,2:2:0:0:
512,0,152639,5,6,0:3:0:0:
512,0,152767,1,4,0:3:0:0:
512,0,152895,1,4,0:3:0:0:
204,293,153152,5,4,3:3:0:0:
256,214,153281,1,0,3:3:0:0:
309,293,153408,1,4,3:3:0:0:
203,293,153536,1,0,3:3:0:0:
96,320,153664,6,0,P|82:348|73:379,1,62.5,8|0,0:2|0:0,0:0:0:0:
438,377,153921,2,0,P|429:347|416:320,1,62.5,8|0,3:2|3:0,0:0:0:0:
256,192,154177,1,8,0:1:0:0:
512,0,154434,6,0,B|454:84|329:-31|460:264,2,312.5,2|2|2,0:3|0:3|0:3,0:0:0:0:
192,352,155202,2,0,P|188:368|192:384,1,31.25,8|0,0:1|0:0,0:0:0:0:
320,382,155459,2,0,P|323:367|320:352,1,31.25,8|0,0:3|0:0,0:0:0:0:
374,25,155716,5,8,3:2:0:0:
308,91,155844,1,0,3:0:0:0:
256,170,155973,1,0,3:0:0:0:
203,91,156100,1,0,3:0:0:0:
138,25,156228,1,8,3:1:0:0:
0,384,156485,5,2,0:0:0:0:
512,384,156741,1,4,0:3:0:0:
512,384,156870,1,4,0:3:0:0:
512,384,156998,1,4,0:3:0:0:
192,112,157254,5,8,3:1:0:0:
320,112,157381,1,2,3:2:0:0:
256,208,157510,1,2,3:2:0:0:
192,112,157638,1,2,3:2:0:0:
400,32,157766,6,0,P|428:46|459:55,1,62.5,8|0,3:2|0:0,0:0:0:0:
112,32,158023,2,0,P|84:46|53:55,1,62.5,8|0,0:2|2:0,0:0:0:0:
256,0,158280,1,8,2:1:0:0:
512,384,158536,6,0,B|454:300|329:415|460:120,1,312.5,2|2,0:3|3:0,0:0:0:0:
256,288,159049,1,2,0:3:0:0:
256,288,159177,1,8,0:0:0:0:
256,192,159305,1,4,0:3:0:0:
256,0,159562,1,4,0:3:0:0:
16,0,159818,5,8,3:2:0:0:
96,64,159947,1,0,3:0:0:0:
176,128,160075,1,0,3:0:0:0:
256,192,160203,1,0,3:0:0:0:
336,128,160331,1,8,3:1:0:0:
416,64,160459,1,0,3:0:0:0:
496,0,160588,1,2,3:0:0:0:
256,192,160844,5,4,0:3:0:0:
256,192,160972,1,4,0:3:0:0:
256,192,161100,1,4,0:3:0:0:
512,192,161357,5,4,0:3:0:0:
256,0,161613,1,4,0:3:0:0:
0,192,161870,1,8,0:0:0:0:
0,192,161998,1,2,0:0:0:0:
0,192,162126,1,8,0:0:0:0:
256,384,162383,1,8,0:1:0:0:
135,74,162639,6,0,B|186:48|326:48|387:72,3,250,2|2|2|8,0:3|0:3|0:3|0:1,0:0:0:0:
256,384,163664,1,12,0:3:0:0:
496,384,163921,5,8,3:2:0:0:
416,320,164050,1,2,3:2:0:0:
336,256,164178,1,2,3:2:0:0:
256,192,164306,1,2,3:2:0:0:
176,256,164434,1,8,3:1:0:0:
96,320,164562,1,0,3:3:0:0:
16,384,164691,1,0,3:3:0:0:
165,58,164946,6,4,B|203:38|203:38|309:38|309:38|347:52,2,187.500007152558,6|4|4,0:3|0:3|0:3,0:0:0:0:
256,384,165459,5,8,3:1:0:0:
256,384,165716,1,4,3:0:0:0:
0,384,165972,6,0,P|42:326|96:288,1,125,0|0,1:0|0:0,0:0:0:0:
427,294,166357,2,0,P|476:333|512:384,1,125,0|0,1:0|0:0,0:0:0:0:
0,384,166742,6,0,P|42:326|96:288,1,125,0|0,1:0|0:0,0:0:0:0:
427,294,167127,2,0,P|476:333|512:384,1,125,0|0,1:0|0:0,0:0:0:0:
0,384,167511,6,0,P|16:358|42:325,1,62.5,8|0,2:2|0:0,0:0:0:0:
256,192,167767,2,0,P|281:211|295:239,1,62.5,8|0,0:0|0:0,0:0:0:0:
512,384,168023,5,8,3:2:0:0:
490,302,168152,1,0,3:3:0:0:
430,243,168280,1,0,3:3:0:0:
359,196,168409,1,0,3:3:0:0:
430,148,168536,1,8,3:1:0:0:
490,89,168664,1,0,3:0:0:0:
512,6,168792,1,2,3:0:0:0:
82,243,169049,5,6,0:3:0:0:
153,196,169178,1,4,0:3:0:0:
82,148,169305,1,4,0:3:0:0:
490,302,169562,5,4,3:3:0:0:
430,243,169690,1,0,3:3:0:0:
359,196,169819,1,4,3:3:0:0:
430,148,169946,1,0,3:3:0:0:
490,89,170075,2,0,P|496:59|508:30,1,62.5,8|0,0:2|0:0,0:0:0:0:
490,295,170331,2,0,P|496:325|508:354,1,62.5,8|0,3:2|3:0,0:0:0:0:
490,89,170587,1,8,0:1:0:0:
0,0,170843,6,0,P|47:23|71:70,1,106.250002026558,2|0,0:3|0:0,0:0:0:0:
256,192,171100,1,6,0:3:0:0:
256,192,171229,1,4,0:3:0:0:
256,192,171357,2,0,L|256:304,1,106.250002026558,6|0,0:3|0:0,0:0:0:0:
511,0,171613,6,0,P|465:22|441:69,1,106.250002026558,8|0,0:1|0:0,0:0:0:0:
256,298,171870,2,0,L|256:192,1,106.250002026558,8|0,0:3|0:0,0:0:0:0:
22,82,172126,5,8,3:2:0:0:
82,141,172254,1,0,3:0:0:0:
153,188,172383,1,0,3:0:0:0:
82,236,172510,1,0,3:0:0:0:
22,302,172639,2,0,P|16:332|4:361,1,62.5,8|0,3:1|0:0,0:0:0:0:
22,82,172895,2,0,P|16:52|4:23,1,62.5,2|0,0:0|0:0,0:0:0:0:
430,141,173152,5,4,0:3:0:0:
359,188,173281,1,4,0:3:0:0:
430,236,173408,1,4,0:3:0:0:
22,302,173664,5,8,3:1:0:0:
82,243,173792,1,0,3:2:0:0:
153,196,173921,1,4,3:3:0:0:
82,141,174048,1,0,3:2:0:0:
22,82,174177,2,0,P|16:52|4:23,1,62.5,8|0,3:2|0:0,0:0:0:0:
22,302,174433,2,0,P|16:332|4:361,1,62.5,8|0,0:2|2:0,0:0:0:0:
22,82,174690,1,8,2:1:0:0:
512,0,174946,6,0,P|465:23|441:70,1,106.250002026558,2|0,0:3|0:0,0:0:0:0:
304,176,175203,5,4,3:3:0:0:
257,247,175332,1,4,0:3:0:0:
209,176,175459,1,6,0:3:0:0:
1,0,175716,6,0,P|47:22|71:69,1,106.250002026558,4|0,0:3|0:0,0:0:0:0:
256,96,175972,1,4,0:3:0:0:
256,85,176101,1,0,0:0:0:0:
256,16,176229,6,0,L|256:0,3,12.5,12|0|0|0,3:2|2:0|2:0|2:0,0:0:0:0:
256,384,176741,1,8,1:1:0:0:
256,384,176869,1,0,3:0:0:0:
256,384,176998,1,2,3:0:0:0:
256,0,177254,5,4,0:3:0:0:
256,96,177383,1,4,0:3:0:0:
256,192,177511,1,4,0:3:0:0:
512,384,177767,6,0,L|487:318,1,62.5,4|4,0:3|0:3,0:0:0:0:
0,384,178152,1,0,3:0:0:0:
0,384,178280,2,0,L|25:318,1,62.5,8|8,0:0|0:0,0:0:0:0:
256,384,178793,1,8,0:1:0:0:
352,32,179049,6,0,L|352:144,1,106.250002026558,2|0,0:3|0:0,0:0:0:0:
160,352,179305,1,6,0:3:0:0:
160,352,179434,1,4,0:3:0:0:
160,352,179562,2,0,L|160:240,1,106.250002026558,6|0,0:3|0:0,0:0:0:0:
256,0,179818,6,0,B|238:0,1,18.75,8|0,0:1|0:0,0:0:0:0:
0,0,180075,1,12,0:3:0:0:
0,0,180331,5,8,3:2:0:0:
48,96,180460,1,2,3:2:0:0:
0,192,180587,1,2,3:2:0:0:
48,288,180716,1,2,3:2:0:0:
0,384,180844,1,8,3:1:0:0:
48,288,180972,1,0,3:3:0:0:
0,192,181101,1,0,3:3:0:0:
256,0,181357,6,4,L|256:32,1,31.25,6|0,0:3|0:0,0:0:0:0:
512,384,181741,1,0,0:0:0:0:
512,384,181870,5,8,3:1:0:0:
464,288,181998,1,0,3:0:0:0:
512,192,182127,1,4,3:0:0:0:
464,96,182254,1,0,3:0:0:0:
512,0,182382,6,2,P|477:50|428:89,1,125,0|0,1:0|0:0,0:1:0:0:
85,88,182767,2,2,P|37:50|0:0,1,125,0|0,1:0|0:0,0:1:0:0:
84,294,183152,2,2,P|35:331|0:383,1,125,0|0,1:0|0:0,0:1:0:0:
511,383,183537,2,2,P|475:332|427:294,1,125,0|0,1:0|0:0,0:1:0:0:
192,304,183921,6,0,P|172:328|156:354,1,62.5,8|0,2:2|0:0,0:0:0:0:
355,355,184177,2,0,P|338:328|319:303,1,62.5,8|0,0:0|0:0,0:0:0:0:
256,0,184434,5,8,0:1:0:0:
256,192,184562,12,2,185203,0:3:0:0:
256,0,185459,6,4,L|256:64,1,62.5,4|4,0:3|0:3,0:3:0:0:
256,384,185972,2,0,L|256:320,1,62.5,4|4,0:3|0:3,0:0:0:0:
256,0,186484,6,0,L|256:64,1,62.5,8|8,0:0|0:0,0:0:0:0:
256,384,186997,2,0,L|256:320,1,62.5,8|2,0:1|0:3,0:0:0:0:
256,192,187511,12,2,189305,0:3:0:0:
0,192,189562,6,4,L|64:192,1,62.5,4|4,0:3|0:3,0:3:0:0:
512,192,190075,2,0,L|448:192,1,62.5,2|2,0:0|0:0,0:0:0:0:
288,192,190331,2,0,L|224:192,1,62.5,6|2,0:3|0:0,0:0:0:0:
0,192,190587,6,0,L|64:192,1,62.5,8|8,0:0|0:0,0:0:0:0:
512,192,191100,2,0,L|448:192,1,62.5,8|0,0:1|0:0,0:0:0:0:
256,192,191613,12,2,193407,0:3:0:0:
16,0,193664,6,4,B|32:32|0:32|16:64,1,62.5,4|4,0:3|0:3,0:3:0:0:
496,384,194177,2,0,B|480:352|512:352|496:320,1,62.5,4|4,0:3|0:3,0:0:0:0:
496,0,194690,6,0,B|480:32|512:32|496:64,2,62.5,10|2|10,0:0|0:0|0:0,0:0:0:0:
16,384,195203,2,0,B|32:352|0:352|16:320,1,62.5,8|2,0:1|0:3,0:0:0:0:
256,192,195716,12,8,198536,0:2:0:0:
426,293,198793,6,0,P|475:332|511:383,1,125,0|0,1:0|0:0,0:0:0:0:
84,293,199178,2,0,P|34:331|0:383,1,125,0|0,1:0|0:0,0:0:0:0:
85,88,199563,2,0,P|36:49|0:-1,1,125,0|0,1:0|0:0,0:0:0:0:
427,89,199946,2,0,P|476:50|512:0,1,125,0|0,1:0|0:0,0:0:0:0:
242,190,200331,2,0,P|226:240|250:188,1,187.500007152558,0|0,1:0|0:0,0:0:0:0:
256,107,200555,6,0,L|256:83,1,23.4375008940697,2|0,0:0|0:0,0:0:0:0:
