osu file format v14

[General]
AudioFilename: audio.mp3
AudioLeadIn: 0
PreviewTime: 48889
Countdown: 0
SampleSet: Soft
StackLeniency: 0.7
Mode: 0
LetterboxInBreaks: 0
WidescreenStoryboard: 1

[Editor]
Bookmarks: 18256,34666,51076,67487,83897,88023,100307,116717,133128,151589,151612,167999,176228,184410,200563
DistanceSpacing: 1.4
BeatDivisor: 6
GridSize: 32
TimelineZoom: 2.799999

[Metadata]
Title:XS
TitleUnicode:XS
Artist:Rina Sawayama
ArtistUnicode:Rina Sawayama
Creator:AJT
Version:Ascended's XL
Source:
Tags:english pop rock nu metal r&b electropop electronic corsace co2021 qf dt4 apollo apo11o mrowswares yaspo seolv lukas [_l_u_k_a_s_] jamesjan3 jamesjan mkguh -_ascended_- ascended -ascended-
BeatmapID:3266738
BeatmapSetID:1595537

[Difficulty]
HPDrainRate:5
CircleSize:0
OverallDifficulty:8
ApproachRate:9.2
SliderMultiplier:3.4
SliderTickRate:1

[Events]
//Background and Video events
0,0,"pexels-steve-johnson-1606591.jpg",0,0
Video,505,"video.mp4"
//Break Periods
//Storyboard Layer 0 (Background)
//Storyboard Layer 1 (Fail)
//Storyboard Layer 2 (Pass)
//Storyboard Layer 3 (Foreground)
//Storyboard Layer 4 (Overlay)
//Storyboard Sound Samples
Sample,1870,0,"soundeffect.wav",100
Sample,200555,0,"gasp.wav",100

[TimingPoints]
16229,512.820512820513,4,2,4,70,1,0
16229,-50,4,2,4,70,0,0
16612,-100,4,2,4,70,0,0
16997,-50,4,2,4,70,0,0
17381,-100,4,2,4,70,0,0
18280,-133.333333333333,4,2,4,70,0,0
19818,-100,4,2,4,70,0,0
20331,-100,4,2,4,70,0,0
21870,-200,4,2,4,70,0,0
22382,-133.333333333333,4,2,4,70,0,0
23921,-100,4,2,4,70,0,0
25972,-200,4,2,4,70,0,0
26485,-133.333333333333,4,2,4,70,0,0
28023,-100,4,2,4,70,0,0
28536,-100,4,2,4,70,0,0
29562,-100,4,2,4,70,0,0
30587,-200,4,2,4,70,0,0
31100,-133.333333333333,4,2,4,70,0,0
32125,-100,4,2,4,70,0,0
32638,-66.6666666666667,4,2,4,70,0,0
34177,-133.333333333333,4,2,4,70,0,0
34690,-133.333333333333,4,2,4,77,0,0
34945,-83.3333333333333,4,2,4,77,0,0
40843,-100,4,2,4,77,0,0
41099,-100,4,2,4,77,0,0
42381,-100,4,2,4,77,0,0
42894,-83.3333333333333,4,2,4,77,0,0
49048,-50,4,2,4,85,0,0
49304,-50,4,2,4,85,0,0
49433,-100,4,2,4,85,0,0
49817,-50,4,2,4,85,0,0
50074,-50,4,2,4,85,0,0
50202,-100,4,2,4,85,0,0
51099,-100,4,2,4,90,0,1
51229,-100,4,2,4,90,0,0
53152,-133.333333333333,4,2,4,90,0,0
53280,-100,4,2,4,90,0,0
53408,-66.6666666666667,4,2,4,90,0,0
54177,-200,4,2,4,90,0,0
55075,-200,4,2,4,5,0,0
55203,-100,4,2,4,90,0,0
55972,-133.333333333333,4,2,4,90,0,0
57252,-133.333333333333,4,2,4,90,0,0
57380,-100,4,2,4,90,0,0
57511,-66.6666666666667,4,2,4,90,0,0
58277,-200,4,2,4,90,0,0
59177,-200,4,2,4,5,0,0
59303,-100,4,2,4,90,0,0
60331,-133.333333333333,4,2,4,90,0,0
60844,-400,4,2,4,90,0,0
61357,-133.333333333333,4,2,4,90,0,0
61870,-266.666666666667,4,2,4,90,0,0
62381,-200,4,2,4,90,0,0
63280,-200,4,2,4,5,0,0
63407,-100,4,2,4,90,0,0
64176,-133.333333333333,4,2,4,90,0,0
65456,-50,4,2,4,90,0,0
65716,-100,4,2,4,90,0,0
66229,-50,4,2,4,90,0,0
66613,-100,4,2,4,90,0,0
67508,-100,4,2,4,93,0,1
67639,-100,4,2,4,93,0,0
68535,-200,4,2,4,93,0,0
69561,-133.333333333333,4,2,4,93,0,0
69689,-100,4,2,4,93,0,0
69818,-66.6666666666667,4,2,4,93,0,0
70586,-25,4,2,4,93,0,0
70620,-25,4,2,4,50,0,0
70715,-25,4,2,4,93,0,0
70747,-25,4,2,4,50,0,0
70843,-25,4,2,4,93,0,0
71100,-25,4,2,4,93,0,0
71134,-25,4,2,4,50,0,0
71485,-25,4,2,4,5,0,0
71612,-100,4,2,4,93,0,0
72381,-133.333333333333,4,2,4,93,0,0
73661,-133.333333333333,4,2,4,93,0,0
73789,-100,4,2,4,93,0,0
73857,-100,4,2,4,5,0,0
73921,-66.6666666666667,4,2,4,93,0,0
74498,-66.6666666666667,4,2,4,5,0,0
74686,-200,4,2,4,5,0,0
74690,-200,4,2,4,93,0,0
75712,-100,4,2,4,5,0,0
75716,-100,4,2,4,93,0,0
76740,-133.333333333333,4,2,4,93,0,0
77253,-400,4,2,4,93,0,0
77766,-133.333333333333,4,2,4,93,0,0
78279,-266.666666666667,4,2,4,93,0,0
78793,-25,4,2,4,93,0,0
78827,-25,4,2,4,50,0,0
79049,-25,4,2,4,93,0,0
79305,-25,4,2,4,93,0,0
79339,-25,4,2,4,50,0,0
79690,-25,4,2,4,5,0,0
79816,-100,4,2,4,93,0,0
79820,-100,4,2,4,93,0,0
80585,-133.333333333333,4,2,4,93,0,0
80843,-200,4,2,4,93,0,0
81865,-50,4,2,4,93,0,0
82125,-100,4,2,4,93,0,0
82638,-43.4782608695652,4,2,4,93,0,0
83022,-100,4,2,4,93,0,0
83921,-100,4,2,4,70,0,0
84945,-100,4,2,4,70,0,0
86998,-100,4,2,4,70,0,0
87030,-100,4,2,4,20,0,0
87254,-100,4,2,4,70,0,0
87286,-100,4,2,4,20,0,0
87510,-100,4,2,4,70,0,0
87542,-100,4,2,4,20,0,0
87767,-100,4,2,4,70,0,0
87799,-100,4,2,4,20,0,0
88023,-100,4,2,4,70,0,0
93921,-100,4,2,4,70,0,0
97253,-133.333333333333,4,2,4,70,0,0
98278,-66.6666666666667,4,2,4,70,0,0
99816,-133.333333333333,4,2,4,70,0,0
100330,-83.3333333333333,4,2,4,77,0,0
103920,-200,4,2,4,77,0,0
104433,-83.3333333333333,4,2,4,77,0,0
106356,-83.3333333333333,4,2,4,70,0,0
106485,-83.3333333333333,4,2,4,77,0,0
112190,-83.3333333333333,4,2,4,70,0,0
112382,-83.3333333333333,4,2,4,77,0,0
114241,-83.3333333333333,4,2,4,70,0,0
114433,-83.3333333333333,4,2,4,77,0,0
114689,-50,4,2,4,85,0,0
115074,-100,4,2,4,85,0,0
115458,-50,4,2,4,85,0,0
115843,-133.333333333333,4,2,4,85,0,0
116738,-100,4,2,4,93,0,1
116869,-100,4,2,4,93,0,0
117766,-133.333333333333,4,2,4,93,0,0
118791,-133.333333333333,4,2,4,93,0,0
118917,-100,4,2,4,93,0,0
119046,-66.6666666666667,4,2,4,93,0,0
119814,-25,4,2,4,93,0,0
119850,-25,4,2,4,50,0,0
120075,-25,4,2,4,93,0,0
120331,-25,4,2,4,93,0,0
120363,-25,4,2,4,50,0,0
120713,-25,4,2,4,5,0,0
120840,-100,4,2,4,93,0,0
121609,-133.333333333333,4,2,4,93,0,0
122889,-133.333333333333,4,2,4,93,0,0
123017,-100,4,2,4,93,0,0
123085,-100,4,2,4,5,0,0
123149,-66.6666666666667,4,2,4,93,0,0
123726,-66.6666666666667,4,2,4,5,0,0
123914,-200,4,2,4,5,0,0
123918,-200,4,2,4,93,0,0
124940,-100,4,2,4,5,0,0
124944,-100,4,2,4,93,0,0
125968,-133.333333333333,4,2,4,93,0,0
126481,-400,4,2,4,93,0,0
126994,-133.333333333333,4,2,4,93,0,0
127507,-266.666666666667,4,2,4,93,0,0
128018,-25,4,2,4,93,0,0
128055,-25,4,2,4,50,0,0
128280,-25,4,2,4,93,0,0
128536,-25,4,2,4,93,0,0
128568,-25,4,2,4,50,0,0
128918,-25,4,2,4,5,0,0
129044,-100,4,2,4,93,0,0
129048,-100,4,2,4,93,0,0
129813,-133.333333333333,4,2,4,93,0,0
131093,-50,4,2,4,93,0,0
131353,-100,4,2,4,93,0,0
131866,-43.4782608695652,4,2,4,93,0,0
132250,-100,4,2,4,93,0,0
133151,-100,4,2,4,77,0,0
134305,-100,4,2,4,93,0,0
134433,-100,4,2,4,77,0,0
136100,-100,4,2,4,93,0,0
136228,-100,4,2,4,77,0,0
136357,-76.9230769230769,4,2,4,93,0,0
136485,-76.9230769230769,4,2,4,77,0,0
137253,-100,4,2,4,77,0,0
138408,-100,4,2,4,93,0,0
138536,-100,4,2,4,77,0,0
140459,-100,4,2,4,93,0,0
140844,-100,4,2,4,77,0,0
142510,-100,4,2,4,93,0,0
142638,-100,4,2,4,77,0,0
144305,-100,4,2,4,93,0,0
144434,-100,4,2,4,77,0,0
144562,-100,4,2,4,93,0,0
144690,-100,4,2,4,77,0,0
145971,-100,4,2,4,93,0,0
146484,-100,4,2,4,77,0,0
146998,-133.333333333333,4,2,4,77,0,0
147254,-133.333333333333,4,2,4,85,0,0
147510,-50,4,2,4,85,0,0
147894,-100,4,2,4,85,0,0
148279,-50,4,2,4,85,0,0
148663,-100,4,2,4,85,0,0
149048,-500,4,2,4,85,0,0
149557,-50,4,2,4,93,0,0
149562,-50,4,2,4,85,0,0
149941,-66.6666666666667,4,2,4,93,0,0
149946,-66.6666666666667,4,2,4,85,0,0
150326,-58.8235294117647,4,2,4,93,0,0
150331,-58.8235294117647,4,2,4,85,0,0
150710,-100,4,2,4,93,0,0
150716,-100,4,2,4,85,0,0
151099,-333.333333333333,4,2,2,85,0,0
151612,-100,4,2,4,97,0,1
151738,-100,4,2,4,93,0,0
151741,-100,4,2,4,97,0,0
152634,-166.666666666667,4,2,4,93,0,0
152639,-166.666666666667,4,2,4,97,0,0
153660,-133.333333333333,4,2,4,93,0,0
153664,-133.333333333333,4,2,4,97,0,0
153788,-100,4,2,4,93,0,0
153792,-100,4,2,4,97,0,0
153917,-66.6666666666667,4,2,4,93,0,0
153921,-66.6666666666667,4,2,4,97,0,0
154685,-25,4,2,4,93,0,0
154690,-25,4,2,4,97,0,0
154722,-25,4,2,4,70,0,0
154946,-25,4,2,4,97,0,0
155203,-25,4,2,4,97,0,0
155235,-25,4,2,4,70,0,0
155240,-25,4,2,4,70,0,0
155363,-25,4,2,4,70,0,0
155459,-25,4,2,4,97,0,0
155584,-25,4,2,4,5,0,0
155711,-100,4,2,4,93,0,0
155716,-100,4,2,4,97,0,0
156480,-133.333333333333,4,2,4,93,0,0
156485,-133.333333333333,4,2,4,97,0,0
156613,-133.333333333333,4,2,4,93,0,0
156741,-133.333333333333,4,2,4,97,0,0
157253,-100,4,2,4,97,0,0
157286,-66.6666666666667,4,2,4,70,0,0
157382,-66.6666666666667,4,2,4,97,0,0
157424,-66.6666666666667,4,2,4,70,0,0
157511,-133.333333333333,4,2,4,97,0,0
157596,-66.6666666666667,4,2,4,93,0,0
157760,-133.333333333333,4,2,4,93,0,0
157767,-133.333333333333,4,2,4,97,0,0
157956,-100,4,2,4,5,0,0
158020,-66.6666666666667,4,2,4,93,0,0
158023,-66.6666666666667,4,2,4,97,0,0
158597,-66.6666666666667,4,2,4,5,0,0
158785,-200,4,2,4,5,0,0
158789,-200,4,2,4,93,0,0
158793,-200,4,2,4,97,0,0
159811,-100,4,2,4,5,0,0
159815,-100,4,2,4,93,0,0
159818,-100,4,2,4,97,0,0
160839,-133.333333333333,4,2,4,93,0,0
160844,-133.333333333333,4,2,4,97,0,0
161352,-25,4,2,4,93,0,0
161357,-25,4,2,4,97,0,0
161389,-25,4,2,4,50,0,0
161613,-25,4,2,4,97,0,0
161865,-133.333333333333,4,2,4,93,0,0
161870,-133.333333333333,4,2,4,97,0,0
162894,-200,4,2,4,97,0,0
163664,-200,4,2,4,93,0,0
163789,-25,4,2,4,5,0,0
163915,-100,4,2,4,93,0,0
163919,-100,4,2,4,97,0,0
164684,-133.333333333333,4,2,4,93,0,0
164690,-133.333333333333,4,2,4,97,0,0
164942,-200,4,2,4,93,0,0
164946,-200,4,2,4,97,0,0
165964,-50,4,2,4,93,0,0
165972,-50,4,2,4,97,0,0
166224,-100,4,2,4,93,0,0
166228,-100,4,2,4,97,0,0
166737,-50,4,2,4,93,0,0
166741,-50,4,2,4,97,0,0
167121,-100,4,2,4,93,0,0
167126,-100,4,2,4,97,0,0
167639,-100,4,2,4,93,0,0
167767,-100,4,2,4,97,0,0
167895,-100,4,2,4,93,0,0
168022,-100,4,2,4,93,0,1
168148,-100,4,2,4,93,0,0
169044,-166.666666666667,4,2,4,93,0,0
170070,-100,4,2,4,93,0,0
170327,-66.6666666666667,4,2,4,93,0,0
171099,-200,4,2,4,93,0,0
172121,-100,4,2,4,93,0,0
172890,-133.333333333333,4,2,4,93,0,0
173663,-66.6666666666667,4,2,4,93,0,0
174170,-66.6666666666667,4,2,4,93,0,0
174366,-100,4,2,4,5,0,0
174430,-66.6666666666667,4,2,4,93,0,0
175007,-66.6666666666667,4,2,4,5,0,0
175195,-200,4,2,4,5,0,0
175199,-200,4,2,4,93,0,0
175715,-133.333333333333,4,2,4,93,0,0
175844,-66.6666666666667,4,2,4,5,0,0
175886,-66.6666666666667,4,2,4,93,0,0
176225,-133.333333333333,4,2,4,93,0,0
176740,-66.6666666666667,4,2,4,93,0,0
177249,-25,4,2,4,93,0,0
177762,-25,4,2,4,93,0,0
177799,-25,4,2,4,60,0,0
178023,-25,4,2,4,93,0,0
178275,-133.333333333333,4,2,4,93,0,0
179304,-200,4,2,4,93,0,0
180199,-25,4,2,4,5,0,0
180325,-100,4,2,4,93,0,0
181094,-133.333333333333,4,2,4,93,0,0
181352,-133.333333333333,4,2,4,93,0,0
182374,-45.4545454545455,4,2,4,93,0,0
182634,-100,4,2,4,93,0,0
183147,-45.4545454545455,4,2,4,93,0,0
183531,-100,4,2,4,93,0,0
184433,-66.6666666666667,4,2,4,77,0,0
184562,-66.6666666666667,4,2,4,93,0,0
184946,-66.6666666666667,4,2,4,77,0,0
185458,-133.333333333333,4,2,4,77,0,0
185843,-133.333333333333,4,2,4,93,0,0
185971,-400,4,2,4,77,0,0
186484,-133.333333333333,4,2,4,77,0,0
186997,-266.666666666667,4,2,4,77,0,0
188535,-66.6666666666667,4,2,4,77,0,0
188664,-66.6666666666667,4,2,4,93,0,0
189049,-66.6666666666667,4,2,4,77,0,0
189561,-133.333333333333,4,2,4,77,0,0
189946,-133.333333333333,4,2,4,93,0,0
190074,-400,4,2,4,77,0,0
190584,-133.333333333333,4,2,4,93,0,0
190587,-133.333333333333,4,2,4,77,0,0
191097,-266.666666666667,4,2,4,93,0,0
191100,-266.666666666667,4,2,4,77,0,0
192638,-133.333333333333,4,2,4,77,0,0
192767,-133.333333333333,4,2,4,93,0,0
193152,-133.333333333333,4,2,4,77,0,0
193661,-133.333333333333,4,2,4,93,0,0
193664,-133.333333333333,4,2,4,77,0,0
194048,-133.333333333333,4,2,4,93,0,0
194174,-400,4,2,4,93,0,0
194177,-400,4,2,4,77,0,0
194687,-133.333333333333,4,2,4,93,0,0
194690,-133.333333333333,4,2,4,77,0,0
195200,-266.666666666667,4,2,4,93,0,0
195203,-266.666666666667,4,2,4,77,0,0
196870,-266.666666666667,4,2,4,93,0,0
197254,-266.666666666667,4,2,4,77,0,0
197766,-133.333333333333,4,2,4,77,0,0
198792,-50,4,2,4,77,0,0
199176,-100,4,2,4,77,0,0
199561,-45.4545454545455,4,2,4,77,0,0
199945,-100,4,2,4,77,0,0
200554,-100,4,2,4,93,0,0

[Colours]
Combo1 : 154,97,97
Combo2 : 201,193,180
Combo3 : 238,226,196

[HitObjects]
505,40,16229,6,0,P|301:129|225:228,1,340,0|0,1:0|0:0,0:0:0:0:
115,261,16613,2,0,P|162:356|210:330,1,170,0|0,1:0|0:0,0:0:0:0:
455,275,16998,6,0,P|364:134|208:73,1,340,0|0,1:0|0:0,0:0:0:0:
98,39,17382,2,0,B|51:38|-1:97|64:166|98:113|95:94,1,170,0|0,1:0|0:0,0:0:0:0:
300,349,17767,6,0,P|248:333|213:334,1,85,0|0,1:0|0:0,0:0:0:0:
8,225,18023,2,0,P|60:241|95:240,1,85,0|0,1:0|0:0,0:0:0:0:
487,20,18280,6,0,P|416:27|305:96,1,191.250007295609,10|0,2:2|0:0,0:0:0:0:
305,88,18793,2,0,P|316:150|393:176,1,127.500004863739,8|0,0:1|0:0,0:0:0:0:
64,58,19305,5,4,0:3:0:0:
172,92,19434,1,4,0:3:0:0:
56,64,19562,1,4,0:3:0:0:
46,355,19818,6,0,P|73:278|161:274,1,170,8|0,0:1|0:0,0:0:0:0:
164,277,20203,1,0,0:0:0:0:
289,343,20331,6,0,B|375:328|333:291|440:270,2,170,8|8|8,2:2|2:2|0:1,0:0:0:0:
135,33,21357,5,4,0:3:0:0:
101,141,21485,1,4,0:3:0:0:
129,25,21613,1,4,0:3:0:0:
128,314,21870,2,0,P|101:277|63:265,1,85,8|0,0:1|0:0,0:0:0:0:
335,352,22382,6,0,P|349:258|401:178,1,191.250007295609,10|0,2:2|0:0,0:0:0:0:
418,172,22895,2,0,P|478:169|510:221,1,127.500004863739,8|0,0:1|0:0,0:0:0:0:
56,30,23408,5,4,0:3:0:0:
164,64,23536,1,4,0:3:0:0:
48,36,23664,1,4,0:3:0:0:
213,362,23921,6,0,P|201:268|180:183,1,170,8|8,0:1|0:2,0:0:0:0:
175,201,24305,1,0,0:0:0:0:
309,175,24434,6,0,P|319:90|338:7,2,170,8|8|8,0:2|0:2|0:1,0:0:0:0:
95,133,25459,5,4,0:3:0:0:
129,25,25587,1,4,0:3:0:0:
101,141,25716,1,4,0:3:0:0:
375,335,25972,2,2,P|420:310|456:303,1,85,8|0,0:1|0:0,0:0:0:0:
459,32,26485,6,0,P|483:111|378:142,1,191.250007295609,10|0,0:2|0:0,0:0:0:0:
390,164,26998,2,0,P|327:127|273:113,1,127.500004863739,8|0,0:1|0:0,0:0:0:0:
48,50,27511,5,4,0:3:0:0:
156,84,27639,1,4,0:3:0:0:
40,56,27767,1,4,0:3:0:0:
223,233,28023,6,0,P|132:251|51:291,1,170,8|0,3:1|2:0,0:0:0:0:
51,296,28408,1,0,3:0:0:0:
354,328,28536,6,0,P|344:283|331:241,1,85,8|0,3:2|0:0,0:0:0:0:
476,352,28793,2,0,P|456:262|430:178,1,170,8|8,3:2|3:1,0:0:0:0:
268,39,29305,6,0,P|255:79|246:121,1,85,2|0,0:2|0:0,0:0:0:0:
95,133,29562,5,4,0:3:0:0:
129,25,29690,1,4,0:3:0:0:
101,141,29818,1,4,0:3:0:0:
56,334,30075,2,0,P|144:309|137:241,1,170,8|0,0:1|0:0,0:0:0:0:
375,324,30587,6,0,P|309:286|303:229,1,127.5,10|0,0:2|0:0,0:0:0:0:
318,222,31100,2,0,P|326:158|349:94,1,127.500004863739,8|0,0:1|0:0,0:0:0:0:
166,101,31613,5,4,0:3:0:0:
58,67,31741,1,4,0:3:0:0:
174,95,31870,1,4,0:3:0:0:
357,358,32126,6,0,B|445:333|403:290|502:270,1,170,8|8,0:1|3:2,0:0:0:0:
512,275,32511,1,0,3:0:0:0:
292,127,32639,6,0,P|386:16|400:170,3,382.500014591218,8|4|4|8,0:3|0:3|0:3|0:3,0:0:0:0:
149,241,34049,1,8,0:2:0:0:
149,241,34177,2,0,L|76:221,1,63.7500024318696,8|0,0:2|0:0,0:0:0:0:
290,318,34434,2,0,L|217:338,1,63.7500024318696,8|0,0:2|0:0,0:0:0:0:
19,368,34690,5,8,3:2:0:0:
275,186,34946,2,0,P|241:63|180:76,2,203.999993774414,2|8|0,3:2|0:1|0:0,0:0:0:0:
437,349,35716,5,4,0:3:0:0:
471,241,35844,1,4,0:3:0:0:
443,357,35972,1,4,0:3:0:0:
130,161,36229,2,0,P|244:110|444:78,1,305.999990661621,8|0,0:1|3:0,0:0:0:0:
54,58,36741,5,8,3:2:0:0:
180,343,36998,2,0,B|196:229|260:305|273:162,2,203.999993774414,10|8|0,3:2|3:1|0:0,0:0:0:0:
504,317,37767,5,4,0:3:0:0:
396,283,37895,1,4,0:3:0:0:
512,311,38023,1,4,0:3:0:0:
245,55,38280,2,0,P|269:164|298:376,1,305.999990661621,8|0,0:1|3:0,0:0:0:0:
370,76,38793,5,8,3:2:0:0:
147,132,39049,2,0,P|63:92|106:-2,2,203.999993774414,2|8|0,0:2|0:1|0:0,0:0:0:0:
472,247,39818,5,4,0:3:0:0:
438,355,39946,1,4,0:3:0:0:
466,239,40075,1,4,0:3:0:0:
30,247,40331,2,0,P|180:270|321:329,1,305.999990661621,8|0,0:1|0:0,0:0:0:0:
74,364,40844,5,8,3:2:0:0:
216,115,41100,2,0,P|288:112|311:197,1,170,8|8,3:2|3:1,0:0:0:0:
208,123,41613,1,2,0:2:0:0:
397,274,41870,5,4,0:3:0:0:
505,308,41998,1,4,0:3:0:0:
389,280,42126,1,4,0:3:0:0:
194,361,42382,6,0,B|153:145|92:280|72:124,1,255,10|0,0:1|0:0,0:0:0:0:
67,334,42895,5,8,3:2:0:0:
281,233,43152,2,0,P|291:144|319:19,2,203.999993774414,2|8|0,3:2|0:1|0:0,0:0:0:0:
504,307,43921,5,4,0:3:0:0:
393,259,44049,1,4,0:3:0:0:
512,301,44177,1,4,0:3:0:0:
138,202,44434,6,0,P|248:153|431:138,1,305.999990661621,8|0,0:1|3:0,0:0:0:0:
181,64,44946,5,8,3:2:0:0:
117,330,45203,2,0,P|15:296|43:184,2,203.999993774414,10|8|0,3:2|0:1|0:0,0:0:0:0:
431,336,45972,5,4,0:3:0:0:
465,228,46100,1,4,0:3:0:0:
437,344,46229,1,4,0:3:0:0:
333,50,46485,2,0,P|283:193|253:359,1,305.999990661621,8|0,0:1|3:0,0:0:0:0:
435,114,46998,5,8,3:2:0:0:
187,61,47254,2,0,B|61:78|143:137|6:154,2,203.999993774414,2|8|0,3:2|0:1|0:0,0:0:0:0:
504,314,48023,5,4,0:3:0:0:
396,280,48152,1,4,0:3:0:0:
512,308,48280,1,4,0:3:0:0:
243,350,48536,2,0,P|154:312|169:215,1,203.999993774414,8|8,0:1|0:2,0:0:0:0:
253,343,48921,1,0,0:0:0:0:
187,61,49049,6,0,P|377:109|487:211,1,340,0|0,1:0|0:0,0:0:0:0:
483,321,49434,2,0,P|431:330|377:228,1,170,0|0,1:0|0:0,0:0:0:0:
0,342,49818,6,0,B|163:304|63:203|270:156,1,340,0|0,1:0|0:0,0:0:0:0:
298,32,50203,2,0,P|358:23|372:137,1,170,0|0,1:0|0:0,0:0:0:0:
57,23,50587,6,0,P|106:38|151:41,1,85,0|0,1:0|0:0,0:0:0:0:
281,358,50844,2,0,P|232:343|187:340,1,85,0|0,1:0|0:0,0:0:0:0:
2,202,51100,5,8,0:2:0:0:
28,187,51229,1,0,3:0:0:0:
83,163,51357,1,0,3:0:0:0:
163,152,51485,1,0,3:0:0:0:
383,239,51613,5,8,2:1:0:0:
261,247,51741,1,0,2:0:0:0:
193,160,51870,1,2,3:3:0:0:
79,313,52126,6,0,L|18:62,1,255,2|0,0:0|0:0,0:0:0:0:
368,12,52639,5,4,3:3:0:0:
365,52,52767,1,0,3:0:0:0:
300,101,52895,1,4,3:3:0:0:
195,31,53023,1,0,3:0:0:0:
406,171,53152,6,0,L|467:196,1,63.7500024318696,8|0,0:0|0:0,0:0:0:0:
490,60,53408,2,0,L|431:309,1,255.000009727478,8|8,0:0|0:1,0:0:0:0:
17,335,54177,6,0,P|13:293|32:256,1,85,2|2,0:3|0:2,0:0:0:0:
128,363,54690,2,0,P|147:326|144:284,1,85,8|0,0:1|0:0,0:0:0:0:
95,0,55203,5,8,3:2:0:0:
134,8,55331,1,0,3:0:0:0:
196,62,55459,1,0,3:0:0:0:
202,174,55587,1,0,3:0:0:0:
19,87,55716,5,8,3:1:0:0:
351,225,55972,6,0,L|415:216,1,63.7500024318696,2|0,0:0|0:0,0:0:0:0:
432,100,56229,2,0,L|303:116,1,127.500004863739,2|0,0:0|0:0,0:0:0:0:
203,331,56741,5,0,3:3:0:0:
173,343,56870,1,0,3:3:0:0:
95,317,56998,1,4,3:3:0:0:
56,209,57126,1,0,3:3:0:0:
184,58,57254,6,0,L|160:0,1,63.7500024318696,8|0,0:2|0:0,0:0:0:0:
295,107,57511,2,0,L|46:48,1,255.000009727478,8|8,0:2|0:1,0:0:0:0:
85,353,58280,6,0,P|43:356|6:337,1,85,2|2,0:3|0:0,0:0:0:0:
114,242,58793,2,0,P|77:222|35:225,1,85,2|0,0:1|0:0,0:0:0:0:
394,16,59305,5,8,3:2:0:0:
379,42,59434,1,0,3:0:0:0:
355,97,59562,1,0,3:0:0:0:
344,177,59690,1,0,3:0:0:0:
437,344,59818,5,8,3:1:0:0:
464,231,59946,1,0,3:0:0:0:
358,199,60075,1,0,3:0:0:0:
186,153,60331,6,0,L|-15:100,1,191.250007295609
128,4,60844,2,0,L|108:65,1,63.75,4|0,0:3|0:0,0:0:0:0:
186,153,61357,6,0,L|-15:100,1,191.250007295609,8|0,0:2|0:0,0:0:0:0:
128,4,61870,2,0,L|108:65,1,63.75,8|2,0:1|0:0,0:0:0:0:
141,332,62382,6,0,P|145:290|126:253,1,85,2|2,0:3|0:0,0:0:0:0:
28,355,62895,2,0,P|9:318|12:276,1,85,8|0,0:1|0:0,0:0:0:0:
512,97,63408,5,8,3:2:0:0:
486,82,63536,1,0,3:0:0:0:
431,58,63664,1,0,3:0:0:0:
351,47,63793,1,0,3:0:0:0:
153,118,63921,5,8,3:1:0:0:
263,146,64049,1,0,3:0:0:0:
330,51,64177,1,0,3:0:0:0:
475,263,64434,6,0,L|283:320,1,191.250007295609,2|0,0:0|0:0,0:0:0:0:
56,301,64946,5,8,3:1:0:0:
96,243,65075,1,0,3:0:0:0:
190,245,65203,1,8,3:2:0:0:
82,115,65331,1,0,3:0:0:0:
159,352,65459,6,0,P|193:185|265:32,1,340,0|0,1:0|0:0,0:0:0:0:
82,115,65844,2,0,B|26:53|88:2|159:37|130:89|89:76,1,170,0|0,1:0|0:0,0:0:0:0:
0,223,66229,6,0,P|164:261|306:354,1,340,0|0,1:0|0:0,0:0:0:0:
368,249,66613,2,0,P|386:174|293:166,1,170,0|0,1:0|0:0,0:0:0:0:
478,332,66998,6,0,P|491:276|514:234,1,85,0|0,1:0|0:0,0:0:0:0:
224,35,67254,2,0,P|211:91|188:133,1,85,4|0,0:3|0:0,0:0:0:0:
0,364,67511,5,8,3:2:0:0:
29,329,67639,1,0,3:3:0:0:
89,285,67767,1,0,3:3:0:0:
193,238,67895,1,0,3:3:0:0:
396,362,68023,5,8,3:1:0:0:
267,345,68152,1,0,3:0:0:0:
215,228,68280,1,2,3:0:0:0:
416,42,68536,2,0,P|425:87|408:44,1,127.5,2|0,0:2|0:0,0:0:0:0:
215,228,69049,5,4,3:3:0:0:
195,197,69177,1,0,3:3:0:0:
212,125,69305,1,4,3:3:0:0:
151,30,69434,1,0,3:3:0:0:
317,272,69562,6,0,L|292:333,1,63.7500024318696,8|0,0:2|0:0,0:0:0:0:
24,297,69818,2,0,L|273:356,1,255.000009727478,8|8,3:2|0:1,0:0:0:0:
494,89,70587,6,0,P|498:47|479:10,8,85,2|0|0|0|0|0|0|0|2,0:3|0:0|0:0|0:0|0:0|0:0|0:0|0:0|0:3,0:0:0:0:
382,113,71100,2,0,P|363:76|366:34,8,85,8|0|0|0|0|0|0|0|0,0:1|0:0|0:0|0:0|0:0|0:0|0:0|0:0|0:0,0:0:0:0:
456,352,71613,5,8,3:2:0:0:
443,321,71741,1,0,3:0:0:0:
399,273,71870,1,0,3:0:0:0:
286,227,71998,1,0,3:0:0:0:
137,334,72126,5,8,3:1:0:0:
274,104,72382,6,0,P|264:75|265:40,1,63.7500024318696,2|0,0:0|0:0,0:0:0:0:
153,160,72639,2,0,P|154:94|132:33,1,127.500004863739
353,350,73152,5,8,3:1:0:0:
346,313,73280,1,0,3:0:0:0:
407,247,73408,1,4,3:3:0:0:
385,132,73536,1,0,3:0:0:0:
221,330,73664,6,0,L|211:267,1,63.7500024318696,8|0,3:2|0:0,0:0:0:0:
73,362,73921,2,0,L|219:328,1,127.500004863739,8|0,0:2|1:0,0:0:0:0:
48,365,74177,1,0,1:0:0:0:
157,58,74434,1,2,0:3:0:0:
456,123,74690,5,0,3:0:0:0:
456,123,74818,2,0,P|475:86|472:44,1,85,8|0,0:1|0:0,0:0:0:0:
345,94,75203,2,0,P|341:52|360:15,1,85,8|0,0:1|0:0,0:0:0:0:
360,14,75587,1,0,0:0:0:0:
499,351,75716,5,8,3:2:0:0:
492,319,75844,1,0,3:0:0:0:
469,271,75972,1,0,3:0:0:0:
369,214,76100,1,0,3:0:0:0:
190,360,76229,5,8,3:1:0:0:
310,328,76357,1,0,3:0:0:0:
342,211,76485,1,2,3:0:0:0:
2,82,76741,6,0,L|187:33,1,191.250007295609,2|0,0:0|0:0,0:0:0:0:
135,180,77254,2,0,L|115:119,1,63.75,4|0,0:3|0:0,0:0:0:0:
2,82,77767,6,0,L|187:33,1,191.250007295609,8|0,0:0|0:0,0:0:0:0:
135,180,78280,2,0,L|115:119,1,63.75,8|2,0:1|0:3,0:0:0:0:
413,30,78793,6,0,P|455:26|492:45,8,85,2|0|0|0|0|0|0|0|2,0:3|0:0|0:0|0:0|0:0|0:0|0:0|0:0|0:3,0:0:0:0:
392,142,79305,2,0,P|429:161|471:158,8,85,8|0|0|0|0|0|0|0|0,0:1|0:0|0:0|0:0|0:0|0:0|0:0|0:0|0:0,0:0:0:0:
196,16,79818,5,8,3:2:0:0:
208,31,79946,1,0,3:3:0:0:
231,68,80075,1,0,3:3:0:0:
261,136,80203,1,0,3:3:0:0:
180,318,80331,5,8,3:1:0:0:
154,209,80459,1,0,3:3:0:0:
244,145,80587,1,0,3:3:0:0:
365,335,80844,2,0,P|374:290|357:333,1,127.5,2|0,0:0|0:0,0:0:0:0:
455,44,81357,5,8,3:1:0:0:
435,70,81485,1,0,3:0:0:0:
404,124,81613,1,4,3:0:0:0:
328,23,81741,1,0,3:0:0:0:
493,250,81870,6,0,P|346:238|139:333,1,340,0|0,1:0|0:0,0:0:0:0:
39,259,82254,2,0,P|65:173|140:188,1,170,0|0,1:0|0:0,0:0:0:0:
301,370,82639,6,0,P|265:221|178:-6,1,391.000007457733,0|0,1:0|0:0,0:0:0:0:
409,88,83023,2,0,B|426:35|383:-29|331:11|327:45|355:61,1,170,0|0,1:0|0:0,0:0:0:0:
457,295,83408,6,0,P|429:262|391:246,1,85,8|0,2:2|0:0,0:0:0:0:
140,152,83664,2,0,P|97:159|64:184,1,85,8|0,0:0|0:0,0:0:0:0:
234,368,83921,6,0,P|260:179|299:21,1,340,2|8,0:0|0:1,0:0:0:0:
295,34,85459,1,8,0:1:0:0:
124,244,85972,6,0,P|109:191|84:151,4,85,2|0|0|0|2,0:0|0:0|0:0|0:0|0:0,0:0:0:0:
413,334,86741,6,0,L|432:287,1,42.5
411,291,86870,2,0,L|412:341,1,42.5
451,176,86998,6,0,P|457:156|461:144,28,21.25,2|0|0|0|0|0|0|0|0|0|0|0|0|0|0|0|2|0|0|0|0|0|0|0|2|0|0|0|0,0:0|0:0|0:0|0:0|0:0|0:0|0:0|0:0|0:0|0:0|0:0|0:0|0:0|0:0|0:0|0:0|0:0|0:0|0:0|0:0|0:0|0:0|0:0|0:0|0:0|0:0|0:0|0:0|0:0,0:0:0:0:
330,9,88023,5,8,0:2:0:0:
268,22,88152,1,0,0:0:0:0:
221,65,88280,1,0,0:0:0:0:
199,126,88408,1,0,0:0:0:0:
202,190,88536,2,0,P|154:110|78:126,1,170,8|0,0:1|0:0,0:0:0:0:
98,342,89049,5,4,0:3:0:0:
64,234,89177,1,4,0:3:0:0:
92,350,89305,1,4,0:3:0:0:
379,367,89562,2,0,P|312:317|221:310,1,170,8|8,0:1|0:0,0:0:0:0:
217,317,89946,1,0,0:0:0:0:
438,264,90075,5,8,0:0:0:0:
446,203,90203,1,0,0:0:0:0:
461,143,90331,1,8,0:0:0:0:
475,80,90459,1,0,0:0:0:0:
446,31,90587,2,0,P|341:47|345:136,1,170,8|0,0:1|0:0,0:0:0:0:
22,305,91100,5,4,3:3:0:0:
130,271,91229,1,4,0:3:0:0:
14,299,91357,1,4,0:3:0:0:
153,142,91613,5,8,3:1:0:0:
69,63,91870,1,4,0:3:0:0:
292,353,92126,5,8,0:2:0:0:
291,276,92254,1,0,0:0:0:0:
330,226,92382,1,0,0:0:0:0:
394,204,92511,1,0,0:0:0:0:
460,210,92639,2,0,P|463:305|373:309,1,170,8|0,0:1|0:0,0:0:0:0:
98,343,93152,5,4,0:3:0:0:
64,235,93280,1,4,0:3:0:0:
92,351,93408,1,4,0:3:0:0:
201,189,93664,2,0,P|217:109|240:24,1,170,8|0,0:1|0:0,0:0:0:0:
247,10,94049,1,0,3:3:0:0:
29,117,94177,6,0,P|33:35|121:33,1,170,8|8,3:2|3:2,0:0:0:0:
205,193,94562,1,0,3:3:0:0:
205,193,94690,2,0,P|309:216|267:294,1,170,8|0,0:1|0:0,0:0:0:0:
298,269,95075,1,0,0:0:0:0:
22,316,95203,5,4,0:3:0:0:
130,282,95331,1,4,0:3:0:0:
15,310,95459,1,4,0:3:0:0:
425,368,95716,6,0,P|457:225|481:196,1,170,8|0,0:1|0:0,0:0:0:0:
483,207,96100,1,0,0:0:0:0:
188,29,96229,5,8,0:0:0:0:
246,12,96357,1,0,0:0:0:0:
307,31,96485,1,0,0:0:0:0:
346,82,96613,1,0,0:0:0:0:
357,143,96741,2,0,P|405:63|481:79,1,170,8|0,0:1|0:0,0:0:0:0:
251,267,97254,6,0,P|239:205|208:149,1,127.500004863739,2|2,0:0|0:0,0:0:0:0:
365,333,97767,5,8,0:1:0:0:
487,291,98023,1,8,0:2:0:0:
208,149,98280,6,0,P|114:38|100:192,3,382.500014591218,4|8|4|8,0:3|0:3|0:3|0:3,0:0:0:0:
380,204,99690,1,8,0:0:0:0:
380,204,99818,2,0,L|318:221,1,63.7500024318696,8|0,0:0|0:0,0:0:0:0:
173,340,100075,2,0,L|189:278,1,63.7500024318696,8|0,0:0|0:0,0:0:0:0:
208,149,100331,5,8,3:2:0:0:
208,149,100459,1,0,3:0:0:0:
408,325,100587,2,0,P|484:304|482:183,2,203.999993774414,2|8|0,3:2|0:1|0:0,0:0:0:0:
388,71,101357,5,4,0:3:0:0:
496,37,101485,1,4,0:3:0:0:
380,65,101613,1,4,0:3:0:0:
293,339,101870,6,0,P|186:285|-6:233,1,305.999990661621,8|0,0:1|3:0,0:0:0:0:
320,215,102382,5,8,3:2:0:0:
320,215,102511,1,0,3:0:0:0:
94,352,102639,2,0,B|110:230|190:324|202:192,2,203.999993774414,10|8|0,3:2|3:1|0:0,0:0:0:0:
391,23,103408,5,4,0:3:0:0:
425,131,103536,1,4,0:3:0:0:
397,15,103664,1,4,0:3:0:0:
79,104,103921,6,0,P|75:65|82:102,1,127.5,8|0,0:1|3:0,0:0:0:0:
8,236,104434,5,8,3:2:0:0:
8,236,104562,1,0,3:0:0:0:
240,357,104690,2,0,P|333:316|338:219,2,203.999993774414,2|8|0,0:2|0:1|0:0,0:0:0:0:
472,52,105459,5,4,0:3:0:0:
364,86,105587,1,4,0:3:0:0:
480,58,105716,1,4,0:3:0:0:
204,222,105972,6,0,P|92:211|107:32,1,305.999990661621,8|0,0:1|0:0,0:0:0:0:
336,211,106485,5,8,3:2:0:0:
336,211,106613,1,0,3:0:0:0:
266,15,106741,2,0,P|230:85|195:212,1,203.999993774414,8|8,3:2|3:1,0:0:0:0:
260,7,107254,1,2,0:2:0:0:
460,110,107511,5,4,0:3:0:0:
426,2,107639,1,4,0:3:0:0:
454,118,107767,1,4,0:3:0:0:
266,360,108023,6,0,B|73:319|197:261|-2:222,1,305.999990661621,10|0,0:1|0:0,0:0:0:0:
246,226,108536,5,8,3:2:0:0:
246,226,108664,1,0,3:0:0:0:
163,27,108793,2,0,P|67:20|50:133,2,203.999993774414,2|8|0,3:2|0:1|0:0,0:0:0:0:
501,44,109562,5,4,0:3:0:0:
393,78,109690,1,4,0:3:0:0:
509,50,109818,1,4,0:3:0:0:
215,342,110075,6,0,P|224:264|289:16,1,305.999990661621,8|0,0:1|3:0,0:0:0:0:
95,224,110587,5,8,3:2:0:0:
95,224,110716,1,0,3:0:0:0:
340,370,110844,2,0,P|412:307|344:215,2,203.999993774414,10|8|0,3:2|0:1|0:0,0:0:0:0:
441,19,111613,5,4,0:3:0:0:
475,127,111741,1,4,0:3:0:0:
447,11,111870,1,4,0:3:0:0:
67,346,112126,6,0,P|42:338|17:332,4,50.9999984436036,8|0|0|0|0,0:1|0:0|0:0|0:0|3:0,0:0:0:0:
264,73,112639,5,8,3:2:0:0:
264,73,112767,1,0,3:0:0:0:
188,316,112895,2,0,B|172:202|104:269|95:140,2,203.999993774414,2|8|0,3:2|0:1|0:0,0:0:0:0:
504,47,113664,5,4,0:3:0:0:
396,81,113793,1,4,0:3:0:0:
512,53,113921,1,4,0:3:0:0:
453,357,114177,6,0,P|478:349|503:343,4,50.9999984436036,8|0|0|0|8,0:1|0:0|0:0|0:0|0:2,0:0:0:0:
24,237,114690,6,0,P|34:96|236:81,1,340,0|0,1:0|0:0,0:0:0:0:
280,193,115075,2,0,P|191:219|177:144,1,170,0|0,1:0|0:0,0:0:0:0:
57,360,115459,6,0,P|203:287|392:274,1,340,0|0,1:0|0:0,0:0:0:0:
512,210,115844,2,0,B|529:148|469:80|391:129|430:186|479:163,1,191.250007295609,0|0,1:0|1:0,0:0:0:0:
18,37,116741,5,8,3:2:0:0:
65,56,116870,1,0,3:3:0:0:
146,109,116998,1,0,3:3:0:0:
235,198,117126,1,0,3:3:0:0:
311,356,117254,5,8,3:1:0:0:
173,324,117382,1,0,3:0:0:0:
220,188,117511,1,2,3:0:0:0:
438,76,117767,2,0,P|447:31|430:74,1,127.5,2|0,0:2|0:0,0:0:0:0:
235,198,118280,5,4,3:3:0:0:
266,218,118408,1,0,3:3:0:0:
345,203,118536,1,4,3:3:0:0:
448,274,118664,1,0,3:3:0:0:
66,197,118793,6,0,L|41:138,1,63.7500024318696,8|0,0:2|0:0,0:0:0:0:
276,43,119049,2,0,L|27:102,1,255.000009727478,8|8,3:2|0:1,0:0:0:0:
470,352,119818,6,0,P|489:315|486:273,8,85,2|0|0|0|0|0|0|0|2,0:3|0:0|0:0|0:0|0:0|0:0|0:0|0:0|0:3,0:0:0:0:
358,328,120331,2,0,P|354:286|373:249,8,85,8|0|0|0|0|0|0|0|0,0:1|0:0|0:0|0:0|0:0|0:0|0:0|0:0|0:0,0:0:0:0:
27,332,120844,5,8,3:2:0:0:
51,282,120972,1,0,3:0:0:0:
119,213,121100,1,0,3:0:0:0:
238,163,121229,1,0,3:0:0:0:
182,355,121357,5,8,3:1:0:0:
487,32,121613,6,0,P|455:36|424:23,1,63.7500024318696,2|0,0:0|0:0,0:0:0:0:
497,169,121870,2,0,P|435:144|370:153,1,127.500004863739
55,15,122382,5,8,3:1:0:0:
72,44,122511,1,0,3:0:0:0:
55,121,122639,1,4,3:3:0:0:
125,236,122767,1,0,3:0:0:0:
252,82,122895,6,0,L|187:97,1,63.7500024318696,8|0,3:2|0:0,0:0:0:0:
242,225,123152,2,0,L|276:79,1,127.500004863739,8|0,0:2|1:0,0:0:0:0:
215,338,123408,1,0,1:0:0:0:
55,121,123664,1,2,0:3:0:0:
498,339,123921,5,0,3:0:0:0:
498,339,124049,2,0,P|461:358|419:355,1,85,8|0,0:1|0:0,0:0:0:0:
469,228,124434,2,0,P|427:224|390:243,1,85,8|0,0:1|0:0,0:0:0:0:
390,255,124818,1,0,0:0:0:0:
483,13,124946,5,8,3:2:0:0:
434,22,125075,1,0,3:0:0:0:
351,49,125203,1,0,3:0:0:0:
265,130,125331,1,0,3:0:0:0:
131,314,125459,5,8,3:1:0:0:
273,307,125587,1,0,3:0:0:0:
283,160,125716,1,2,3:0:0:0:
12,193,125972,6,0,L|61:8,1,191.250007295609,2|0,0:0|0:0,0:0:0:0:
154,132,126485,2,0,L|93:112,1,63.75,4|0,0:3|0:0,0:0:0:0:
12,193,126998,6,0,L|61:8,1,191.250007295609,8|0,0:0|0:0,0:0:0:0:
154,132,127511,2,0,L|93:112,1,63.75,8|2,0:1|0:3,0:0:0:0:
364,333,128023,6,0,P|360:291|379:254,8,85,2|0|0|0|0|0|0|0|2,0:3|0:0|0:0|0:0|0:0|0:0|0:0|0:0|0:3,0:0:0:0:
476,354,128536,2,0,P|495:317|492:275,8,85,8|0|0|0|0|0|0|0|0,0:1|0:0|0:0|0:0|0:0|0:0|0:0|0:0|0:0,0:0:0:0:
212,13,129049,5,8,3:2:0:0:
191,44,129177,1,0,3:3:0:0:
150,124,129305,1,0,3:3:0:0:
117,242,129434,1,0,3:3:0:0:
188,368,129562,5,8,3:1:0:0:
275,281,129690,1,0,3:3:0:0:
140,230,129818,1,0,3:3:0:0:
416,59,130075,6,0,P|452:85|408:74,1,127.5,2|0,0:0|0:0,0:0:0:0:
56,18,130587,5,8,3:1:0:0:
75,44,130716,1,0,3:0:0:0:
114,113,130844,1,4,3:0:0:0:
210,0,130972,1,0,3:0:0:0:
27,209,131100,6,0,P|169:245|338:352,1,340,0|0,1:0|0:0,0:0:0:0:
473,291,131485,2,0,P|439:245|466:296,1,170,0|0,1:0|0:0,0:0:0:0:
150,361,131870,6,0,P|223:216|379:34,1,391.000007457733,0|0,1:0|0:0,0:0:0:0:
150,112,132254,2,0,P|152:33|240:33,1,170,0|0,1:0|0:0,0:0:0:0:
368,357,132639,6,0,P|351:292|346:248,1,85,8|0,2:2|0:0,0:0:0:0:
35,155,132895,2,0,P|52:220|57:264,1,85,8|0,0:0|0:0,0:0:0:0:
371,45,133152,5,12,0:0:0:0:
474,269,133408,2,0,P|464:176|373:182,2,170,2|8|2,0:0|0:1|0:0,0:0:0:0:
244,337,134177,2,0,P|237:295|223:255,2,85,2|0|4,0:3|0:0|0:3,0:0:0:0:
131,26,134690,2,0,P|104:107|90:190,1,170,8|2,0:1|0:0,0:0:0:0:
326,45,135203,5,8,0:2:0:0:
224,129,135459,1,2,0:0:0:0:
376,238,135716,6,0,B|395:144|441:201|458:86,1,170,8|0,0:1|0:0,0:0:0:0:
444,75,136100,1,0,0:0:0:0:
505,278,136229,2,0,P|486:322|449:345,2,85,2|2|10,0:0|0:2|0:2,0:0:0:0:
501,266,136741,1,8,0:1:0:0:
493,256,136998,1,10,0:0:0:0:
178,352,137254,5,8,0:2:0:0:
185,34,137511,2,0,P|201:87|224:215,2,170,2|8|0,0:0|0:1|0:0,0:0:0:0:
72,317,138280,2,0,P|79:275|90:234,2,85,2|0|4,0:0|0:0|0:3,0:0:0:0:
281,349,138793,2,0,P|366:314|353:220,1,170,8|2,0:1|0:0,0:0:0:0:
185,34,139305,5,8,0:2:0:0:
239,94,139562,1,2,0:0:0:0:
378,124,139818,1,8,0:1:0:0:
494,22,140075,1,0,0:0:0:0:
494,22,140203,1,0,0:0:0:0:
386,114,140331,2,0,P|379:72|368:31,2,85,2|0|0,0:0|0:0|0:0,0:0:0:0:
283,338,140844,6,0,B|371:311|321:269|419:240,1,170,8|8,0:1|0:0,0:0:0:0:
432,248,141229,1,8,0:0:0:0:
159,346,141357,5,12,0:0:0:0:
5,138,141613,2,0,P|83:60|130:87,2,170,2|8|2,0:0|0:1|0:0,0:0:0:0:
190,218,142382,2,0,P|148:206|107:200,2,85,2|0|4,0:0|0:0|0:3,0:0:0:0:
322,346,142895,2,0,P|342:271|381:177,1,170,8|4,0:1|0:3,0:0:0:0:
256,36,143408,5,8,0:0:0:0:
314,17,143664,1,2,0:0:0:0:
441,299,143921,1,8,0:1:0:0:
234,229,144177,1,2,0:0:0:0:
234,229,144305,1,0,0:0:0:0:
385,190,144434,2,0,P|392:148|403:107,2,85,2|0|8,0:0|0:0|0:0,0:0:0:0:
95,326,144946,2,0,P|81:242|59:160,1,170,8|8,0:1|0:2,0:0:0:0:
298,259,145459,6,0,B|116:196|250:92|47:26,2,340,14|8|0,0:0|0:1|0:0,0:0:0:0:
309,248,146741,1,8,0:0:0:0:
458,178,146998,2,0,P|428:99|415:32,1,127.500004863739,8|8,0:1|0:0,0:0:0:0:
429,325,147511,6,0,P|247:251|87:205,1,340,0|0,1:0|0:0,0:0:0:0:
22,102,147895,2,0,B|-1:29|66:-13|127:23|87:77|50:68,1,170,0|0,1:0|0:0,0:0:0:0:
129,368,148280,6,0,B|324:305|171:195|384:140,1,340,0|0,1:0|0:0,0:0:0:0:
396,25,148664,2,0,P|479:24|477:115,1,170,0|0,1:0|0:0,0:0:0:0:
227,45,149049,6,2,P|218:33|228:45,1,51,0|0,1:0|0:0,0:0:0:0:
145,365,149562,6,0,B|138:187|43:46|41:46,1,340,0|8,1:0|0:0,0:0:0:0:
328,119,149946,2,0,P|284:168|213:153,2,127.500004863739,0|8|8,1:0|0:0|0:0,0:0:0:0:
96,211,150331,6,0,P|209:230|359:329,1,289.000005512238,0|8,1:0|0:0,0:0:0:0:
511,327,150716,5,0,1:0:0:0:
447,206,150844,1,8,0:0:0:0:
496,337,150972,1,8,0:0:0:0:
172,345,151100,6,2,B|181:300|199:325|210:281,1,76.4999976654053,2|0,0:0|0:0,0:0:0:0:
494,37,151613,5,8,3:2:0:0:
407,42,151741,1,0,3:3:0:0:
305,74,151870,1,0,3:3:0:0:
190,154,151998,1,0,3:3:0:0:
17,35,152126,5,8,3:1:0:0:
154,34,152254,1,0,3:0:0:0:
193,169,152382,1,2,3:0:0:0:
36,347,152639,5,6,0:3:0:0:
144,313,152767,1,4,0:3:0:0:
28,341,152895,1,4,0:3:0:0:
508,341,153152,5,4,3:3:0:0:
477,321,153280,1,0,3:3:0:0:
396,327,153408,1,4,3:3:0:0:
310,225,153536,1,0,3:3:0:0:
501,118,153664,6,0,L|476:59,1,63.7500024318696,8|0,0:2|0:0,0:0:0:0:
224,107,153921,2,0,L|473:48,1,255.000009727478,8|8,3:2|0:1,0:0:0:0:
477,38,154434,1,2,0:3:0:0:
43,19,154690,6,0,P|85:15|122:34,8,85,2|0|0|0|0|0|0|0|2,0:3|0:0|0:0|0:0|0:0|0:0|0:0|0:0|0:3,0:0:0:0:
15,130,155203,2,0,P|52:149|94:146,8,85,8|0|0|0|0|0|0|0|8,0:1|0:0|0:0|0:0|0:0|0:0|0:0|0:0|0:3,0:0:0:0:
332,356,155716,5,8,3:2:0:0:
328,287,155844,1,0,3:0:0:0:
359,176,155972,1,0,3:0:0:0:
474,78,156100,1,0,3:0:0:0:
482,238,156229,5,8,3:1:0:0:
194,292,156485,6,0,L|175:231,1,63.7500024318696,2|0,0:0|0:0,0:0:0:0:
59,248,156741,5,4,0:3:0:0:
93,356,156870,1,4,0:3:0:0:
65,240,156998,1,4,0:3:0:0:
301,175,157254,6,0,P|281:158|262:104,2,56.6666666666667,8|2|2,3:1|0:0|0:0,0:0:0:0:
320,172,157511,6,0,P|310:145|316:107,2,42.5000016212464,2|2|2,3:2|0:0|0:0,0:0:0:0:
337,167,157767,6,0,L|396:148,1,63.7500024318696,8|0,3:2|0:0,0:0:0:0:
392,284,158023,2,0,L|451:35,1,255.000009727478,8|8,0:2|2:1,0:0:0:0:
460,24,158536,1,2,0:3:0:0:
21,48,158793,6,0,P|17:90|36:127,1,85,2|2,3:0|0:3,0:0:0:0:
132,20,159305,2,0,P|151:57|148:99,1,85,4|4,0:3|0:3,0:0:0:0:
388,23,159818,5,8,3:2:0:0:
339,55,159946,1,0,3:0:0:0:
291,157,160075,1,0,3:0:0:0:
284,290,160203,1,0,3:0:0:0:
473,367,160331,5,8,3:1:0:0:
413,260,160459,1,0,3:0:0:0:
294,298,160587,1,2,3:0:0:0:
24,287,160844,5,4,0:3:0:0:
132,321,160972,1,4,0:3:0:0:
16,293,161100,1,4,0:3:0:0:
55,36,161357,6,0,P|51:78|70:115,8,85,4|0|0|0|0|0|0|0|4,0:3|0:0|0:0|0:0|0:0|0:0|0:0|0:0|0:3,0:0:0:0:
333,143,161870,5,8,0:0:0:0:
364,137,161998,1,2,0:0:0:0:
393,124,162126,1,8,0:0:0:0:
291,155,162382,6,0,P|351:167|426:199,1,127.500004863739,8|2,0:1|0:3,0:0:0:0:
97,27,162895,6,0,P|55:23|18:42,1,85,2|2,0:3|0:3,0:0:0:0:
125,138,163408,2,0,P|88:157|46:154,1,85,8|0,0:1|0:0,0:0:0:0:
478,47,163921,5,8,3:2:0:0:
419,66,164049,1,2,3:2:0:0:
333,114,164177,1,2,3:2:0:0:
235,231,164305,1,2,3:2:0:0:
405,373,164434,5,8,3:1:0:0:
366,244,164562,1,0,3:3:0:0:
239,251,164690,1,0,3:3:0:0:
15,335,164946,5,6,0:3:0:0:
123,301,165075,1,4,0:3:0:0:
7,329,165203,1,4,0:3:0:0:
239,251,165459,5,8,3:1:0:0:
83,172,165716,1,4,3:0:0:0:
484,197,165972,6,0,P|443:43|284:38,1,340,0|0,1:0|0:0,0:0:0:0:
239,251,166357,2,0,B|321:224|260:174|367:139,1,170,0|0,1:0|0:0,0:0:0:0:
225,360,166741,6,0,P|214:226|144:-1,1,340,0|0,1:0|0:0,0:0:0:0:
45,224,167126,2,0,P|19:124|83:98,1,170,0|0,1:0|0:0,0:0:0:0:
225,360,167511,6,0,P|175:336|120:330,1,85,8|0,2:2|0:0,0:0:0:0:
157,29,167767,2,0,P|207:53|262:59,1,85,8|0,0:0|0:0,0:0:0:0:
498,90,168023,5,8,3:2:0:0:
452,100,168152,1,0,3:3:0:0:
387,134,168280,1,0,3:3:0:0:
299,207,168408,1,0,3:3:0:0:
452,362,168536,5,8,3:1:0:0:
417,239,168664,1,0,3:0:0:0:
285,214,168793,1,2,3:0:0:0:
79,26,169049,5,6,0:3:0:0:
45,134,169177,1,4,0:3:0:0:
73,18,169305,1,4,0:3:0:0:
178,354,169562,5,4,3:3:0:0:
188,317,169690,1,0,3:3:0:0:
128,250,169818,1,4,3:3:0:0:
167,114,169946,1,0,3:3:0:0:
12,272,170075,6,0,P|131:219|266:210,1,255,8|0,0:2|3:0,0:0:0:0:
333,327,170587,2,0,P|376:307|385:234,1,127.500004863739,8|0,0:1|0:0,0:0:0:0:
268,197,170844,1,2,0:3:0:0:
473,81,171100,6,0,P|477:39|458:2,1,85,6|6,0:3|0:3,0:0:0:0:
362,109,171613,2,0,P|343:72|346:30,1,85,8|8,0:1|0:3,0:0:0:0:
168,351,172126,5,8,3:2:0:0:
177,307,172254,1,0,3:0:0:0:
239,245,172382,1,0,3:0:0:0:
364,229,172511,1,0,3:0:0:0:
471,369,172639,5,8,3:1:0:0:
15,64,173152,5,4,0:3:0:0:
123,98,173280,1,4,0:3:0:0:
7,70,173408,1,4,0:3:0:0:
318,31,173664,5,8,3:1:0:0:
328,68,173793,1,0,3:2:0:0:
279,144,173921,1,4,3:3:0:0:
307,271,174049,1,0,3:2:0:0:
419,177,174177,6,0,L|168:222,2,255.000009727478,8|8|8,3:2|0:2|2:1,0:0:0:0:
480,66,175203,6,0,P|442:46|400:50,1,85,4|6,3:3|0:3,0:0:0:0:
215,89,175716,6,0,P|230:68|269:48,2,42.5000016212464,4|2|2,0:3|0:0|0:0,0:0:0:0:
201,80,175972,5,4,0:3:0:0:
196,69,176058,5,2,0:0:0:0:
195,56,176143,5,2,0:0:0:0:
197,44,176229,6,0,P|246:109|281:224,1,191.250007295609,8|0,3:2|2:0,0:0:0:0:
113,352,176741,5,8,1:1:0:0:
158,250,176870,1,0,3:0:0:0:
277,235,176998,1,2,3:0:0:0:
65,28,177254,5,4,0:3:0:0:
31,136,177382,1,4,0:3:0:0:
59,20,177511,1,4,0:3:0:0:
482,88,177767,6,0,P|485:46|466:8,8,85,4|0|0|0|0|0|0|0|4,0:3|0:0|0:0|0:0|0:0|0:0|0:0|0:0|0:3,0:0:0:0:
208,323,178280,5,8,0:0:0:0:
305,224,178536,1,8,0:0:0:0:
146,89,178793,2,0,P|160:140|179:224,1,127.500004863739,8|2,0:1|0:3,0:0:0:0:
402,161,179305,6,0,P|444:165|481:146,1,85,6|6,0:3|0:3,0:0:0:0:
374,50,179818,2,0,P|411:31|453:34,1,85,8|0,0:1|0:0,0:0:0:0:
510,355,180331,5,8,3:2:0:0:
470,323,180459,1,2,3:2:0:0:
394,285,180587,1,2,3:2:0:0:
260,235,180716,1,2,3:2:0:0:
75,352,180844,5,8,3:1:0:0:
200,350,180972,1,0,3:3:0:0:
257,247,181100,1,0,3:3:0:0:
53,67,181357,6,4,P|91:140|118:258,1,191.250007295609,6|0,0:3|0:0,0:0:0:0:
398,54,181870,5,8,3:1:0:0:
374,33,181998,1,0,3:0:0:0:
299,21,182126,1,4,3:0:0:0:
218,119,182254,1,0,3:0:0:0:
378,276,182382,6,2,B|166:197|288:140|75:62,1,374.000011413575,0|0,1:0|0:0,0:1:0:0:
38,267,182767,2,2,B|31:210|80:152|171:211|129:262|97:246,1,170,0|0,1:0|0:0,0:1:0:0:
214,364,183152,6,2,P|287:159|399:35,1,374.000011413575,0|0,1:0|0:0,0:1:0:0:
510,119,183536,2,2,P|471:205|405:168,1,170,0|0,1:0|0:0,0:1:0:0:
125,37,183921,6,0,P|139:82|145:139,1,85,8|0,2:2|0:0,0:0:0:0:
377,370,184177,2,0,P|363:325|357:268,1,85,8|0,0:0|0:0,0:0:0:0:
0,352,184434,5,8,0:1:0:0:
57,323,184562,1,2,0:0:0:0:
114,296,184690,1,2,0:0:0:0:
173,272,184818,1,2,0:0:0:0:
233,249,184946,1,8,0:1:0:0:
248,255,185203,1,2,0:3:0:0:
184,7,185459,6,4,L|-1:56,1,191.250007295609,4|0,0:3|0:0,0:3:0:0:
126,151,185972,2,0,L|106:90,1,63.75,4|0,0:3|0:0,0:0:0:0:
184,7,186485,6,0,L|-1:56,1,191.250007295609,8|0,0:0|0:0,0:0:0:0:
126,151,186998,2,0,L|106:90,1,63.75,8|2,0:1|0:3,0:0:0:0:
444,348,187511,5,4,0:3:0:0:
410,240,187639,1,4,0:3:0:0:
438,356,187767,1,4,0:3:0:0:
373,313,188023,5,8,0:3:0:0:
481,279,188152,1,8,0:3:0:0:
365,307,188280,1,8,0:3:0:0:
444,26,188536,5,8,0:0:0:0:
380,24,188664,1,2,0:0:0:0:
325,54,188793,1,2,0:0:0:0:
291,108,188921,1,2,0:0:0:0:
288,171,189049,1,8,0:1:0:0:
301,180,189305,1,2,0:3:0:0:
154,356,189562,6,4,L|105:171,1,191.250007295609,4|0,0:3|0:0,0:3:0:0:
0,294,190075,2,0,L|61:274,1,63.75,2|2,0:0|0:0,0:0:0:0:
154,356,190587,6,0,L|105:171,1,191.250007295609,8|0,0:0|0:0,0:0:0:0:
0,294,191100,2,0,L|61:274,1,63.75,8|0,0:1|0:0,0:0:0:0:
480,290,191613,5,4,0:3:0:0:
372,324,191741,1,4,0:3:0:0:
488,296,191870,1,4,0:3:0:0:
445,361,192126,5,4,0:3:0:0:
411,253,192254,1,0,0:0:0:0:
439,369,192382,1,4,0:3:0:0:
226,366,192639,5,8,0:0:0:0:
231,278,192767,1,2,0:0:0:0:
246,192,192895,1,2,0:0:0:0:
269,107,193023,1,2,0:0:0:0:
301,26,193152,1,8,0:1:0:0:
315,35,193408,1,2,0:3:0:0:
0,35,193664,6,4,L|49:220,1,191.250007295609,4|0,0:3|0:0,0:3:0:0:
154,97,194177,2,0,L|93:117,1,63.75,4|0,0:3|0:0,0:0:0:0:
0,35,194690,6,0,L|49:220,1,191.250007295609,10|0,0:0|0:0,0:0:0:0:
154,97,195203,2,0,L|93:117,1,63.75,8|2,0:1|0:3,0:0:0:0:
481,323,195716,5,4,0:3:0:0:
373,289,195844,1,4,0:3:0:0:
489,317,195972,1,4,0:3:0:0:
446,252,196229,5,8,0:3:0:0:
412,360,196357,1,8,0:3:0:0:
440,244,196485,1,8,0:3:0:0:
87,356,196741,5,8,0:0:0:0:
100,327,196870,1,2,0:0:0:0:
123,305,196998,1,2,0:0:0:0:
153,294,197126,1,2,0:0:0:0:
184,295,197254,1,8,0:1:0:0:
197,306,197511,1,2,0:3:0:0:
241,74,197767,6,2,B|221:141|276:123|258:194,2,127.500004863739,2|2|8,0:0|0:0|0:1,0:0:0:0:
251,59,198536,1,8,0:2:0:0:
389,321,198793,6,0,P|188:193|91:182,1,340,0|0,1:0|0:0,0:0:0:0:
0,95,199177,2,0,P|45:28|117:75,1,170,0|0,1:0|0:0,0:0:0:0:
122,342,199562,6,0,B|323:313|208:179|430:148,1,374.000011413575,0|0,1:0|0:0,0:0:0:0:
473,350,199946,2,0,B|483:280|378:246|328:303|427:344,1,170,0|0,1:0|0:0,0:0:0:0:
2,350,200331,5,0,1:0:0:0:
512,32,200555,6,0,P|510:26|512:31,1,42.5,2|0,0:0|0:0,0:0:0:0:
