osu file format v14

[General]
AudioFilename: audio.mp3
AudioLeadIn: 0
PreviewTime: 44202
Countdown: 0
SampleSet: Soft
StackLeniency: 0.7
Mode: 0
LetterboxInBreaks: 0
WidescreenStoryboard: 1

[Editor]
Bookmarks: 13320,19594,31947
DistanceSpacing: 1.3
BeatDivisor: 4
GridSize: 32
TimelineZoom: 1.5

[Metadata]
Title:Pleasure garden (Short Ver.)
TitleUnicode:Pleasure garden (Short Ver.)
Artist:Rin'ca
ArtistUnicode:Rin'ca
Creator:Fu Xuan
Version:No Dap's Insane
Source:D.S. -Dal Segno-
Tags:FairyAccel Aqua Laplus- La+ Japanese Jpop J-pop Pop 天 Ame Visual Novel Vocals VN Galgame 美少女ゲーム Eroge Video Game Circus OP Opening Version Aurorance Iceluin No Dap OZATO FUMIKA Momoka Moeka Shioi -Aqua Wen NADESHIKO ダル・セーニョ Rinca
BeatmapID:4456693
BeatmapSetID:2098843

[Difficulty]
HPDrainRate:5
CircleSize:4
OverallDifficulty:8
ApproachRate:8.3
SliderMultiplier:1.5
SliderTickRate:1

[Events]
//Background and Video events
0,0,"ame.jpg",0,0
//Break Periods
//Storyboard Layer 0 (Background)
//Storyboard Layer 1 (Fail)
//Storyboard Layer 2 (Pass)
//Storyboard Layer 3 (Foreground)
//Storyboard Layer 4 (Overlay)
//Storyboard Sound Samples

[TimingPoints]
771,392.156862745098,4,2,1,60,1,0
771,-100,4,2,1,60,0,0
13320,-200,4,2,1,40,0,0
18221,-200,4,2,1,60,0,0
19594,-100,4,2,1,55,0,0
44300,-100,4,2,1,50,0,0
44692,-90.9090909090909,4,2,1,80,0,1
65084,-83.3333333333333,4,2,1,80,0,1
66653,-76.9230769230769,4,2,1,80,0,1
68221,-71.4285714285714,4,2,1,80,0,1
69790,-100,4,2,1,60,0,0
82927,419.58041958042,4,2,1,60,1,0
82927,-83.3333333333333,4,2,1,60,0,0
91738,-83.3333333333333,4,2,1,5,0,0

[Colours]
Combo1 : 128,128,255
Combo2 : 149,202,255

[HitObjects]
344,290,378,5,2,0:0:0:0:
344,290,476,1,2,0:0:0:0:
344,290,574,1,2,0:0:0:0:
344,290,672,1,2,0:0:0:0:
344,290,771,2,0,P|362:218|368:130,1,150,6|2,1:0|1:2,0:0:0:0:
394,55,1359,2,0,P|358:54|292:69,1,75,2|0,0:0|1:2,0:0:0:0:
172,106,1751,2,0,P|166:69|167:31,1,75,2|0,0:0|1:2,0:0:0:0:
254,161,2143,6,0,P|217:195|107:182,1,150,2|0,0:2|0:0,0:0:0:0:
17,119,2731,2,0,P|60:107|100:103,1,75,2|0,1:2|0:0,0:0:0:0:
167,31,3123,2,0,P|202:41|240:46,1,75,2|0,1:2|0:0,0:0:0:0:
393,83,3516,5,2,1:2:0:0:
393,83,3614,1,2,0:0:0:0:
393,83,3712,1,2,0:0:0:0:
393,83,3810,1,2,0:0:0:0:
393,83,3908,2,0,P|397:171|317:188,1,150,6|2,1:0|1:2,0:0:0:0:
186,216,4496,2,0,P|186:168|197:130,1,75,2|0,0:0|1:2,0:0:0:0:
265,302,4888,2,0,P|223:326|185:335,1,75,2|0,0:0|1:2,0:0:0:0:
56,259,5280,6,0,P|30:210|112:147,1,150,6|2,0:0|0:0,0:0:0:0:
210,100,5869,1,2,1:2:0:0:
160,247,6065,1,0,0:0:0:0:
332,277,6261,1,0,1:2:0:0:
271,170,6457,1,2,0:0:0:0:
271,170,6555,1,8,0:0:0:0:
271,170,6653,1,8,0:0:0:0:
215,314,6849,1,8,0:3:0:0:
399,353,7045,6,0,P|390:278|375:202,1,150,6|10,1:0|0:0,0:0:0:0:
483,144,7633,1,2,3:2:0:0:
489,132,7731,1,0,1:2:0:0:
495,119,7829,2,0,P|486:79|470:28,1,75,2|2,1:2|1:2,0:0:0:0:
351,29,8221,1,10,0:0:0:0:
230,165,8418,6,0,B|285:150|285:150|328:166|328:166|373:156,1,150,6|0,1:0|1:2,0:0:0:0:
143,62,9006,1,8,0:0:0:0:
74,192,9202,1,0,1:2:0:0:
244,142,9398,1,8,0:0:0:0:
218,293,9594,1,2,1:2:0:0:
194,288,9692,1,8,0:0:0:0:
170,284,9790,1,10,0:0:0:0:
357,351,9986,6,0,P|393:282|339:203,1,150,6|0,1:0|1:2,0:0:0:0:
148,115,10574,1,8,0:0:0:0:
210,242,10771,1,0,1:2:0:0:
316,29,10967,1,8,0:0:0:0:
277,175,11163,1,0,1:0:0:0:
125,70,11359,1,8,0:0:0:0:
15,253,11555,6,0,P|88:283|158:226,1,150,6|2,1:0|1:2,0:0:0:0:
135,149,12143,1,10,0:0:0:0:
231,304,12339,1,2,1:2:0:0:
371,167,12535,5,10,0:0:0:0:
145,250,12731,1,10,0:0:0:0:
229,94,12927,1,10,0:0:0:0:
318,326,13123,1,10,0:0:0:0:
320,238,13320,6,0,L|232:254,1,75,2|2,0:0|0:0,0:0:0:0:
116,314,13908,2,0,P|101:282|96:230,1,75,2|0,0:0|0:0,0:0:0:0:
155,123,14496,2,0,L|81:109,1,75,2|2,0:0|0:0,0:0:0:0:
268,104,15084,2,0,P|283:70|288:33,1,75,2|2,0:0|0:0,0:0:0:0:
411,148,15672,2,0,P|416:185|431:218,1,75,2|2,0:0|0:0,0:0:0:0:
283,292,16261,5,2,0:0:0:0:
283,292,16359,1,2,0:0:0:0:
283,292,16457,2,0,L|196:281,1,75,4|2,0:0|0:0,0:0:0:0:
64,256,17045,2,0,P|66:295|77:346,1,75,2|2,0:0|0:0,0:0:0:0:
198,180,17633,2,0,P|204:143|206:105,1,75,2|0,0:0|0:0,0:0:0:0:
126,35,18221,5,8,0:0:0:0:
206,105,18418,1,8,0:0:0:0:
303,49,18614,1,8,0:0:0:0:
386,122,18810,1,2,1:2:0:0:
383,137,18908,1,0,3:2:0:0:
381,152,19006,1,2,3:2:0:0:
379,168,19104,1,0,3:2:0:0:
377,183,19202,1,2,3:2:0:0:
374,199,19300,1,0,3:2:0:0:
372,214,19398,1,10,0:0:0:0:
306,290,19594,6,0,P|222:292|191:243,1,150,6|2,1:0|1:2,0:0:0:0:
220,140,20182,1,2,0:0:0:0:
96,202,20378,2,0,L|106:291,1,75,2|2,1:2|0:0,0:0:0:0:
43,334,20771,1,0,1:2:0:0:
175,256,20967,5,2,0:0:0:0:
180,267,21065,1,0,0:0:0:0:
186,277,21163,2,0,P|262:292|333:313,1,150,0|0,1:2|1:2,0:0:0:0:
410,357,21751,1,2,0:0:0:0:
481,297,21947,1,2,1:2:0:0:
373,215,22143,2,0,P|383:172|428:148,1,75,2|0,0:0|1:2,0:0:0:0:
460,34,22535,5,2,3:2:0:0:
467,46,22633,1,0,3:2:0:0:
472,57,22731,2,0,P|399:66|310:88,1,150,0|0,1:2|1:2,0:0:0:0:
227,193,23320,1,0,0:0:0:0:
156,127,23516,2,0,P|142:89|139:51,1,75,0|0,1:2|0:0,0:0:0:0:
227,74,23908,1,0,1:2:0:0:
93,188,24104,6,0,L|-3:201,1,75,2|0,0:0|1:2,0:0:0:0:
176,316,24496,2,0,L|101:305,1,75,2|0,0:0|1:2,0:0:0:0:
235,213,24888,2,0,P|213:176|207:137,1,75,2|0,0:0|1:2,0:0:0:0:
343,36,25280,2,0,L|334:112,1,75,2|2,0:0|1:2,0:0:0:0:
399,267,25672,1,0,0:0:0:0:
444,171,25869,6,0,P|396:149|297:203,1,150,2|0,1:2|1:2,0:0:0:0:
301,288,26457,1,2,0:0:0:0:
195,238,26653,1,2,1:2:0:0:
90,283,26849,1,2,0:0:0:0:
195,335,27045,1,2,1:2:0:0:
203,148,27241,1,2,0:0:0:0:
100,189,27437,6,0,B|73:145|73:145|110:40,1,150,0|0,1:2|1:2,0:0:0:0:
252,30,28025,1,2,0:0:0:0:
203,148,28221,1,2,1:2:0:0:
346,65,28418,2,0,L|365:248,1,150,2|0,0:0|0:0,0:0:0:0:
245,353,29006,6,0,P|192:274|202:235,1,112.5,6|0,1:0|0:0,0:0:0:0:
210,229,29398,1,10,0:0:0:0:
57,359,29594,1,6,1:2:0:0:
57,359,29986,5,8,0:0:0:0:
214,233,30182,1,8,0:0:0:0:
87,111,30378,2,0,P|50:151|61:256,1,150,6|0,1:0|1:2,0:0:0:0:
255,319,30967,1,8,0:0:0:0:
180,163,31163,1,0,1:2:0:0:
163,172,31261,1,8,0:0:0:0:
147,180,31359,1,10,0:0:0:0:
333,263,31555,2,0,P|327:210|307:120,1,112.5,2|0,1:2|0:0,0:0:0:0:
386,54,31947,6,0,B|349:80|349:80|291:78|225:36,1,150,6|0,1:0|1:2,0:0:0:0:
91,78,32535,1,8,0:0:0:0:
176,238,32731,1,0,0:0:0:0:
176,238,32829,1,8,0:0:0:0:
176,238,32927,2,0,L|166:149,1,75,2|2,1:2|1:2,0:0:0:0:
19,208,33320,1,8,0:0:0:0:
132,331,33516,6,0,B|186:323|186:323|223:331|223:331|282:321,1,150,6|0,1:0|1:2,0:0:0:0:
430,260,34104,1,8,0:0:0:0:
318,171,34300,1,0,0:0:0:0:
312,164,34398,1,8,0:0:0:0:
306,157,34496,2,0,L|318:82,1,75,2|2,1:2|1:2,0:0:0:0:
437,104,34888,1,8,0:0:0:0:
348,261,35084,6,0,P|265:266|219:215,1,150,6|0,1:0|1:2,0:0:0:0:
79,81,35672,1,10,0:0:0:0:
183,59,35869,2,0,P|196:96|207:138,1,75,2|0,1:2|0:0,0:0:0:0:
132,283,36261,1,2,1:2:0:0:
110,169,36457,1,10,0:0:0:0:
301,217,36653,6,0,P|349:166|305:80,1,150,6|2,1:0|1:2,0:0:0:0:
134,59,37241,1,10,0:0:0:0:
197,162,37437,1,0,1:2:0:0:
266,12,37633,1,10,0:0:0:0:
111,147,37829,1,0,1:2:0:0:
91,142,37927,1,8,0:0:0:0:
77,140,38025,1,14,0:0:0:0:
155,308,38221,1,8,0:0:0:0:
288,242,38418,6,0,P|261:169|176:175,1,150,6|10,1:0|0:0,0:0:0:0:
80,252,39006,1,2,0:0:0:0:
80,252,39104,1,8,0:0:0:0:
80,252,39202,2,0,P|81:296|90:346,1,75,2|2,1:2|1:2,0:0:0:0:
24,175,39594,1,8,0:0:0:0:
199,284,39790,6,0,L|299:268,1,75,6|0,1:0|0:0,0:0:0:0:
381,338,40182,1,2,1:2:0:0:
479,132,40378,1,8,0:0:0:0:
399,230,40574,1,2,1:2:0:0:
270,89,40771,1,8,0:0:0:0:
378,200,40967,1,0,1:2:0:0:
378,200,41065,1,8,0:0:0:0:
378,200,41163,1,14,0:0:0:0:
403,76,41359,1,2,1:2:0:0:
153,193,41555,5,14,0:1:0:0:
305,307,41751,1,8,0:0:0:0:
283,146,41947,1,10,0:0:0:0:
175,330,42143,1,10,0:0:0:0:
336,229,42339,5,0,1:2:0:0:
355,233,42437,1,8,0:0:0:0:
373,237,42535,1,10,0:3:0:0:
392,240,42633,1,8,0:3:0:0:
410,244,42731,1,6,0:3:0:0:
321,51,42927,6,0,P|404:56|413:128,1,150,6|8,1:0|0:0,0:0:0:0:
204,35,43516,1,8,0:0:0:0:
311,242,43712,1,8,0:0:0:0:
113,175,43908,1,8,0:0:0:0:
293,49,44104,5,0,1:2:0:0:
311,47,44202,1,0,1:2:0:0:
328,54,44300,1,10,0:0:0:0:
340,68,44398,1,2,0:0:0:0:
345,86,44496,1,2,0:0:0:0:
340,104,44594,1,2,0:0:0:0:
328,118,44692,6,0,B|274:115|214:163|214:163|236:227,1,165.000005035401,6|10,1:0|0:0,0:0:0:0:
273,363,45280,1,2,3:2:0:0:
358,281,45476,2,0,P|348:231|326:170,1,82.5000025177003,0|2,1:2|0:0,0:0:0:0:
162,300,45869,1,8,0:0:0:0:
38,174,46065,6,0,P|96:141|184:196,1,165.000005035401,2|2,0:0|0:0,0:0:0:0:
225,38,46653,1,10,0:0:0:0:
258,208,46849,1,2,0:0:0:0:
435,20,47045,1,2,1:2:0:0:
290,121,47241,1,2,0:0:0:0:
510,177,47437,1,10,0:0:0:0:
373,124,47633,1,2,0:0:0:0:
296,285,47829,6,0,P|408:301|461:262,1,165.000005035401,6|10,1:0|0:0,0:0:0:0:
301,167,48418,1,2,3:2:0:0:
196,236,48614,2,0,L|203:318,1,82.5000025177003,0|2,1:2|0:0,0:0:0:0:
68,272,49006,1,8,0:0:0:0:
162,163,49202,1,2,0:0:0:0:
290,306,49398,6,0,L|428:323,1,123.75000377655,2|0,1:2|0:0,0:0:0:0:
453,297,49790,2,0,P|473:256|474:210,1,82.5000025177003,10|0,0:0|0:0,0:0:0:0:
374,22,50182,2,0,P|384:74|393:147,1,123.75000377655,2|0,1:2|0:0,0:0:0:0:
355,181,50574,2,0,P|309:160|268:154,1,82.5000025177003,10|2,0:0|0:0,0:0:0:0:
214,200,50869,1,2,0:0:0:0:
214,200,50967,1,6,1:0:0:0:
92,85,51163,5,2,0:0:0:0:
15,175,51359,1,10,0:0:0:0:
126,280,51555,2,0,L|110:367,1,82.5000025177003,2|0,3:2|1:2,0:0:0:0:
340,211,51947,1,2,0:0:0:0:
169,176,52143,1,10,0:0:0:0:
231,310,52339,1,2,0:0:0:0:
243,120,52535,5,2,1:2:0:0:
250,284,52731,1,2,0:0:0:0:
343,171,52927,1,10,0:0:0:0:
169,176,53123,2,0,P|157:67|173:2,1,165.000005035401,2|2,0:0|0:0,0:0:0:0:
253,138,53712,1,10,0:0:0:0:
59,83,53908,1,2,0:0:0:0:
112,312,54104,5,6,1:0:0:0:
169,176,54300,1,0,0:0:0:0:
356,257,54496,1,10,0:0:0:0:
278,109,54692,1,0,0:0:0:0:
228,267,54888,2,0,P|237:310|268:348,1,82.5000025177003,2|0,1:2|0:0,0:0:0:0:
372,236,55280,1,10,0:0:0:0:
130,152,55476,5,2,0:0:0:0:
120,163,55574,1,2,0:0:0:0:
110,173,55672,2,0,P|96:224|122:331,1,165.000005035401,2|8,1:2|0:0,0:0:0:0:
267,216,56261,5,2,1:2:0:0:
259,197,56359,1,8,0:0:0:0:
251,175,56457,1,10,0:0:0:0:
242,153,56555,1,0,3:2:0:0:
234,129,56653,1,0,3:2:0:0:
226,108,56751,1,8,0:0:0:0:
216,72,56849,5,10,0:0:0:0:
246,39,56947,1,8,0:3:0:0:
292,27,57045,1,10,0:3:0:0:
336,40,57143,1,4,0:3:0:0:
360,65,57241,6,0,P|379:133|384:256,1,165.000005035401,6|10,1:0|0:0,0:0:0:0:
162,213,57829,1,2,0:0:0:0:
142,224,57927,1,8,0:0:0:0:
122,235,58025,1,8,0:0:0:0:
275,264,58221,1,8,0:3:0:0:
134,114,58418,1,4,0:3:0:0:
359,224,58614,6,0,P|367:285|285:352,1,165.000005035401,6|2,1:0|1:2,0:0:0:0:
103,283,59202,1,10,0:0:0:0:
274,227,59398,1,2,0:0:0:0:
84,89,59594,1,2,1:2:0:0:
170,201,59790,1,2,1:2:0:0:
324,49,59986,1,10,0:0:0:0:
185,108,60182,1,2,0:0:0:0:
356,289,60378,6,0,B|393:244|393:244|369:137,1,165.000005035401,2|10,1:2|0:0,0:0:0:0:
249,306,60967,1,2,0:0:0:0:
255,331,61065,1,8,0:0:0:0:
260,352,61163,1,8,0:0:0:0:
156,256,61359,1,8,0:3:0:0:
356,289,61555,1,4,0:3:0:0:
196,117,61751,1,6,0:0:0:0:
302,94,61947,6,0,L|283:193,1,82.5000025177003,2|0,0:0|1:2,0:0:0:0:
214,313,62339,1,8,0:0:0:0:
87,255,62535,1,8,0:3:0:0:
87,255,62633,1,8,0:3:0:0:
87,255,62731,1,6,0:3:0:0:
145,115,62927,1,8,0:3:0:0:
135,96,63025,1,8,0:3:0:0:
126,73,63123,1,6,0:3:0:0:
316,244,63320,1,0,1:2:0:0:
359,108,63516,6,0,P|299:54|210:98,1,165.000005035401,6|2,1:2|1:2,0:0:0:0:
105,196,64104,2,0,P|139:232|204:241,1,82.5000025177003,2|0,3:2|1:2,0:0:0:0:
269,169,64496,1,2,3:2:0:0:
232,328,64692,1,2,1:2:0:0:
326,253,64888,1,2,3:2:0:0:
454,341,65084,6,0,P|481:274|422:169,1,179.999994506836,4|2,1:2|1:2,0:0:0:0:
302,44,65672,1,2,3:2:0:0:
302,44,65771,1,0,3:2:0:0:
302,44,65869,2,0,P|329:86|321:147,1,89.9999972534181,0|2,1:2|3:2,0:0:0:0:
203,212,66261,1,0,1:0:0:0:
20,87,66457,5,0,3:2:0:0:
20,87,66555,1,0,3:2:0:0:
20,87,66653,2,0,P|99:84|214:59,1,194.999991073609,4|10,1:2|0:0,0:0:0:0:
365,50,67241,1,0,3:2:0:0:
365,50,67339,1,0,3:2:0:0:
365,50,67437,1,2,1:2:0:0:
400,281,67633,1,0,3:2:0:0:
491,160,67829,2,0,P|451:126|399:137,1,97.4999955368044,10|0,0:0|3:2,0:0:0:0:
347,185,68123,1,0,3:2:0:0:
341,192,68221,6,0,L|206:213,1,104.999996795654,6|8,0:0|0:0,0:0:0:0:
176,369,68614,2,0,P|184:306|174:256,1,104.999996795654,0|0,1:2|3:2,0:0:0:0:
157,232,68908,1,0,3:2:0:0:
157,232,69006,1,2,1:2:0:0:
8,152,69202,1,0,3:2:0:0:
17,159,69300,1,0,3:2:0:0:
27,164,69398,2,0,P|76:152|102:95,1,104.999996795654,10|0,0:0|3:2,0:0:0:0:
130,36,69692,1,0,3:2:0:0:
135,28,69790,6,0,P|210:34|302:55,1,150,6|8,1:0|0:0,0:0:0:0:
416,18,70378,1,2,3:2:0:0:
416,18,70574,2,0,P|429:90|444:187,1,150,2|8,1:2|0:0,0:0:0:0:
460,271,71163,1,0,3:2:0:0:
356,230,71359,6,0,P|320:240|285:264,1,75,0|0,1:2|3:2,0:0:0:0:
240,320,71653,1,0,3:2:0:0:
235,325,71751,2,0,L|133:318,1,75,8|0,0:0|3:2,0:0:0:0:
210,194,72143,5,0,1:2:0:0:
216,181,72241,1,0,0:0:0:0:
216,167,72339,1,0,3:2:0:0:
205,156,72437,1,0,3:2:0:0:
193,151,72535,2,0,L|127:182,3,37.5,8|0|0|0,0:0|3:2|3:2|3:2,0:0:0:0:
88,142,72927,6,0,P|61:105|55:61,1,75,0|0,1:2|3:2,0:0:0:0:
141,28,73320,1,8,0:0:0:0:
232,80,73516,1,0,3:2:0:0:
232,80,73614,1,0,3:2:0:0:
232,80,73712,2,0,L|322:73,1,75,0|0,1:2|3:2,0:0:0:0:
423,39,74104,2,0,P|408:75|399:124,1,75,8|0,0:0|3:2,0:0:0:0:
491,261,74496,6,0,P|482:224|468:189,1,75,2|0,1:2|3:2,0:0:0:0:
449,179,74790,1,0,3:2:0:0:
449,179,74888,1,10,0:0:0:0:
328,237,75084,1,0,3:2:0:0:
333,257,75182,1,0,3:2:0:0:
338,278,75280,2,0,L|351:326,3,37.5,2|0|0|0,1:2|3:2|3:2|3:2,0:0:0:0:
285,354,75672,2,0,L|207:336,1,75,10|8,0:0|0:0,0:0:0:0:
152,291,75967,1,8,0:0:0:0:
146,283,76065,6,0,P|144:227|238:195,1,150,6|8,1:0|0:0,0:0:0:0:
314,250,76653,1,0,3:2:0:0:
440,183,76849,2,0,P|400:158|367:159,1,75,2|0,1:2|3:2,0:0:0:0:
354,172,77143,1,0,3:2:0:0:
354,172,77241,1,8,0:0:0:0:
277,90,77437,5,0,3:2:0:0:
277,90,77535,1,0,3:2:0:0:
277,90,77633,2,0,P|171:66|171:17,1,150,0|8,1:2|0:0,0:0:0:0:
30,83,78221,1,0,3:2:0:0:
121,152,78418,5,0,1:2:0:0:
124,167,78516,1,0,3:0:0:0:
123,182,78614,1,0,3:2:0:0:
117,195,78712,1,0,3:2:0:0:
106,205,78810,2,0,L|54:195,3,37.5,8|0|8|0,0:0|3:0|0:3|3:0,0:0:0:0:
21,258,79202,6,0,L|37:353,1,75,0|0,1:2|3:2,0:0:0:0:
166,353,79594,1,8,0:0:0:0:
220,265,79790,1,0,3:2:0:0:
220,265,79888,1,0,0:0:0:0:
220,265,79986,2,0,L|205:182,1,75,0|0,1:2|3:2,0:0:0:0:
127,127,80378,1,8,0:0:0:0:
211,73,80574,5,0,3:2:0:0:
221,64,80672,1,0,3:2:0:0:
230,57,80771,2,0,L|222:7,3,37.5,0|0|8|8,1:2|3:2|0:0|0:0,0:0:0:0:
316,68,81163,5,8,0:0:0:0:
308,92,81261,1,8,0:0:0:0:
300,116,81359,1,8,0:0:0:0:
291,141,81457,1,8,0:0:0:0:
284,164,81555,5,0,1:2:0:0:
457,128,81751,1,8,0:0:0:0:
218,275,81947,1,8,0:0:0:0:
416,332,82143,1,0,1:1:0:0:
206,168,82339,5,12,0:0:0:0:
49,332,82633,5,8,0:0:0:0:
49,332,82731,1,8,0:0:0:0:
106,108,82927,6,0,P|126:172|142:253,1,134.999995880127,6|0,1:2|0:0,0:0:0:0:
141,316,83346,1,8,0:3:0:0:
329,117,83556,1,6,1:0:0:0:
256,192,83661,12,0,87961,0:0:0:0:
