osu file format v14

[General]
AudioFilename: audio.mp3
AudioLeadIn: 0
PreviewTime: 44202
Countdown: 0
SampleSet: Soft
StackLeniency: 0.5
Mode: 0
LetterboxInBreaks: 0
WidescreenStoryboard: 1

[Editor]
Bookmarks: 13320,19594,31947
DistanceSpacing: 1
BeatDivisor: 4
GridSize: 32
TimelineZoom: 2.4

[Metadata]
Title:Pleasure garden (Short Ver.)
TitleUnicode:Pleasure garden (Short Ver.)
Artist:Rin'ca
ArtistUnicode:Rin'ca
Creator:Fu Xuan
Version:Iceluin's Hard
Source:D.S. -Dal Segno-
Tags:FairyAccel Aqua Laplus- La+ Japanese Jpop J-pop Pop 天 Ame Visual Novel Vocals VN Galgame 美少女ゲーム Eroge Video Game Circus OP Opening Version Aurorance Iceluin No Dap OZATO FUMIKA Momoka Moeka Shioi -Aqua Wen NADESHIKO ダル・セーニョ Rinca
BeatmapID:4421400
BeatmapSetID:2098843

[Difficulty]
HPDrainRate:4.5
CircleSize:3.8
OverallDifficulty:6.5
ApproachRate:7.8
SliderMultiplier:1.5
SliderTickRate:1

[Events]
//Background and Video events
0,0,"ame.jpg",0,0
//Break Periods
2,13323,18799
//Storyboard Layer 0 (Background)
//Storyboard Layer 1 (Fail)
//Storyboard Layer 2 (Pass)
//Storyboard Layer 3 (Foreground)
//Storyboard Layer 4 (Overlay)
//Storyboard Sound Samples

[TimingPoints]
771,392.156862745098,4,2,1,60,1,0
771,-100,4,2,1,60,0,0
19594,-133.333333333333,4,2,1,55,0,0
31947,-111.111111111111,4,2,1,55,0,0
44300,-111.111111111111,4,2,1,50,0,0
44692,-86.9565217391304,4,2,1,80,0,1
69790,-111.111111111111,4,2,1,60,0,0
82927,419.58041958042,4,2,1,60,1,0
91738,-100,4,2,1,5,0,0

[Colours]
Combo1 : 128,128,255
Combo2 : 149,202,255

[HitObjects]
32,128,771,6,0,P|116:147|189:167,1,150,6|2,1:0|1:2,0:0:0:0:
246,105,1359,2,0,P|237:68|227:32,1,75,2|0,0:0|1:2,0:0:0:0:
314,9,1751,2,0,P|322:45|332:81,1,75,2|0,0:0|1:2,0:0:0:0:
417,110,2143,6,0,P|468:160|457:232,1,150,2|0,0:2|0:0,0:0:0:0:
473,329,2731,2,0,P|435:318|389:309,1,75,2|0,1:2|0:0,0:0:0:0:
329,367,3123,2,0,P|291:356|245:347,1,75,2|0,1:2|0:0,0:0:0:0:
207,273,3516,2,0,P|169:262|123:253,1,75,2|2,1:2|0:0,0:0:0:0:
127,262,3810,1,2,0:0:0:0:
121,270,3908,6,0,B|132:231|96:200|87:211|52:181|67:140,1,150,6|2,1:0|1:2,0:0:0:0:
7,73,4496,2,0,P|35:49|72:50,1,75,2|0,0:0|1:2,0:0:0:0:
149,96,4888,2,0,P|204:86|259:76,1,112.5,2|0,0:0|0:0,0:0:0:0:
298,100,5280,6,0,P|291:133|284:177,1,75,6|0,0:0|1:2,0:0:0:0:
223,239,5672,1,2,0:0:0:0:
286,303,5869,2,0,P|321:292|358:283,1,75,2|0,1:2|0:0,0:0:0:0:
435,328,6261,1,0,1:2:0:0:
488,258,6457,1,2,0:0:0:0:
488,258,6555,1,8,0:0:0:0:
488,258,6653,1,8,0:0:0:0:
405,204,6849,1,8,0:3:0:0:
509,112,7045,6,0,P|436:117|385:64,1,150,6|10,1:0|0:0,0:0:0:0:
311,21,7633,1,2,3:2:0:0:
311,21,7731,1,0,1:2:0:0:
311,21,7829,1,2,1:2:0:0:
238,74,8025,1,2,1:2:0:0:
282,152,8221,1,10,0:0:0:0:
210,263,8418,6,0,B|172:290|172:290|70:269,1,150,6|0,1:0|1:2,0:0:0:0:
1,212,9006,1,8,0:0:0:0:
62,146,9202,2,0,P|52:107|43:73,1,75,0|8,1:2|0:0,0:0:0:0:
109,12,9594,1,2,1:2:0:0:
109,12,9692,1,8,0:0:0:0:
109,12,9790,1,10,0:0:0:0:
221,73,9986,6,0,B|260:87|290:52|279:43|310:7|349:18,1,150,6|0,1:0|1:2,0:0:0:0:
430,57,10574,2,0,P|421:94|411:144,1,75,8|0,0:0|1:2,0:0:0:0:
474,204,10967,1,8,0:0:0:0:
474,204,11163,1,8,0:0:0:0:
397,251,11359,1,8,0:0:0:0:
500,337,11555,6,0,P|426:333|373:383,1,150,6|2,1:0|1:2,0:0:0:0:
294,339,12143,2,0,P|266:363|230:365,1,75,10|2,0:0|1:2,0:0:0:0:
160,308,12535,1,10,0:0:0:0:
164,220,12731,1,10,0:0:0:0:
249,192,12927,1,10,0:0:0:0:
317,250,13123,1,10,0:0:0:0:
448,96,19594,6,0,P|393:80|339:66,1,112.500004291535,6|2,1:0|1:2,0:0:0:0:
266,108,20182,1,2,0:0:0:0:
219,37,20378,1,2,1:2:0:0:
219,37,20574,2,0,P|191:33|169:50,1,56.2500021457673,2|0,0:0|1:2,0:0:0:0:
83,33,20967,6,0,B|61:92|113:137|126:121|180:167|164:225,1,225.000008583069,2|2,0:0|0:0,0:0:0:0:
94,281,21947,1,2,1:2:0:0:
94,281,22143,2,0,P|148:278|190:314,1,112.500004291535,2|2,0:0|3:2,0:0:0:0:
196,323,22633,1,0,3:2:0:0:
203,332,22731,6,0,P|260:315|311:303,1,112.500004291535,0|0,1:2|1:2,0:0:0:0:
392,341,23320,2,0,P|404:286|420:232,1,112.500004291535,2|0,0:0|0:0,0:0:0:0:
297,117,24104,6,0,P|284:171|268:225,2,112.500004291535,2|2|2,0:0|0:0|0:0,0:0:0:0:
428,66,25215,2,0,L|420:48,2,18.7500007152558,2|2|0,0:0|0:0|0:0,0:0:0:0:
268,225,25869,6,0,P|213:209|159:195,1,112.500004291535,2|0,1:2|1:2,0:0:0:0:
95,249,26457,1,2,0:0:0:0:
134,323,26653,2,0,L|188:338,2,56.2500021457673,2|2|2,1:2|0:0|1:2,0:0:0:0:
95,249,27241,6,0,B|66:213|66:213|97:87,1,168.750006437302,2|0,0:0|1:2,0:0:0:0:
165,46,28025,1,2,0:0:0:0:
224,114,28222,1,2,1:2:0:0:
224,114,28418,2,0,P|280:102|337:92,1,112.500004291535,2|0,0:0|0:0,0:0:0:0:
399,35,29006,6,0,P|423:68|419:109,1,84.3750032186509,6|0,1:0|0:0,0:0:0:0:
399,146,29398,1,10,0:0:0:0:
501,162,29594,2,0,P|494:202|463:229,1,84.3750032186509,6|0,1:2|0:0,0:0:0:0:
422,240,29986,1,8,0:0:0:0:
342,212,30182,1,8,0:0:0:0:
293,280,30378,2,0,P|231:261|177:248,1,112.500004291535,6|0,1:0|1:2,0:0:0:0:
113,296,30967,1,8,0:0:0:0:
59,230,31163,1,0,1:2:0:0:
59,230,31261,1,8,0:0:0:0:
59,230,31359,1,10,0:0:0:0:
132,175,31555,1,2,1:2:0:0:
132,175,31947,6,0,P|116:109|99:43,1,134.999995880127,6|0,1:0|1:2,0:0:0:0:
191,19,32535,2,0,P|198:51|207:84,1,67.4999979400635,8|0,0:0|0:0,0:0:0:0:
207,84,32829,1,8,0:0:0:0:
207,84,32927,1,2,1:2:0:0:
286,150,33123,2,0,P|279:182|270:215,1,67.4999979400635,2|8,1:2|0:0,0:0:0:0:
191,262,33516,6,0,P|256:257|305:301,1,134.999995880127,6|0,1:0|1:2,0:0:0:0:
386,349,34104,2,0,P|418:345|440:319,1,67.4999979400635,8|0,0:0|0:0,0:0:0:0:
440,319,34398,1,8,0:0:0:0:
440,319,34496,1,2,1:2:0:0:
487,241,34692,2,0,P|477:210|468:174,1,67.4999979400635,2|8,1:2|0:0,0:0:0:0:
506,69,35084,6,0,P|442:87|355:108,1,134.999995880127,6|0,1:0|1:2,0:0:0:0:
306,49,35672,1,10,0:0:0:0:
241,108,35869,2,0,P|175:91|110:73,1,134.999995880127,2|2,1:2|1:2,0:0:0:0:
40,126,36457,1,10,0:0:0:0:
70,208,36653,6,0,P|135:224|200:242,1,134.999995880127,6|2,1:0|1:2,0:0:0:0:
271,191,37241,1,10,0:0:0:0:
241,108,37437,1,0,1:2:0:0:
306,49,37633,2,0,P|339:46|366:65,1,67.4999979400635,10|0,0:0|1:2,0:0:0:0:
366,65,37927,1,8,0:0:0:0:
366,65,38025,1,14,0:0:0:0:
447,26,38221,1,8,0:0:0:0:
507,93,38418,6,0,P|494:155|480:238,1,134.999995880127,6|10,1:0|0:0,0:0:0:0:
496,321,39006,1,2,0:0:0:0:
496,321,39104,1,8,0:0:0:0:
496,321,39202,2,0,P|463:313|429:307,1,67.4999979400635,2|2,1:2|1:2,0:0:0:0:
355,354,39594,1,8,0:0:0:0:
303,283,39790,5,6,1:0:0:0:
303,283,40182,1,2,1:2:0:0:
224,325,40378,2,0,P|192:317|159:309,1,67.4999979400635,8|2,0:0|1:2,0:0:0:0:
79,359,40771,2,0,P|71:326|63:293,1,67.4999979400635,8|0,0:0|1:2,0:0:0:0:
63,293,41065,1,8,0:0:0:0:
63,293,41163,1,14,0:0:0:0:
1,229,41359,1,2,1:2:0:0:
54,160,41555,5,14,0:1:0:0:
54,160,41751,1,8,0:0:0:0:
133,196,41947,1,10,0:0:0:0:
187,127,42143,2,0,L|252:141,1,67.4999979400635,10|0,0:0|1:2,0:0:0:0:
294,124,42437,1,8,0:0:0:0:
294,124,42535,2,0,L|283:80,2,33.7499989700318,10|8|6,0:3|0:3|0:3,0:0:0:0:
379,143,42927,6,0,B|392:178|360:205|353:195|320:223|330:258,1,134.999995880127,6|8,1:0|0:0,0:0:0:0:
352,344,43516,1,8,0:0:0:0:
436,366,43712,1,8,0:0:0:0:
493,299,43908,1,8,0:0:0:0:
468,218,44104,1,0,1:2:0:0:
468,218,44202,1,0,1:2:0:0:
468,218,44300,1,10,0:0:0:0:
511,51,44692,6,0,B|444:67|444:67|415:54|415:54|345:71,1,172.500003290176,6|10,1:0|0:0,0:0:0:0:
266,37,45280,2,0,P|232:11|187:17,1,86.2500016450882,2|0,3:2|1:2,0:0:0:0:
127,74,45672,1,2,0:0:0:0:
52,30,45869,1,8,0:0:0:0:
2,100,46065,6,0,B|24:183|44:267,1,172.500003290176,2|2,0:0|0:0,0:0:0:0:
127,313,46653,1,10,0:0:0:0:
127,313,46849,1,2,0:0:0:0:
169,235,47045,1,2,1:2:0:0:
169,235,47241,1,2,0:0:0:0:
249,272,47437,2,0,P|291:259|333:249,1,86.2500016450882,10|2,0:0|0:0,0:0:0:0:
438,337,47829,6,0,B|425:291|467:257|477:270|518:236|502:189,1,172.500003290176,6|10,1:0|0:0,0:0:0:0:
431,140,48418,2,0,P|418:98|408:56,1,86.2500016450882,2|0,3:2|1:2,0:0:0:0:
325,80,48810,2,0,P|337:121|347:163,1,86.2500016450882,2|8,0:0|0:0,0:0:0:0:
332,249,49202,1,2,0:0:0:0:
250,220,49398,6,0,B|220:240|216:272|216:272|195:247|159:245,1,129.375002467632,2|0,1:2|0:0,0:0:0:0:
119,230,49790,2,0,B|98:200|66:196|66:196|91:175|93:139,1,129.375002467632,10|0,0:0|0:0,0:0:0:0:
116,103,50182,2,0,B|145:82|149:50|149:50|170:75|206:77,1,129.375002467632,2|0,1:2|0:0,0:0:0:0:
243,100,50574,1,10,0:0:0:0:
316,47,50771,5,2,0:0:0:0:
316,47,50869,1,2,0:0:0:0:
316,47,50967,2,0,P|358:46|389:74,1,86.2500016450882,6|2,1:0|0:0,0:0:0:0:
463,29,51359,1,10,0:0:0:0:
512,100,51555,2,0,P|496:187|480:287,1,172.500003290176,2|2,3:2|0:0,0:0:0:0:
407,311,52143,1,10,0:0:0:0:
351,245,52339,1,2,0:0:0:0:
273,283,52535,6,0,P|282:324|291:367,2,86.2500016450882,2|2|10,1:2|0:0|0:0,0:0:0:0:
221,214,53123,2,0,B|178:235|137:199|148:187|107:153|64:177,1,172.500003290176,2|2,0:0|0:0,0:0:0:0:
14,248,53712,1,10,0:0:0:0:
14,248,53908,1,2,0:0:0:0:
101,352,54104,6,0,P|142:349|174:321,1,86.2500016450882,6|0,1:0|0:0,0:0:0:0:
246,367,54496,2,0,P|273:334|276:292,1,86.2500016450882,10|0,0:0|0:0,0:0:0:0:
360,274,54888,2,0,P|356:231|328:199,1,86.2500016450882,2|0,1:2|0:0,0:0:0:0:
375,128,55280,2,0,P|342:100|300:97,1,86.2500016450882,10|0,0:0|0:0,0:0:0:0:
282,14,55672,6,0,P|239:17|207:45,1,86.2500016450882,2|0,1:2|3:2,0:0:0:0:
168,41,55967,1,0,3:2:0:0:
168,41,56065,2,0,P|139:73|136:115,1,86.2500016450882,8|2,0:0|1:2,0:0:0:0:
102,139,56359,1,8,0:0:0:0:
102,139,56457,2,0,P|105:182|133:214,1,86.2500016450882,10|0,0:0|3:2,0:0:0:0:
172,240,56751,1,8,0:0:0:0:
172,240,56849,2,0,L|231:224,2,43.1250008225441,10|8|10,0:0|0:3|0:3,0:0:0:0:
77,348,57241,6,0,B|147:331|147:331|176:344|176:344|243:328,1,172.500003290176,6|10,1:0|0:0,0:0:0:0:
329,374,57829,1,2,0:0:0:0:
329,374,57927,1,8,0:0:0:0:
329,374,58025,1,8,0:0:0:0:
369,297,58221,1,8,0:3:0:0:
446,334,58418,1,4,0:3:0:0:
511,222,58614,6,0,P|490:129|465:35,1,172.500003290176,6|2,1:0|1:2,0:0:0:0:
395,10,59202,2,0,P|353:5|320:32,1,86.2500016450882,10|2,0:0|0:0,0:0:0:0:
285,113,59594,1,2,1:2:0:0:
285,113,59790,1,2,1:2:0:0:
201,82,59986,2,0,B|110:56|110:56|77:78,1,129.375002467632,10|0,0:0|0:0,0:0:0:0:
46,101,60378,6,0,B|33:147|75:181|85:168|126:202|110:249,1,172.500003290176,2|10,1:2|0:0,0:0:0:0:
75,331,60967,1,2,0:0:0:0:
75,331,61065,1,8,0:0:0:0:
75,331,61163,1,8,0:0:0:0:
150,373,61359,1,8,0:3:0:0:
187,295,61555,1,4,0:3:0:0:
315,346,61751,6,0,P|327:304|342:264,1,86.2500016450882,6|2,0:0|0:0,0:0:0:0:
299,190,62143,1,0,1:2:0:0:
215,213,62339,2,0,P|201:254|186:294,1,86.2500016450882,8|8,0:0|0:3,0:0:0:0:
186,294,62633,1,8,0:3:0:0:
186,294,62731,1,6,0:3:0:0:
115,350,62927,1,8,0:3:0:0:
115,350,63025,1,8,0:3:0:0:
115,350,63123,1,6,0:3:0:0:
38,299,63320,2,0,P|22:258|8:217,1,86.2500016450882,0|6,1:2|1:2,0:0:0:0:
56,145,63712,5,2,0:0:0:0:
117,205,63908,1,10,0:0:0:0:
191,162,64104,2,0,P|197:136|209:98,2,43.1250008225441,2|0|0,3:2|3:2|1:2,0:0:0:0:
242,231,64496,1,2,0:0:0:0:
316,187,64692,1,10,0:0:0:0:
364,258,64888,2,0,P|370:284|382:322,2,43.1250008225441,2|0|4,3:2|3:2|1:2,0:0:0:0:
438,214,65280,5,2,0:0:0:0:
390,142,65476,1,10,0:0:0:0:
454,84,65672,2,0,P|480:90|518:102,2,43.1250008225441,2|0|0,3:2|3:2|1:2,0:0:0:0:
395,20,66065,1,2,0:0:0:0:
331,78,66261,1,10,0:0:0:0:
263,24,66457,2,0,P|237:18|199:6,2,43.1250008225441,2|0|0,3:2|3:2|1:2,0:0:0:0:
253,115,66849,5,0,3:2:0:0:
253,115,66947,1,0,3:2:0:0:
253,115,67045,1,10,0:0:0:0:
189,172,67241,2,0,P|168:165|147:159,2,43.1250008225441,0|0|2,3:2|3:2|1:2,0:0:0:0:
270,223,67633,1,0,0:0:0:0:
270,223,67731,1,0,3:2:0:0:
270,223,67829,1,10,0:0:0:0:
259,308,68025,2,0,P|264:328|271:349,2,43.1250008225441,0|0|6,3:2|3:2|1:0,0:0:0:0:
357,291,68418,5,8,0:0:0:0:
357,291,68516,1,0,0:0:0:0:
357,291,68614,1,0,1:2:0:0:
438,347,68810,1,0,3:2:0:0:
438,347,68908,1,0,3:2:0:0:
438,347,69006,1,2,1:2:0:0:
505,287,69202,1,0,3:2:0:0:
505,287,69300,1,0,3:2:0:0:
505,287,69398,1,10,0:0:0:0:
464,203,69594,1,0,3:2:0:0:
464,203,69692,1,0,3:2:0:0:
464,203,69790,6,0,P|477:125|489:51,1,134.999995880127,6|8,1:0|0:0,0:0:0:0:
403,59,70378,1,2,3:2:0:0:
403,59,70574,2,0,P|390:132|378:200,1,134.999995880127,2|8,1:2|0:0,0:0:0:0:
246,306,71359,6,0,L|195:293,3,33.7499989700318,0|0|0|0,1:2|0:0|3:2|3:2,0:0:0:0:
176,273,71751,2,0,P|143:278|121:303,1,67.4999979400635,8|0,0:0|3:2,0:0:0:0:
52,249,72143,2,0,P|52:230|73:214,3,33.7499989700318,0|0|0|0,1:2|0:0|3:2|3:2,0:0:0:0:
94,189,72535,2,0,P|116:178|131:186,3,33.7499989700318,8|0|0|0,0:0|3:2|3:2|3:2,0:0:0:0:
168,185,72927,5,0,1:2:0:0:
228,121,73123,1,0,3:2:0:0:
181,46,73320,2,0,P|108:44|60:-18,2,134.999995880127,8|0|8,0:0|1:2|0:0,0:0:0:0:
355,30,74496,6,0,P|344:64|336:97,1,67.4999979400635,2|0,1:2|3:2,0:0:0:0:
400,156,74888,2,0,P|389:190|381:223,1,67.4999979400635,10|0,0:0|3:2,0:0:0:0:
379,231,75182,1,0,3:2:0:0:
378,240,75280,2,0,P|345:247|312:257,1,67.4999979400635,2|0,1:2|3:2,0:0:0:0:
312,256,75574,1,0,3:2:0:0:
312,256,75672,1,10,0:0:0:0:
250,194,75869,5,8,0:0:0:0:
250,194,75967,1,8,0:0:0:0:
250,194,76065,2,0,L|261:151,3,33.7499989700318,6|0|0|0,1:0|0:0|3:2|3:2,0:0:0:0:
230,127,76457,2,0,P|196:128|173:154,1,67.4999979400635,8|0,0:0|3:2,0:0:0:0:
130,222,76849,2,0,P|64:205|-1:190,1,134.999995880127,2|8,1:2|0:0,0:0:0:0:
25,17,77633,6,0,P|90:33|156:48,1,134.999995880127,0|8,1:2|0:0,0:0:0:0:
233,6,78221,1,0,3:2:0:0:
291,72,78418,2,0,L|284:105,3,33.7499989700318,0|0|0|0,1:2|0:0|3:2|3:2,0:0:0:0:
252,134,78810,1,8,0:0:0:0:
309,200,79006,1,8,0:3:0:0:
240,255,79202,6,0,L|250:286,3,33.7499989700318,0|0|0|0,1:2|3:2|3:2|3:2,0:0:0:0:
269,326,79594,2,0,P|305:334|345:345,1,67.4999979400635,8|0,0:0|3:2,0:0:0:0:
421,327,79986,2,0,P|436:320|445:306,3,33.7499989700318,0|0|0|0,1:2|3:2|3:2|3:2,0:0:0:0:
475,273,80378,2,0,P|481:257|477:240,3,33.7499989700318,8|0|0|0,0:0|3:2|3:2|3:2,0:0:0:0:
466,196,80771,6,0,P|450:166|419:155,1,67.4999979400635,0|8,1:2|0:0,0:0:0:0:
381,172,81065,1,8,0:0:0:0:
381,172,81163,2,0,L|349:160,3,33.7499989700318,8|8|8|8,0:0|0:0|0:0|0:0,0:0:0:0:
312,184,81555,1,0,1:2:0:0:
252,248,81751,1,8,0:0:0:0:
166,268,81947,1,8,0:0:0:0:
86,230,82143,1,0,1:1:0:0:
27,165,82339,6,0,L|40:80,1,67.4999979400635,12|0,0:0|0:0,0:0:0:0:
37,98,82633,1,8,0:0:0:0:
37,98,82731,1,8,0:0:0:0:
145,29,82927,2,0,B|205:38|205:38|225:56|225:56|286:66,1,150,6|8,1:2|0:3,0:0:0:0:
398,3,83556,1,6,1:0:0:0:
