osu file format v14

[General]
AudioFilename: audio.mp3
AudioLeadIn: 0
PreviewTime: 44202
Countdown: 0
SampleSet: Soft
StackLeniency: 0.5
Mode: 0
LetterboxInBreaks: 0
WidescreenStoryboard: 1

[Editor]
DistanceSpacing: 0.9
BeatDivisor: 2
GridSize: 32
TimelineZoom: 1.2

[Metadata]
Title:Pleasure garden (Short Ver.)
TitleUnicode:Pleasure garden (Short Ver.)
Artist:Rin'ca
ArtistUnicode:Rin'ca
Creator:Fu Xuan
Version:Aurorance's Normal
Source:D.S. -Dal Segno-
Tags:FairyAccel Aqua Laplus- La+ Japanese Jpop J-pop Pop 天 Ame Visual Novel Vocals VN Galgame 美少女ゲーム Eroge Video Game Circus OP Opening Version Aurorance Iceluin No Dap OZATO FUMIKA Momoka Moeka Shioi -Aqua Wen NADESHIKO ダル・セーニョ Rinca
BeatmapID:4403165
BeatmapSetID:2098843

[Difficulty]
HPDrainRate:4
CircleSize:3.5
OverallDifficulty:4
ApproachRate:5
SliderMultiplier:1.2
SliderTickRate:1

[Events]
//Background and Video events
0,0,"ame.jpg",0,0
//Break Periods
2,13323,18394
//Storyboard Layer 0 (Background)
//Storyboard Layer 1 (Fail)
//Storyboard Layer 2 (Pass)
//Storyboard Layer 3 (Foreground)
//Storyboard Layer 4 (Overlay)
//Storyboard Sound Samples

[TimingPoints]
771,392.156862745098,4,2,1,60,1,0
19594,-100,4,2,1,55,0,0
44300,-100,4,2,1,50,0,0
44692,-100,4,2,1,80,0,0
69790,-100,4,2,1,60,0,0
82927,419.58041958042,4,2,1,60,1,0
91738,-100,4,2,1,5,0,0

[Colours]
Combo1 : 128,128,255
Combo2 : 149,202,255

[HitObjects]
22,55,771,6,0,P|68:90|126:84,1,120,6|2,1:0|1:2,0:0:0:0:
177,67,1359,2,0,L|296:84,1,120,2|2,0:0|0:0,0:0:0:0:
281,191,2143,2,0,L|162:174,1,120,2|0,0:2|0:0,0:0:0:0:
116,202,2731,1,2,1:2:0:0:
186,284,3123,1,2,1:2:0:0:
109,360,3516,2,0,L|40:352,1,60,2|2,1:2|0:0,0:0:0:0:
6,320,3908,6,0,P|-10:294|11:213,1,120,6|2,1:0|1:2,0:0:0:0:
56,183,4496,1,2,0:0:0:0:
3,88,4888,1,2,0:0:0:0:
95,33,5280,2,0,P|159:26|213:55,1,120,6|2,0:0|0:0,0:0:0:0:
242,91,5869,2,0,L|230:160,1,60,2|0,1:2|0:0,0:0:0:0:
200,194,6261,2,0,L|210:264,2,60,0|2|8,1:2|0:0|0:0,0:0:0:0:
302,227,7045,6,0,P|338:285|395:287,1,120,6|10,1:0|0:0,0:0:0:0:
426,255,7633,1,2,3:2:0:0:
426,255,7829,2,0,L|501:264,2,60,2|2|10,1:2|1:2|0:0,0:0:0:0:
398,208,8418,1,6,1:0:0:0:
484,143,8810,1,0,1:2:0:0:
484,143,9006,2,0,L|474:84,1,60,8|0,0:0|1:2,0:0:0:0:
425,60,9398,2,0,L|432:1,2,60,8|2|10,0:0|1:2|0:0,0:0:0:0:
380,90,9986,6,0,P|322:99|272:65,1,120,6|0,1:0|1:2,0:0:0:0:
238,25,10574,1,8,0:0:0:0:
146,80,10967,2,0,L|82:72,1,60,8|8,0:0|0:0,0:0:0:0:
38,90,11359,1,8,0:0:0:0:
38,90,11555,2,0,P|12:140|32:204,1,120,6|2,1:0|1:2,0:0:0:0:
66,235,12143,1,10,0:0:0:0:
162,186,12535,2,0,L|227:179,1,60,10|10,0:0|0:0,0:0:0:0:
269,151,12927,1,10,0:0:0:0:
269,151,13123,1,10,0:0:0:0:
398,356,19594,5,6,1:0:0:0:
445,259,19986,2,0,L|523:250,2,60,2|2|2,1:2|0:0|1:2,0:0:0:0:
400,228,20574,1,2,0:0:0:0:
307,285,20967,2,0,B|188:260|197:369|86:350,1,240,2|2,0:0|0:0,0:0:0:0:
46,322,21947,1,2,1:2:0:0:
46,322,22143,2,0,P|26:268|53:215,1,120,2|2,0:0|3:2,0:0:0:0:
96,184,22731,5,0,1:2:0:0:
143,87,23123,2,0,P|93:54|34:56,2,120,0|0|0,1:2|1:2|1:2,0:0:0:0:
184,122,24104,2,0,P|236:120|290:80,1,120,2|2,0:0|0:0,0:0:0:0:
396,73,24888,2,0,L|410:196,1,120,2|2,0:0|0:0,0:0:0:0:
449,228,25476,1,2,1:2:0:0:
420,332,25869,5,2,1:2:0:0:
331,277,26261,2,0,L|271:283,1,60,0|2,1:2|0:0,0:0:0:0:
226,313,26653,2,0,L|232:373,2,60,2|2|2,1:2|0:0|1:2,0:0:0:0:
173,301,27241,2,0,P|128:225|158:143,1,180,2|0,0:0|1:2,0:0:0:0:
203,116,28025,2,0,P|235:120|261:127,2,60,2|2|2,0:0|1:2|0:2,0:0:0:0:
92,2,29006,6,0,P|40:22|33:91,1,120,6|10,1:0|0:0,0:0:0:0:
70,113,29594,1,6,1:2:0:0:
6,200,29986,2,0,L|13:268,1,60,8|8,0:0|0:0,0:0:0:0:
45,302,30378,2,0,P|99:312|154:280,1,120,6|0,1:0|1:2,0:0:0:0:
186,238,30967,1,8,0:0:0:0:
266,317,31359,1,10,0:0:0:0:
266,317,31555,1,2,1:2:0:0:
354,254,31947,6,0,P|410:241|482:230,1,120,6|0,1:0|1:2,0:0:0:0:
510,194,32535,1,8,0:0:0:0:
425,136,32927,1,2,1:2:0:0:
425,136,33123,2,0,L|433:69,1,60,2|8,1:2|0:0,0:0:0:0:
392,38,33516,2,0,P|335:51|278:33,1,120,6|0,1:0|1:2,0:0:0:0:
233,3,34104,1,8,0:0:0:0:
164,87,34496,1,2,1:2:0:0:
164,87,34692,2,0,L|174:150,1,60,2|8,1:2|0:0,0:0:0:0:
209,186,35084,6,0,L|189:325,1,120,6|0,1:0|1:2,0:0:0:0:
157,346,35673,1,10,0:0:0:0:
157,346,35869,1,2,1:2:0:0:
57,303,36261,2,0,L|49:232,1,60,2|10,1:2|0:0,0:0:0:0:
8,208,36653,2,0,P|-9:161|20:100,1,120,6|2,1:0|1:2,0:0:0:0:
65,72,37241,1,10,0:0:0:0:
158,126,37633,2,0,L|228:114,1,60,10|0,0:0|1:2,0:0:0:0:
255,78,38025,2,0,L|317:86,1,60,14|8,0:0|0:0,0:0:0:0:
353,123,38418,5,6,1:0:0:0:
433,194,38810,2,0,L|505:184,2,60,10|2|2,0:0|0:0|1:2,0:0:0:0:
398,235,39398,1,2,1:2:0:0:
292,212,39790,2,0,P|265:264|293:334,1,120,6|2,1:0|1:2,0:0:0:0:
326,358,40378,1,8,0:0:0:0:
326,358,40574,2,0,L|397:346,1,60,2|8,1:2|0:0,0:0:0:0:
454,264,41163,2,0,L|443:201,1,60,14|2,0:0|1:2,0:0:0:0:
399,174,41555,6,0,L|416:52,1,120,14|10,0:1|0:0,0:0:0:0:
386,9,42143,1,10,0:0:0:0:
305,80,42535,2,0,L|247:69,1,60,10|6,0:3|0:3,0:0:0:0:
210,28,42927,2,0,P|152:7|95:30,1,120,6|8,1:0|0:0,0:0:0:0:
61,64,43516,2,0,L|74:122,1,60,8|8,0:0|0:0,0:0:0:0:
113,160,43908,2,0,L|99:218,1,60,8|0,0:0|1:2,0:0:0:0:
60,254,44300,1,10,0:0:0:0:
130,335,44692,6,0,P|179:315|248:325,1,120,6|10,1:0|0:0,0:0:0:0:
296,351,45280,1,2,3:2:0:0:
296,351,45476,1,0,1:2:0:0:
374,276,45869,1,8,0:0:0:0:
374,276,46065,2,0,L|357:154,1,120,2|2,0:0|0:0,0:0:0:0:
316,121,46653,2,0,L|324:53,1,60,10|2,0:0|0:0,0:0:0:0:
364,27,47045,1,2,1:2:0:0:
364,27,47241,1,2,0:0:0:0:
364,27,47437,1,10,0:0:0:0:
465,64,47829,6,0,L|482:186,1,120,6|10,1:0|0:0,0:0:0:0:
453,229,48418,2,0,P|398:259|338:235,1,120,2|2,3:2|0:0,0:0:0:0:
302,210,49006,1,8,0:0:0:0:
253,306,49398,5,2,1:2:0:0:
153,264,49790,1,10,0:0:0:0:
132,157,50182,1,2,1:2:0:0:
32,115,50574,2,0,P|20:78|77:26,1,120,10|6,0:0|1:0,0:0:0:0:
127,30,51163,6,0,L|186:39,2,60,2|10|2,0:0|0:0|3:2,0:0:0:0:
144,141,51947,1,2,0:0:0:0:
144,141,52143,1,10,0:0:0:0:
239,192,52535,2,0,L|230:251,2,60,2|2|10,1:2|0:0|0:0,0:0:0:0:
283,161,53123,2,0,P|334:148|394:180,1,120,2|2,0:0|0:0,0:0:0:0:
434,226,53712,1,10,0:0:0:0:
434,226,53908,1,2,0:0:0:0:
434,226,54104,5,6,1:0:0:0:
349,293,54496,1,10,0:0:0:0:
248,254,54888,1,2,1:2:0:0:
168,327,55280,1,10,0:0:0:0:
84,258,55672,2,0,P|89:200|97:133,1,120,2|8,1:2|0:0,0:0:0:0:
72,96,56261,1,2,1:2:0:0:
72,96,56457,1,10,0:0:0:0:
152,24,56849,2,0,L|217:17,1,60,10|10,0:0|0:3,0:0:0:0:
258,43,57241,6,0,P|274:102|238:158,1,120,6|10,1:0|0:0,0:0:0:0:
205,184,57829,1,2,0:0:0:0:
205,184,58025,2,0,L|140:174,2,60,8|8|4,0:0|0:3|0:3,0:0:0:0:
230,232,58614,2,0,P|233:293|284:326,1,120,6|2,1:0|1:2,0:0:0:0:
328,342,59202,1,10,0:0:0:0:
419,284,59594,2,0,L|426:204,1,60,2|2,1:2|1:2,0:0:0:0:
464,187,59986,2,0,L|457:107,1,60,10|2,0:0|0:0,0:0:0:0:
424,85,60378,6,0,P|366:109|306:90,1,120,2|10,1:2|0:0,0:0:0:0:
273,65,60967,1,2,0:0:0:0:
273,65,61163,2,0,L|281:1,2,60,8|8|4,0:0|0:3|0:3,0:0:0:0:
225,90,61751,2,0,P|163:94|99:104,1,120,6|0,0:0|1:2,0:0:0:0:
64,137,62339,1,8,0:0:0:0:
148,204,62731,1,6,0:3:0:0:
80,287,63123,2,0,P|140:312|208:292,1,120,6|6,0:3|1:2,0:0:0:0:
241,324,63712,6,0,L|235:392,2,60,2|2|2,0:0|1:2|3:2,0:0:0:0:
319,250,64496,2,0,L|325:182,2,60,2|2|2,3:2|1:2|3:2,0:0:0:0:
391,330,65280,2,0,L|467:339,1,60,2|2,3:2|1:2,0:0:0:0:
498,313,65672,2,0,P|519:261|493:197,1,120,2|2,3:2|3:2,0:0:0:0:
453,172,66261,2,0,L|442:96,1,60,0|0,1:2|3:2,0:0:0:0:
471,65,66653,5,4,1:2:0:0:
376,12,67045,2,0,L|307:22,1,60,10|0,0:0|3:2,0:0:0:0:
277,58,67437,2,0,L|289:135,1,60,2|0,1:2|3:2,0:0:0:0:
326,153,67829,1,10,0:0:0:0:
255,234,68221,2,0,L|243:311,1,60,6|8,1:0|0:0,0:0:0:0:
205,329,68614,2,0,L|128:317,1,60,0|0,1:2|3:2,0:0:0:0:
110,279,69006,2,0,L|122:202,1,60,2|0,1:2|3:2,0:0:0:0:
80,181,69398,2,0,L|68:104,1,60,10|0,0:0|3:2,0:0:0:0:
99,76,69790,6,0,P|183:34|268:58,1,180,6|2,1:0|3:2,0:0:0:0:
294,98,70574,2,0,P|362:85|416:77,1,120,2|8,1:2|0:0,0:0:0:0:
492,150,71359,2,0,P|505:218|513:272,1,120,0|8,1:2|0:0,0:0:0:0:
462,363,72143,1,0,1:2:0:0:
354,352,72535,1,8,0:0:0:0:
298,259,72927,6,0,P|239:243|185:266,1,120,0|8,1:2|0:0,0:0:0:0:
138,361,73712,2,0,P|79:352|38:310,1,120,0|8,1:2|0:0,0:0:0:0:
2,208,74496,1,2,1:2:0:0:
80,134,74888,1,10,0:0:0:0:
173,187,75280,1,2,1:2:0:0:
249,111,75672,2,0,L|240:40,1,60,10|8,0:0|0:0,0:0:0:0:
276,9,76065,6,0,P|335:19|405:30,1,120,6|8,1:0|0:0,0:0:0:0:
440,65,76653,1,0,3:2:0:0:
440,65,76849,1,2,1:2:0:0:
353,130,77241,1,8,0:0:0:0:
424,210,77633,2,0,P|440:266|412:317,1,120,0|8,1:2|0:0,0:0:0:0:
372,352,78221,1,0,3:2:0:0:
372,352,78418,1,0,1:2:0:0:
281,293,78810,2,0,L|217:302,1,60,8|8,0:0|0:3,0:0:0:0:
172,279,79202,6,0,P|157:225|189:170,1,120,0|8,1:2|0:0,0:0:0:0:
244,162,79790,1,0,3:2:0:0:
244,162,79986,2,0,P|273:111|258:54,1,120,0|8,1:2|0:0,0:0:0:0:
162,3,80771,1,0,1:2:0:0:
66,53,81163,1,8,0:0:0:0:
44,163,81555,2,0,L|56:234,1,60,0|8,1:2|0:0,0:0:0:0:
102,264,81947,1,8,0:0:0:0:
102,264,82143,1,0,1:1:0:0:
102,264,82339,1,12,0:0:0:0:
217,166,82927,6,0,P|279:186|338:168,1,120,6|8,1:2|0:3,0:0:0:0:
378,147,83556,1,6,1:0:0:0:
