osu file format v14

[General]
AudioFilename: audio.mp3
AudioLeadIn: 0
PreviewTime: 44202
Countdown: 0
SampleSet: Soft
StackLeniency: 0.5
Mode: 0
LetterboxInBreaks: 0
WidescreenStoryboard: 0

[Editor]
DistanceSpacing: 1
BeatDivisor: 4
GridSize: 32
TimelineZoom: 1

[Metadata]
Title:Pleasure garden (Short Ver.)
TitleUnicode:Pleasure garden (Short Ver.)
Artist:Rin'ca
ArtistUnicode:Rin'ca
Creator:Fu Xuan
Version:Ame
Source:D.S. -Dal Segno-
Tags:FairyAccel Aqua Laplus- La+ Japanese Jpop J-pop Pop 天 Ame Visual Novel Vocals VN Galgame 美少女ゲーム Eroge Video Game Circus OP Opening Version Aurorance Iceluin No Dap OZATO FUMIKA Momoka Moeka Shioi -Aqua Wen NADESHIKO ダル・セーニョ Rinca
BeatmapID:4402630
BeatmapSetID:2098843

[Difficulty]
HPDrainRate:5
CircleSize:4
OverallDifficulty:8
ApproachRate:8.8
SliderMultiplier:1.7
SliderTickRate:1

[Events]
//Background and Video events
0,0,"ame.jpg",0,0
//Break Periods
2,13323,17592
//Storyboard Layer 0 (Background)
//Storyboard Layer 1 (Fail)
//Storyboard Layer 2 (Pass)
//Storyboard Layer 3 (Foreground)
//Storyboard Layer 4 (Overlay)
//Storyboard Sound Samples

[TimingPoints]
771,392.156862745098,4,2,1,60,1,0
771,-100,4,2,1,60,0,0
7045,-90.9090909090909,4,2,1,60,0,0
13320,-133.333333333333,4,2,1,60,0,0
18810,-100,4,2,1,60,0,0
19594,-111.111111111111,4,2,1,55,0,0
29006,-90.9090909090908,4,2,1,55,0,0
31849,-90.9090909090908,4,2,1,5,0,0
31947,-100,4,2,1,55,0,0
41555,-86.9565217391304,4,2,1,55,0,0
42927,-74.0740740740741,4,2,1,55,0,0
43221,-100,4,2,1,5,0,0
43320,-100,4,2,1,55,0,0
44300,-100,4,2,1,50,0,0
44692,-66.6666666666667,4,2,1,80,0,1
44986,-66.6666666666667,4,2,1,5,0,1
45084,-83.3333333333333,4,2,1,80,0,1
46359,-83.3333333333333,4,2,1,5,0,1
46457,-83.3333333333333,4,2,1,80,0,1
49398,-80,4,2,1,80,0,1
49692,-80,4,2,1,5,0,1
49790,-74.0740740740741,4,2,1,80,0,1
50084,-74.0740740740741,4,2,1,5,0,1
50182,-68.9655172413793,4,2,1,80,0,1
50476,-68.9655172413793,4,2,1,5,0,1
50574,-64.5161290322581,4,2,1,80,0,1
50967,-83.3333333333333,4,2,1,80,0,1
53418,-83.3333333333333,4,2,1,5,0,1
53516,-83.3333333333333,4,2,1,80,0,1
57241,-80,4,2,1,80,0,0
57829,-60.6060606060606,4,2,1,80,0,0
58123,-60.6060606060606,4,2,1,5,0,0
58221,-54.054054054054,4,2,1,80,0,0
58320,-54.054054054054,4,2,1,5,0,0
58418,-48.780487804878,4,2,1,80,0,0
58516,-48.780487804878,4,2,1,5,0,0
58614,-66.6666666666667,4,2,1,80,0,1
58908,-66.6666666666667,4,2,1,5,0,1
59006,-83.3333333333333,4,2,1,80,0,1
61163,-60.6060606060606,4,2,1,80,0,1
61261,-60.6060606060606,4,2,1,5,0,1
61359,-54.054054054054,4,2,1,80,0,1
61458,-54.054054054054,4,2,1,5,0,1
61555,-48.780487804878,4,2,1,80,0,1
61654,-48.780487804878,4,2,1,80,0,1
61751,-44.4444444444445,4,2,1,80,0,1
61849,-44.4444444444445,4,2,1,80,0,1
61947,-83.3333333333333,4,2,1,80,0,1
69790,-100,4,2,1,60,0,0
74496,-86.9565217391304,4,2,1,60,0,0
82927,419.58041958042,4,2,1,60,1,0
91738,-100,4,2,1,5,0,0

[Colours]
Combo1 : 128,128,255
Combo2 : 149,202,255

[HitObjects]
70,319,378,5,2,0:0:0:0:
68,308,476,1,2,0:0:0:0:
66,298,574,1,2,0:0:0:0:
64,287,672,1,2,0:0:0:0:
53,275,771,6,0,B|159:278|112:349|240:327,1,170,6|2,1:0|1:2,0:0:0:0:
417,257,1359,2,0,P|376:248|321:232,1,85,2|0,0:0|1:2,0:0:0:0:
374,339,1751,2,0,P|415:348|456:359,1,85,2|0,0:0|1:2,0:0:0:0:
276,172,2143,5,2,3:2:0:0:
261,165,2241,1,0,3:2:0:0:
245,173,2339,2,0,P|307:201|386:142,1,170,0|2,1:2|1:2,0:0:0:0:
480,191,2927,1,0,0:0:0:0:
474,41,3123,2,0,P|407:26|342:8,1,127.5,2|0,1:2|0:0,0:0:0:0:
296,67,3516,5,2,1:2:0:0:
260,24,3614,1,2,0:0:0:0:
205,14,3712,1,2,0:0:0:0:
156,41,3810,1,2,0:0:0:0:
145,57,3908,6,0,P|167:139|185:222,1,170,6|2,1:0|1:2,0:0:0:0:
294,287,4496,2,0,P|303:328|314:369,1,85,2|0,0:0|1:2,0:0:0:0:
67,366,4888,2,0,P|108:356|149:345,1,85,2|0,0:0|1:2,0:0:0:0:
311,178,5280,6,0,P|394:159|476:137,1,170,6|2,0:0|0:0,0:0:0:0:
418,243,5869,1,2,1:2:0:0:
418,243,6065,1,0,0:0:0:0:
260,87,6261,1,0,1:2:0:0:
177,168,6457,5,2,0:0:0:0:
177,168,6555,1,8,0:0:0:0:
187,209,6653,5,8,0:0:0:0:
196,250,6751,1,8,0:3:0:0:
207,292,6849,1,8,0:3:0:0:
218,332,6947,1,4,0:3:0:0:
295,338,7045,6,0,B|194:329|230:414|116:380,1,187.000005706787,6|10,1:0|0:0,0:0:0:0:
293,247,7633,1,2,3:2:0:0:
297,232,7731,1,0,1:2:0:0:
302,216,7829,2,0,P|347:228|392:238,1,93.5000028533936,2|2,1:2|1:2,0:0:0:0:
446,327,8221,1,10,0:0:0:0:
512,120,8418,6,0,P|422:133|352:76,1,187.000005706787,6|0,1:0|1:2,0:0:0:0:
165,48,9006,1,8,0:0:0:0:
251,0,9202,1,0,1:2:0:0:
190,157,9398,1,8,0:0:0:0:
148,166,9496,1,0,1:2:0:0:
107,175,9594,1,2,1:2:0:0:
65,186,9692,1,8,0:0:0:0:
25,197,9790,1,10,0:0:0:0:
262,338,9986,6,0,B|363:329|327:414|441:380,1,187.000005706787,6|0,1:0|1:2,0:0:0:0:
144,362,10574,2,0,P|156:317|166:272,1,93.5000028533936,8|0,0:0|1:2,0:0:0:0:
364,64,10967,5,8,0:0:0:0:
385,158,11163,1,8,0:0:0:0:
410,252,11359,1,8,0:0:0:0:
208,120,11555,6,0,P|137:177|47:164,1,187.000005706787,6|2,1:0|1:2,0:0:0:0:
190,13,12143,2,0,P|235:25|280:35,1,93.5000028533936,10|2,0:0|1:2,0:0:0:0:
72,292,12535,5,10,0:0:0:0:
166,271,12731,1,10,0:0:0:0:
299,235,12927,1,10,0:0:0:0:
481,184,13123,1,10,0:0:0:0:
481,184,18221,5,8,0:0:0:0:
372,93,18418,1,8,0:0:0:0:
301,268,18614,1,8,0:0:0:0:
310,249,18810,5,2,1:2:0:0:
269,239,18908,1,0,3:2:0:0:
230,255,19006,1,2,3:2:0:0:
207,290,19104,1,0,3:2:0:0:
177,335,19202,1,2,3:2:0:0:
126,355,19300,1,0,3:2:0:0:
73,345,19398,1,10,0:0:0:0:
279,346,19594,6,0,P|352:365|427:382,1,152.999995330811,6|2,1:0|1:2,0:0:0:0:
427,382,20182,1,2,0:0:0:0:
381,247,20378,5,2,1:2:0:0:
437,180,20574,2,0,P|399:171|362:161,1,76.4999976654053,2|0,0:0|1:2,0:0:0:0:
388,36,20967,2,0,P|330:83|257:73,1,152.999995330811,2|0,0:0|0:0,0:0:0:0:
256,72,21555,1,0,1:2:0:0:
46,33,21751,5,2,0:0:0:0:
127,11,21947,2,0,P|118:48|108:85,1,76.4999976654053,2|2,1:2|0:0,0:0:0:0:
189,154,22339,1,0,1:2:0:0:
38,332,22535,5,2,3:2:0:0:
32,319,22633,1,0,3:2:0:0:
27,303,22731,2,0,P|100:292|158:339,1,152.999995330811,0|0,1:2|1:2,0:0:0:0:
318,299,23320,1,0,0:0:0:0:
246,194,23516,2,0,P|237:231|227:268,2,76.4999976654053,0|0|0,1:2|0:0|1:2,0:0:0:0:
388,40,24104,6,0,P|404:114|424:188,1,152.999995330811,2|2,0:0|0:0,0:0:0:0:
508,219,24692,1,0,1:2:0:0:
474,375,24888,6,0,P|399:355|325:338,1,152.999995330811,2|2,0:0|0:0,0:0:0:0:
321,330,25378,1,2,0:0:0:0:
317,322,25476,1,2,1:2:0:0:
420,276,25672,1,0,0:0:0:0:
256,162,25869,6,0,P|181:181|107:198,1,152.999995330811,2|0,1:2|1:2,0:0:0:0:
0,287,26457,1,2,0:0:0:0:
194,349,26653,1,2,1:2:0:0:
107,362,26849,2,0,P|116:325|126:287,1,76.4999976654053,2|2,0:0|1:2,0:0:0:0:
39,91,27241,6,0,P|112:102|170:55,1,152.999995330811,2|0,0:0|0:0,0:0:0:0:
170,54,27829,1,0,1:2:0:0:
253,191,28025,1,2,0:0:0:0:
144,213,28221,2,0,P|135:250|125:288,1,76.4999976654053,2|2,1:2|0:0,0:0:0:0:
271,384,28614,2,0,P|280:346|289:309,1,76.4999976654053,0|0,1:2|0:0,0:0:0:0:
469,128,29006,6,0,P|491:224|515:321,1,187.000005706787,6|10,1:0|0:0,0:0:0:0:
293,39,29594,2,0,P|270:135|246:232,1,187.000005706787,6|8,1:2|0:0,0:0:0:0:
354,150,30182,1,8,0:0:0:0:
182,101,30378,6,0,B|70:81|110:143|0:112,1,187.000005706787,6|0,1:0|1:2,0:0:0:0:
137,267,30967,5,8,0:0:0:0:
25,335,31163,1,0,1:2:0:0:
30,316,31261,1,8,0:0:0:0:
35,297,31359,1,10,0:0:0:0:
205,352,31555,2,0,P|291:372|378:394,1,140.25000428009,2|0,1:2|0:0,0:0:0:0:
361,298,31947,6,0,P|430:344|512:330,1,170,6|0,1:0|1:2,0:0:0:0:
296,189,32535,1,8,0:0:0:0:
378,105,32731,1,0,0:0:0:0:
381,122,32829,1,8,0:0:0:0:
383,138,32927,1,2,1:2:0:0:
272,288,33123,2,0,P|257:348|242:409,1,85,2|8,1:2|0:0,0:0:0:0:
56,155,33516,6,0,B|-18:197|-18:197|12:295,1,170,6|0,1:0|1:2,0:0:0:0:
166,165,34104,2,0,P|156:123|146:82,1,85,8|0,0:0|0:0,0:0:0:0:
76,55,34398,1,8,0:0:0:0:
72,41,34496,1,2,1:2:0:0:
280,0,34692,2,0,P|269:41|260:82,1,85,2|8,1:2|0:0,0:0:0:0:
98,299,35084,6,0,P|180:291|245:343,1,170,6|0,1:0|1:2,0:0:0:0:
305,250,35672,1,10,0:0:0:0:
512,313,35869,1,2,1:2:0:0:
446,375,36065,2,0,P|435:333|426:292,1,85,0|2,0:0|1:2,0:0:0:0:
426,292,36457,1,10,0:0:0:0:
302,81,36653,6,0,P|383:95|452:49,1,170,6|2,1:0|1:2,0:0:0:0:
220,187,37241,2,0,P|261:196|302:206,1,85,10|0,0:0|1:2,0:0:0:0:
159,102,37633,1,10,0:0:0:0:
242,303,37829,5,0,1:2:0:0:
207,310,37927,1,8,0:0:0:0:
173,318,38025,1,14,0:0:0:0:
139,327,38123,1,8,0:0:0:0:
105,335,38221,1,8,0:0:0:0:
134,304,38418,6,0,B|247:313|192:363|306:361,1,170,6|10,1:0|0:0,0:0:0:0:
493,289,39006,1,2,0:0:0:0:
497,305,39104,1,8,0:0:0:0:
501,320,39202,1,2,1:2:0:0:
372,271,39398,2,0,P|382:229|391:188,1,85,2|8,1:2|0:0,0:0:0:0:
512,40,39790,6,0,P|426:20|339:-2,1,170,6|2,1:0|1:2,0:0:0:0:
230,129,40378,2,0,P|271:118|312:109,1,85,8|2,0:0|1:2,0:0:0:0:
471,212,40771,1,8,0:0:0:0:
372,271,40967,1,0,1:2:0:0:
357,267,41065,1,8,0:0:0:0:
341,263,41163,2,0,P|331:304|321:345,1,85,14|2,0:0|1:2,0:0:0:0:
69,384,41555,6,0,P|81:339|93:290,1,97.7500018644333,14|8,0:1|0:0,0:0:0:0:
0,311,41947,1,10,0:0:0:0:
228,88,42143,6,0,P|266:133|250:178,1,97.7500018644333,10|0,0:0|1:2,0:0:0:0:
208,188,42437,1,8,0:0:0:0:
166,178,42535,1,10,0:3:0:0:
125,168,42633,1,8,0:3:0:0:
83,158,42731,1,6,0:3:0:0:
279,356,42927,6,0,P|365:336|452:314,1,172.125000656605,6|0,1:0|0:0,0:0:0:0:
511,363,43320,1,8,0:0:0:0:
343,254,43516,1,8,0:0:0:0:
485,135,43712,1,8,0:0:0:0:
509,224,43908,6,0,P|467:213|426:204,1,85,8|0,0:0|1:2,0:0:0:0:
378,141,44202,1,0,1:2:0:0:
378,141,44300,6,0,P|367:143|357:145,6,21.25,10|2|2|2|2|2|2,0:0|0:0|0:0|0:0|0:0|0:0|0:0,0:0:0:0:
430,75,44692,6,0,B|441:138|393:163|393:163|327:190|355:280,1,191.250007295609,6|0,1:0|0:0,0:0:0:0:
398,288,45084,1,10,0:0:0:0:
210,376,45280,5,2,3:2:0:0:
195,380,45378,1,0,3:2:0:0:
180,384,45476,2,0,P|164:315|146:245,1,101.999996887207,0|2,1:2|0:0,0:0:0:0:
262,325,45869,1,8,0:0:0:0:
0,166,46065,6,0,P|58:181|144:118,1,152.999995330811,2|0,0:0|0:0,0:0:0:0:
122,116,46457,1,2,0:0:0:0:
73,342,46653,5,10,0:0:0:0:
199,364,46849,1,2,0:0:0:0:
79,217,47045,1,2,1:2:0:0:
278,124,47241,1,2,0:0:0:0:
299,229,47437,1,10,0:0:0:0:
83,92,47633,1,2,0:0:0:0:
256,3,47829,6,0,P|324:19|394:35,1,101.999996887207,6|0,1:0|0:0,0:0:0:0:
449,126,48221,1,10,0:0:0:0:
386,207,48418,1,2,3:2:0:0:
365,203,48516,1,0,3:2:0:0:
345,200,48614,1,0,1:2:0:0:
259,273,48810,1,2,0:0:0:0:
165,181,49006,2,0,P|117:216|141:279,1,101.999996887207,8|2,0:0|0:0,0:0:0:0:
84,177,49398,6,0,P|78:110|-5:89,1,159.375,2|0,1:2|0:0,0:0:0:0:
151,50,49790,6,0,P|172:-1|148:49,1,172.125000656605,10|0,0:0|0:0,0:0:0:0:
235,100,50182,6,0,B|337:115|288:181|412:175,1,184.875005641937,2|0,1:2|0:0,0:0:0:0:
470,195,50574,5,10,0:0:0:0:
418,203,50672,1,2,0:0:0:0:
366,218,50770,1,2,0:0:0:0:
318,237,50868,1,2,0:0:0:0:
271,262,50966,1,6,1:0:0:0:
84,384,51163,5,2,0:0:0:0:
176,224,51359,2,0,P|132:264|74:230,1,101.999996887207,10|2,0:0|3:2,0:0:0:0:
37,199,51653,1,0,3:2:0:0:
42,179,51751,1,0,1:2:0:0:
241,298,51947,5,2,0:0:0:0:
322,337,52143,2,0,P|383:321|446:307,1,101.999996887207,10|2,0:0|0:0,0:0:0:0:
332,119,52535,1,2,1:2:0:0:
421,77,52731,1,2,0:0:0:0:
473,162,52927,1,10,0:0:0:0:
259,265,53123,6,0,B|169:269|218:214|98:203,1,152.999995330811,2|0,0:0|0:0,0:0:0:0:
114,220,53516,1,2,0:0:0:0:
258,180,53712,1,10,0:0:0:0:
114,309,53908,1,2,0:0:0:0:
0,217,54104,6,0,P|2:167|36:131,1,101.999996887207,6|0,1:0|0:0,0:0:0:0:
360,263,54496,2,0,P|357:313|324:350,1,101.999996887207,10|0,0:0|0:0,0:0:0:0:
135,1,54888,6,0,P|147:50|158:101,1,101.999996887207,2|0,1:2|0:0,0:0:0:0:
178,384,55280,2,0,P|165:334|154:285,1,101.999996887207,10|0,0:0|0:0,0:0:0:0:
277,124,55672,5,2,1:2:0:0:
259,167,55770,1,0,3:2:0:0:
302,183,55869,1,0,3:2:0:0:
317,143,55967,1,0,3:2:0:0:
290,158,56065,5,8,0:0:0:0:
269,181,56163,1,0,3:2:0:0:
267,213,56261,1,2,1:2:0:0:
285,238,56359,1,8,0:0:0:0:
315,248,56457,5,10,0:0:0:0:
342,280,56555,1,0,3:2:0:0:
344,323,56653,1,0,3:2:0:0:
320,359,56751,1,8,0:0:0:0:
279,372,56849,5,10,0:0:0:0:
209,355,56947,1,8,0:3:0:0:
141,339,57045,1,10,0:3:0:0:
73,323,57143,1,4,0:3:0:0:
24,384,57241,6,0,B|87:395|112:347|112:347|139:281|229:309,1,212.5,6|10,1:0|0:0,0:0:0:0:
384,156,57829,5,2,0:0:0:0:
390,172,57927,1,8,0:0:0:0:
383,188,58025,2,0,P|347:195|318:174,1,70.1250006687641,8|0,0:0|0:0,0:0:0:0:
259,237,58221,6,0,P|224:211|236:168,1,78.6249997000694,8|0,0:3|0:0,0:0:0:0:
97,162,58418,6,0,P|121:106|189:128,1,87.125001329422,4|0,0:3|0:0,0:0:0:0:
87,9,58614,6,0,P|134:70|258:54,1,191.250007295609,6|0,1:0|0:0,0:0:0:0:
210,0,59006,1,2,1:2:0:0:
44,152,59202,5,10,0:0:0:0:
185,240,59398,1,2,0:0:0:0:
45,311,59594,1,2,1:2:0:0:
168,115,59790,1,2,1:2:0:0:
305,208,59986,1,10,0:0:0:0:
228,320,60182,1,2,0:0:0:0:
228,320,60378,6,0,P|290:305|353:291,1,101.999996887207,2|0,1:2|0:0,0:0:0:0:
141,239,60770,1,10,0:0:0:0:
295,94,60967,1,2,0:0:0:0:
292,84,61065,1,8,0:0:0:0:
289,74,61163,2,0,P|280:108|272:142,1,70.1250006687641,8|0,0:0|0:0,0:0:0:0:
202,76,61359,6,0,P|210:40|220:0,1,78.6249997000694,8|0,0:3|0:0,0:0:0:0:
380,154,61555,1,4,0:3:0:0:
63,41,61751,1,6,0:0:0:0:
115,122,61947,6,0,P|103:175|90:224,1,101.999996887207,2|0,0:0|1:2,0:0:0:0:
213,329,62339,2,0,P|244:295|234:228,1,101.999996887207,8|8,0:0|0:3,0:0:0:0:
233,231,62633,1,8,0:3:0:0:
222,234,62731,1,6,0:3:0:0:
10,361,62927,1,8,0:3:0:0:
24,366,63025,1,8,0:3:0:0:
36,371,63123,1,6,0:3:0:0:
120,325,63320,1,0,1:2:0:0:
310,380,63516,6,0,P|361:367|412:355,1,101.999996887207,6|2,1:2|0:0,0:0:0:0:
415,346,63810,1,0,3:2:0:0:
420,338,63908,1,2,1:2:0:0:
340,275,64104,1,2,3:2:0:0:
337,266,64202,1,0,3:2:0:0:
335,256,64300,1,0,1:2:0:0:
512,115,64496,5,2,3:2:0:0:
502,117,64594,1,0,3:2:0:0:
491,120,64692,1,2,1:2:0:0:
512,241,64888,1,2,3:2:0:0:
501,238,64986,1,0,3:2:0:0:
488,235,65084,1,4,1:2:0:0:
258,34,65280,5,2,3:2:0:0:
254,48,65378,1,0,3:2:0:0:
250,63,65476,1,2,1:2:0:0:
343,175,65673,1,2,3:2:0:0:
335,199,65771,1,0,3:2:0:0:
328,223,65869,1,0,1:2:0:0:
40,335,66065,5,2,3:2:0:0:
49,308,66163,1,0,3:2:0:0:
56,282,66261,1,0,1:0:0:0:
204,221,66457,1,0,3:2:0:0:
194,191,66555,1,0,3:2:0:0:
185,162,66653,1,4,1:2:0:0:
11,32,66849,5,0,3:2:0:0:
11,32,66947,1,0,3:2:0:0:
11,32,67045,2,0,L|-3:92,1,50.9999984436036,10|0,0:0|0:0,0:0:0:0:
86,128,67241,1,0,3:2:0:0:
94,133,67339,1,0,3:2:0:0:
102,139,67437,2,0,L|88:199,1,50.9999984436036,2|0,1:2|0:0,0:0:0:0:
0,367,67633,5,0,3:2:0:0:
6,355,67731,1,0,3:2:0:0:
13,345,67829,2,0,L|86:362,1,50.9999984436036,10|0,0:0|0:0,0:0:0:0:
249,265,68025,1,0,3:2:0:0:
241,250,68123,1,0,3:2:0:0:
232,236,68221,2,0,L|143:256,1,50.9999984436036,6|0,1:0|0:0,0:0:0:0:
160,351,68418,2,0,L|248:330,1,50.9999984436036,8|0,0:0|0:0,0:0:0:0:
301,380,68614,1,0,1:2:0:0:
432,301,68810,5,0,3:2:0:0:
432,301,68908,1,0,3:2:0:0:
432,301,69006,1,2,1:2:0:0:
479,290,69104,1,0,3:2:0:0:
490,243,69202,1,0,3:2:0:0:
454,211,69300,1,0,3:2:0:0:
407,232,69398,1,10,0:0:0:0:
360,191,69496,1,0,3:2:0:0:
374,129,69594,1,0,3:2:0:0:
435,115,69692,1,0,3:2:0:0:
447,130,69790,5,6,1:0:0:0:
447,130,69986,6,0,L|438:183,2,42.5,0|0|8,3:2|3:2|0:0,0:0:0:0:
512,60,70378,2,0,L|504:18,2,42.5,2|0|2,3:2|3:2|1:2,0:0:0:0:
344,70,70771,6,0,L|336:111,2,42.5,0|0|8,3:2|3:2|0:0,0:0:0:0:
243,17,71163,2,0,L|235:58,2,42.5,0|0|0,3:2|3:2|1:2,0:0:0:0:
267,220,71555,6,0,L|259:178,2,42.5,0|0|8,3:2|3:2|0:0,0:0:0:0:
165,136,71947,2,0,L|172:177,2,42.5,0|0|0,3:2|3:2|1:2,0:0:0:0:
67,22,72339,5,0,3:2:0:0:
67,22,72437,1,0,3:2:0:0:
67,22,72535,1,8,0:0:0:0:
36,28,72633,1,0,3:2:0:0:
12,50,72731,1,0,3:2:0:0:
2,79,72829,1,0,3:2:0:0:
8,110,72927,1,0,1:2:0:0:
116,279,73123,6,0,L|124:321,2,42.5,0|0|8,3:2|3:2|0:0,0:0:0:0:
22,214,73516,1,0,3:2:0:0:
22,214,73614,1,0,3:2:0:0:
22,214,73712,2,0,L|14:256,2,42.5,0|0|0,1:2|3:2|3:2,0:0:0:0:
212,152,74104,2,0,L|254:160,3,42.5,8|0|0|0,0:0|3:2|3:2|3:2,0:0:0:0:
245,261,74496,6,0,P|294:237|342:247,1,97.7500018644333,2|0,1:2|3:2,0:0:0:0:
342,251,74790,1,0,3:2:0:0:
346,259,74888,1,10,0:0:0:0:
427,324,75084,1,0,3:2:0:0:
434,322,75182,1,0,3:2:0:0:
444,320,75280,2,0,L|453:269,3,48.8750009322167,2|0|0|0,1:2|3:2|3:2|3:2,0:0:0:0:
512,184,75672,6,0,P|464:189|421:166,1,97.7500018644333,10|8,0:0|0:0,0:0:0:0:
330,100,75967,1,8,0:0:0:0:
340,79,76065,6,0,P|387:68|435:57,1,97.7500018644333,6|0,1:0|3:2,0:0:0:0:
494,10,76359,1,0,3:2:0:0:
499,0,76457,1,8,0:0:0:0:
340,183,76653,5,0,3:2:0:0:
330,185,76751,1,0,3:2:0:0:
322,188,76849,2,0,L|271:179,4,48.8750009322167,2|0|0|0|8,1:2|3:2|3:2|3:2|0:0,0:0:0:0:
200,42,77437,5,0,3:2:0:0:
196,29,77535,1,0,3:2:0:0:
193,18,77633,1,0,1:2:0:0:
103,85,77829,5,0,3:2:0:0:
98,101,77927,1,0,3:2:0:0:
95,114,78025,1,8,0:0:0:0:
174,214,78222,5,0,3:2:0:0:
168,232,78320,1,0,3:2:0:0:
164,247,78418,1,0,1:2:0:0:
13,284,78614,5,0,3:2:0:0:
6,305,78712,1,0,3:2:0:0:
0,324,78810,1,8,0:0:0:0:
73,384,79006,1,8,0:3:0:0:
242,321,79202,5,0,1:2:0:0:
262,307,79300,1,0,3:2:0:0:
285,300,79398,1,0,3:2:0:0:
310,298,79496,1,0,3:2:0:0:
333,303,79594,1,8,0:0:0:0:
414,367,79790,1,0,3:2:0:0:
497,207,79986,5,0,1:2:0:0:
460,220,80084,1,0,3:2:0:0:
422,215,80182,1,0,3:2:0:0:
391,193,80280,1,0,3:2:0:0:
373,162,80378,1,8,0:0:0:0:
342,140,80476,1,0,3:2:0:0:
304,135,80574,1,0,3:2:0:0:
267,148,80672,1,0,3:2:0:0:
253,190,80771,5,0,1:2:0:0:
260,211,80869,1,0,3:2:0:0:
265,229,80967,2,0,L|353:200,1,48.8750009322167,8|8,0:0|0:0,0:0:0:0:
463,104,81163,1,8,0:0:0:0:
456,83,81261,1,8,0:0:0:0:
451,65,81359,2,0,L|404:80,1,48.8750009322167,8|8,0:0|0:0,0:0:0:0:
297,26,81555,5,0,1:2:0:0:
389,255,81751,1,8,0:0:0:0:
409,383,81947,5,8,0:0:0:0:
511,132,82143,1,0,1:1:0:0:
323,289,82339,6,0,P|261:250|189:252,1,146.62500279665,12|8,0:0|0:0,0:0:0:0:
179,259,82731,1,8,0:0:0:0:
76,304,82927,6,0,P|57:357|83:307,1,170,6|8,1:2|0:3,0:0:0:0:
1,125,83556,5,6,1:0:0:0:
256,192,83661,12,0,91738,0:0:0:0:
