osu file format v14

[General]
AudioFilename: audio.mp3
AudioLeadIn: 0
PreviewTime: 44301
Countdown: 0
SampleSet: Soft
StackLeniency: 0.7
Mode: 2
LetterboxInBreaks: 0
WidescreenStoryboard: 1

[Editor]
Bookmarks: 83517,91752
DistanceSpacing: 1.2
BeatDivisor: 4
GridSize: 4
TimelineZoom: 1

[Metadata]
Title:Pleasure garden
TitleUnicode:Pleasure garden
Artist:Rin'ca
ArtistUnicode:Rin'ca
Creator:Kin
Version:Rain
Source:D.S. -Dal Segno-
Tags:ダル・セーニョ Circus yozuca* chokix VN visual novel eroge OP opening
BeatmapID:1553635
BeatmapSetID:727429

[Difficulty]
HPDrainRate:6
CircleSize:4.2
OverallDifficulty:9.2
ApproachRate:9.2
SliderMultiplier:1.78
SliderTickRate:2

[Events]
//Background and Video events
Video,379,"HEEEEEEEEEEEEEEEEEEEEEEEEEEEEY SAAALUUUUUUUT AAAAA TOUUUUUUUUS ICIIIIIIII DAVIIIIIIIID LAFARGE POKEMON.mp4"
0,0,"je mouille ptdr.jpg",0,0
//Break Periods
//Storyboard Layer 0 (Background)
//Storyboard Layer 1 (Fail)
//Storyboard Layer 2 (Pass)
//Storyboard Layer 3 (Foreground)
//Storyboard Sound Samples

[TimingPoints]
772,392.156862745098,4,2,1,65,1,0
10281,-100,4,2,1,5,0,0
10379,-100,4,2,1,65,0,0
11850,-100,4,2,1,5,0,0
11948,-100,4,2,1,65,0,0
12732,-100,4,2,1,70,0,0
12928,-100,4,2,1,75,0,0
13124,-100,4,2,1,80,0,0
13713,-100,4,2,1,35,0,0
18026,-100,4,2,1,35,0,0
18222,-100,4,2,1,45,0,0
18419,-100,4,2,1,55,0,0
18615,-100,4,2,1,65,0,0
18811,-100,4,2,1,75,0,0
19203,-100,4,2,1,55,0,0
19399,-100,4,2,1,75,0,0
19595,-100,4,2,1,65,0,0
19693,-100,4,2,1,45,0,0
25870,-100,4,2,1,65,0,0
25968,-100,4,2,1,45,0,0
29301,-100,4,2,1,5,0,0
29399,-100,4,2,1,65,0,0
29595,-100,4,2,1,55,0,0
29889,-100,4,2,1,5,0,0
29987,-100,4,2,1,70,0,0
31850,-100,4,2,1,5,0,0
31948,-100,4,2,1,70,0,0
43222,-100,4,2,1,70,0,0
43321,-100,4,1,0,70,0,0
44203,-100,4,2,1,70,0,0
44693,-100,4,2,1,70,0,1
55673,-100,4,2,1,70,0,0
57242,-100,4,2,1,70,0,1
58909,-100,4,2,1,5,0,1
59007,-100,4,2,1,70,0,1
69791,-100,4,2,1,70,0,0
69889,-100,4,2,1,55,0,0
76066,-100,4,2,1,70,0,0
76164,-100,4,2,1,55,0,0
79203,-100,4,2,1,70,0,0
79301,-100,4,2,1,55,0,0
81556,-100,4,2,1,45,0,0
81752,-100,4,2,1,55,0,0
81948,-100,4,2,1,65,0,0
82144,-100,4,2,1,75,0,0
83909,-100,4,2,1,55,0,0
84693,-100,4,2,1,50,0,0
85477,-100,4,2,1,45,0,0
86262,-100,4,2,1,40,0,0
87046,-100,4,2,1,35,0,0
87830,-100,4,2,1,30,0,0
88615,-100,4,2,1,25,0,0
89399,-100,4,2,1,20,0,0
90183,-100,4,2,1,15,0,0
90968,-100,4,2,1,10,0,0
91752,-100,4,2,1,5,0,0

[Colours]
Combo1 : 255,45,45
Combo2 : 151,219,255
Combo3 : 255,255,147
Combo4 : 255,164,119

[HitObjects]
332,72,379,5,0,0:0:0:0:
376,100,477,1,0,0:0:0:0:
396,148,575,1,2,0:0:0:0:
384,200,673,1,2,0:0:0:0:
196,268,772,6,0,P|156:240|192:136,1,178,4|2,1:0|1:2,0:0:0:0:
352,208,1360,2,0,P|384:256|384:304,1,89,2|0,0:0|1:0,0:0:0:0:
228,112,1752,2,0,P|196:160|196:208,1,89,2|0,0:0|1:0,0:0:0:0:
356,144,2144,2,0,P|376:124|392:96,1,44.5,2|0,0:0|0:0,0:0:0:0:
208,44,2340,6,0,P|188:88|140:128,1,89,0|0,1:0|0:0,0:0:0:0:
320,128,2732,2,0,P|364:120|404:92,1,89,2|0,1:2|0:0,0:0:0:0:
240,216,3124,2,0,P|196:224|156:252,1,89,2|0,1:2|0:0,0:0:0:0:
320,292,3517,2,0,P|352:256|360:204,1,89,2|2,1:2|0:0,0:0:0:0:
204,132,3811,1,2,0:0:0:0:
48,71,3909,6,0,P|12:148|52:232,1,178,4|2,1:0|1:2,0:0:0:0:
204,132,4497,2,0,L|112:144,1,89,2|0,0:0|1:0,0:0:0:0:
276,240,4889,2,0,L|368:252,1,89,2|0,0:0|1:0,0:0:0:0:
112,64,5281,6,0,P|72:84|128:176,1,178,6|2,0:0|0:0,0:0:0:0:
280,96,5870,1,2,1:2:0:0:
192,56,6066,1,0,0:0:0:0:
352,40,6262,1,2,1:2:0:0:
192,56,6458,2,0,L|144:48,1,44.5,0|0,0:0|0:0,0:0:0:0:
308,184,6654,1,8,0:0:0:0:
148,148,6850,1,4,1:3:0:0:
416,116,7046,6,0,P|448:176|396:280,1,178,4|10,1:0|0:0,0:0:0:0:
248,224,7634,2,0,L|300:220,2,44.5,2|0|0,0:0|1:0|1:0,0:0:0:0:
340,140,8026,1,2,1:2:0:0:
180,124,8222,1,8,0:0:0:0:
436,76,8419,6,0,P|464:132|408:240,1,178,6|2,1:2|1:2,0:0:0:0:
120,140,9007,2,0,P|96:108|96:48,1,89,10|0,0:0|1:0,0:0:0:0:
344,348,9399,2,0,P|368:316|368:256,1,89,10|0,0:0|1:0,0:0:0:0:
276,228,9693,1,0,1:0:0:0:
180,216,9791,1,10,0:0:0:0:
432,256,9987,6,0,P|460:220|428:96,1,178,4|0,1:0|1:0,0:0:0:0:
180,88,10575,2,0,P|144:116|128:160,1,89,10|0,0:0|1:0,0:0:0:0:
384,168,10968,2,0,P|420:196|436:240,1,89,10|8,0:0|0:0,0:0:0:0:
184,264,11360,1,10,0:0:0:0:
436,236,11556,6,0,P|460:184|424:56,1,178,4|0,1:0|1:0,0:0:0:0:
184,152,12144,2,0,P|140:152|96:136,1,89,10|0,0:0|1:0,0:0:0:0:
260,80,12536,1,10,0:0:0:0:
96,48,12732,1,10,0:0:0:0:
380,40,12928,1,10,0:0:0:0:
60,128,13124,1,14,0:0:0:0:
260,128,13713,5,2,0:0:0:0:
172,188,13909,2,0,P|104:148|92:48,1,178,2|2,0:0|0:0,0:0:0:0:
180,28,14497,2,0,L|348:88,1,178,2|2,0:0|0:0,0:0:0:0:
184,116,15085,5,2,0:0:0:0:
96,176,15281,1,0,0:0:0:0:
52,272,15477,1,2,0:0:0:0:
212,368,15673,2,0,L|404:380,1,178,2|2,0:0|0:0,0:0:0:0:
312,324,16262,1,4,0:0:0:0:
472,231,16458,6,0,P|488:144|432:36,1,178,4|2,0:1|0:0,0:0:0:0:
296,56,17046,6,0,P|280:143|336:251,1,178,2|2,0:0|0:0,0:0:0:0:
472,231,17634,2,0,P|484:272|476:316,1,89,2|0,0:0|0:0,0:0:0:0:
316,252,18026,5,2,0:0:0:0:
388,172,18222,1,0,0:0:0:0:
280,152,18419,1,10,0:0:0:0:
440,56,18615,1,8,0:0:0:0:
172,56,18811,1,10,0:0:0:0:
424,160,19007,1,8,0:0:0:0:
460,200,19105,1,8,0:0:0:0:
476,252,19203,1,10,1:2:0:0:
460,200,19301,1,8,0:0:0:0:
424,160,19399,1,10,1:2:0:0:
140,108,19595,6,0,P|104:156|156:268,1,178,4|0,1:0|1:0,0:0:0:0:
228,220,20183,1,2,0:0:0:0:
120,340,20379,1,0,1:0:0:0:
280,288,20575,2,0,P|328:296|372:324,1,89,2|0,0:0|1:0,0:0:0:0:
200,128,20968,6,0,P|144:192|208:232,1,178,2|0,0:0|0:0,0:0:0:0:
292,172,21556,1,0,1:0:0:0:
132,72,21752,1,2,0:0:0:0:
240,68,21948,1,0,1:0:0:0:
80,192,22144,2,0,P|48:224|36:268,1,89,2|0,0:0|1:0,0:0:0:0:
288,120,22536,6,0,P|320:152|284:268,1,178,2|0,0:0|0:0,0:0:0:0:
124,128,23124,2,0,P|184:144|304:88,1,178,0|0,1:0|1:0,0:0:0:0:
360,24,23713,1,2,0:0:0:0:
200,28,23909,1,0,1:0:0:0:
452,216,24105,6,0,P|476:252|476:300,1,89,2|0,0:0|1:0,0:0:0:0:
192,132,24497,2,0,P|168:168|168:216,1,89,2|0,0:0|1:0,0:0:0:0:
452,216,24889,2,0,P|476:252|476:300,1,89,2|0,0:0|1:0,0:0:0:0:
192,132,25281,1,2,0:0:0:0:
179,149,25330,2,0,P|164:179|167:212,1,66.75,0|0,0:0|1:0,0:0:0:0:
328,316,25673,1,2,0:0:0:0:
72,292,25870,6,0,P|44:216|72:120,1,178,4|2,1:0|1:2,0:0:0:0:
228,152,26458,1,0,0:0:0:0:
68,125,26654,1,2,1:2:0:0:
176,60,26850,1,0,0:0:0:0:
32,236,27046,1,0,1:0:0:0:
284,80,27242,6,0,P|312:120|272:240,1,178,2|0,0:0|0:0,0:0:0:0:
188,180,27830,1,0,1:0:0:0:
440,120,28026,1,2,0:0:0:0:
280,92,28222,1,0,1:0:0:0:
440,120,28419,2,0,P|480:176|432:280,1,178,2|2,0:0|0:0,0:0:0:0:
160,336,29007,6,0,P|120:280|168:176,1,178,4|8,1:0|0:0,0:0:0:0:
440,120,29595,2,0,P|480:176|432:280,1,178,4|4,1:0|1:3,0:0:0:0:
160,336,30183,1,10,0:0:0:0:
445,271,30379,6,0,P|482:194|440:120,1,178,4|0,1:0|1:0,0:0:0:0:
172,80,30968,2,0,P|140:116|128:164,1,89,8|0,0:0|0:0,0:0:0:0:
228,268,31262,1,8,0:0:0:0:
328,216,31360,2,0,L|272:208,1,44.5,10|0,0:0|0:0,0:0:0:0:
80,216,31556,2,0,P|52:176|88:88,1,133.5,14|0,0:0|0:0,0:0:0:0:
283,209,31948,6,0,B|371:191|371:191|283:167,1,178,4|0,1:0|1:0,0:0:0:0:
124,88,32536,2,0,P|96:128|96:184,1,89,8|0,0:0|0:0,0:0:0:0:
180,232,32830,1,8,0:0:0:0:
268,176,32928,1,2,1:2:0:0:
112,64,33124,1,2,0:0:0:0:
368,48,33321,1,8,0:0:0:0:
100,216,33517,6,0,P|60:268|96:368,1,178,4|0,1:0|1:0,0:0:0:0:
360,204,34105,2,0,L|336:88,1,89,8|0,0:0|0:0,0:0:0:0:
180,112,34497,1,2,1:2:0:0:
268,52,34693,1,2,0:0:0:0:
112,32,34889,1,8,0:0:0:0:
380,104,35085,2,0,P|420:160|376:256,1,178,4|0,1:0|1:0,0:0:0:0:
220,200,35673,1,10,0:0:0:0:
381,252,35870,2,0,P|416:208|420:160,2,89,2|0|0,1:2|0:0|1:2,0:0:0:0:
128,148,36458,1,10,0:2:0:0:
380,104,36654,6,0,P|420:160|376:256,1,178,4|0,1:0|1:0,0:0:0:0:
128,148,37242,2,0,L|152:52,1,89,10|0,0:0|1:0,0:0:0:0:
404,272,37634,2,0,L|380:176,1,89,10|0,0:0|0:0,0:0:0:0:
292,136,37928,1,8,0:0:0:0:
204,208,38026,1,10,0:0:0:0:
364,56,38222,1,8,0:0:0:0:
108,136,38419,6,0,P|72:184|108:292,1,178,4|10,1:0|0:0,0:0:0:0:
264,208,39007,2,0,L|192:212,2,44.5,0|8|2,0:0|0:0|1:2,0:0:0:0:
176,136,39399,1,2,1:2:0:0:
336,104,39595,1,8,0:0:0:0:
84,88,39791,6,0,P|44:132|96:232,1,178,4|2,1:0|1:2,0:0:0:0:
356,152,40379,2,0,L|340:52,1,89,8|2,0:0|1:2,0:0:0:0:
88,328,40772,2,0,L|104:228,1,89,8|0,0:0|0:0,0:0:0:0:
192,196,41066,1,8,0:0:0:0:
280,256,41164,1,14,0:0:0:0:
120,152,41360,1,10,0:0:0:0:
372,88,41556,6,0,P|416:128|376:228,1,178,4|4,1:0|1:3,0:0:0:0:
124,120,42144,1,4,1:3:0:0:
288,44,42340,1,4,1:3:0:0:
208,32,42438,1,8,0:0:0:0:
288,44,42536,1,10,0:0:0:0:
124,120,42732,1,2,0:0:0:0:
376,160,42928,6,0,P|432:224|356:264,1,178,4|0,1:0|1:0,0:0:0:0:
212,192,43517,1,0,0:0:0:0:
372,104,43713,1,0,0:0:0:0:
120,96,43909,1,0,0:0:0:0:
404,200,44105,2,0,L|460:192,1,44.5,0|2,0:0|0:0,0:0:0:0:
212,192,44301,1,8,0:0:0:0:
140,228,44399,1,0,0:0:0:0:
96,296,44497,1,2,0:0:0:0:
112,348,44562,1,2,0:0:0:0:
160,376,44628,1,2,0:0:0:0:
360,296,44693,6,0,P|400:244|352:144,1,178,4|10,1:0|0:0,0:0:0:0:
200,168,45281,1,2,0:0:0:0:
452,228,45477,2,0,P|472:192|472:140,1,89,0|0,1:0|0:0,0:0:0:0:
204,72,45870,1,8,0:0:0:0:
364,128,46066,6,0,P|424:180|356:224,1,178,2|2,0:0|0:0,0:0:0:0:
200,176,46654,1,10,0:0:0:0:
364,96,46850,1,0,0:0:0:0:
200,176,47046,2,0,L|136:172,1,44.5,2|0,2:0|0:0,0:0:0:0:
364,96,47242,2,0,L|428:92,1,44.5,2|0,0:0|0:0,0:0:0:0:
120,104,47438,2,0,P|76:156|84:196,1,89,8|2,0:0|0:0,0:0:0:0:
328,308,47830,6,0,P|388:272|308:220,1,178,4|10,1:0|0:0,0:0:0:0:
168,312,48419,1,2,0:0:0:0:
420,188,48615,2,0,L|400:84,1,89,0|0,1:0|0:0,0:0:0:0:
136,244,49007,2,0,L|156:140,1,89,8|0,0:0|0:0,0:0:0:0:
408,196,49399,6,0,P|448:184|484:148,1,89,2|0,1:2|0:0,0:0:0:0:
152,156,49791,2,0,P|112:144|76:108,1,89,10|0,0:0|0:0,0:0:0:0:
372,236,50183,2,0,P|416:228|460:208,1,89,2|0,1:2|0:0,0:0:0:0:
152,156,50575,2,0,P|108:148|64:128,1,89,10|0,0:0|0:0,0:0:0:0:
40,92,50870,1,0,0:0:0:0:
280,100,50968,6,0,P|324:160|324:196,1,89,4|2,1:0|0:0,0:0:0:0:
164,252,51360,1,10,0:0:0:0:
416,308,51556,2,0,P|464:264|412:168,1,178,2|2,0:0|0:0,0:0:0:0:
172,248,52144,2,0,L|152:344,1,89,10|0,0:0|0:0,0:0:0:0:
316,216,52536,5,2,1:2:0:0:
64,168,52732,1,2,0:0:0:0:
224,112,52928,1,8,0:0:0:0:
136,100,53124,2,0,P|100:152|152:256,1,178,2|0,0:0|0:0,0:0:0:0:
304,160,53713,2,0,L|320:64,1,89,10|2,0:0|0:0,0:0:0:0:
64,180,54105,6,0,P|40:224|40:276,1,89,4|0,1:0|0:0,0:0:0:0:
318,72,54497,2,0,P|342:116|342:168,1,89,10|0,0:0|0:0,0:0:0:0:
92,195,54889,2,0,P|60:219|36:267,1,89,2|0,1:2|0:0,0:0:0:0:
344,154,55281,2,0,P|376:178|400:226,1,89,10|0,0:0|0:0,0:0:0:0:
112,88,55673,6,0,P|64:116|120:204,1,178,2|8,1:2|0:0,0:0:0:0:
364,64,56262,1,0,0:0:0:0:
408,52,56360,1,0,0:0:0:0:
452,36,56458,1,8,0:0:0:0:
184,56,56654,1,8,0:0:0:0:
140,76,56752,1,8,0:0:0:0:
112,116,56850,1,4,1:3:0:0:
140,76,56948,1,8,1:3:0:0:
184,56,57046,1,4,1:3:0:0:
436,152,57242,6,0,L|408:336,1,178,4|10,1:0|0:0,0:0:0:0:
248,224,57830,2,0,L|300:220,2,44.5,2|8|8,0:0|0:0|0:0,0:0:0:0:
340,136,58222,1,0,1:0:0:0:
176,112,58419,1,8,0:0:0:0:
428,72,58615,6,0,P|480:140|412:200,1,178,4|2,1:0|1:2,0:0:0:0:
264,132,59203,1,10,0:0:0:0:
428,72,59399,1,0,0:0:0:0:
176,48,59595,2,0,P|140:92|136:136,1,89,2|2,1:2|1:2,0:0:0:0:
296,268,59987,2,0,P|332:224|336:180,1,89,8|2,0:0|0:0,0:0:0:0:
84,176,60379,6,0,P|24:220|96:268,1,178,4|10,1:0|0:0,0:0:0:0:
248,144,60968,2,0,L|192:140,2,44.5,2|8|8,0:0|0:0|0:0,0:0:0:0:
160,72,61360,1,0,1:0:0:0:
320,72,61556,1,8,0:0:0:0:
68,160,61752,6,0,P|32:236|72:316,1,178,4|0,1:0|0:0,0:0:0:0:
340,176,62340,1,8,0:0:0:0:
180,144,62536,1,8,1:3:0:0:
272,108,62732,1,4,1:3:0:0:
112,80,62928,1,4,1:3:0:0:
396,152,63124,2,0,P|424:188|424:240,1,89,12|0,1:2|0:0,0:0:0:0:
264,288,63517,6,0,P|236:252|236:200,1,89,4|8,1:0|0:0,0:0:0:0:
260,172,63811,1,8,0:0:0:0:
340,168,63909,2,0,P|368:132|368:80,1,89,0|8,1:0|0:0,0:0:0:0:
344,56,64203,1,8,0:0:0:0:
264,288,64301,6,0,P|236:252|236:200,1,89,0|8,1:0|0:0,0:0:0:0:
260,172,64595,1,8,0:0:0:0:
356,168,64693,2,0,P|384:132|384:80,1,89,0|8,1:0|0:0,0:0:0:0:
360,56,64987,1,8,0:0:0:0:
136,316,65085,6,0,P|108:280|108:228,1,89,4|8,1:0|0:0,0:0:0:0:
132,196,65379,1,8,0:0:0:0:
232,180,65477,1,0,1:0:0:0:
276,156,65575,1,0,0:0:0:0:
296,112,65673,1,8,0:0:0:0:
276,68,65772,1,8,0:0:0:0:
176,248,65870,6,0,P|148:212|148:160,1,89,0|8,1:0|0:0,0:0:0:0:
172,128,66164,1,8,0:0:0:0:
360,56,66262,2,0,L|424:64,1,44.5,0|0,1:0|0:0,0:0:0:0:
216,122,66458,2,0,L|152:130,1,44.5,8|8,0:0|0:0,0:0:0:0:
404,60,66654,6,0,P|432:100|432:152,1,89,4|8,1:0|0:0,0:0:0:0:
408,180,66948,1,8,0:0:0:0:
308,196,67046,1,0,1:0:0:0:
264,176,67144,1,0,0:0:0:0:
240,132,67242,1,8,0:0:0:0:
248,84,67340,1,8,0:0:0:0:
408,180,67438,5,0,1:0:0:0:
444,212,67536,1,0,0:0:0:0:
456,260,67634,1,8,0:0:0:0:
444,308,67732,1,8,0:0:0:0:
204,344,67830,1,0,1:0:0:0:
168,312,67928,1,0,0:0:0:0:
156,264,68026,1,8,0:0:0:0:
168,216,68124,1,8,0:0:0:0:
352,168,68222,5,0,1:0:0:0:
396,148,68321,1,0,0:0:0:0:
420,104,68419,1,8,0:0:0:0:
408,56,68517,1,8,0:0:0:0:
196,24,68615,1,0,1:0:0:0:
152,44,68713,1,0,0:0:0:0:
128,88,68811,1,8,0:0:0:0:
136,136,68909,1,8,0:0:0:0:
316,316,69007,5,0,1:0:0:0:
360,292,69105,1,0,0:0:0:0:
376,248,69203,1,8,0:0:0:0:
356,204,69301,1,8,0:0:0:0:
180,133,69399,2,0,L|120:137,1,44.5,0|0,1:0|0:0,0:0:0:0:
311,206,69595,2,0,L|355:203,1,44.5,8|8,0:0|0:0,0:0:0:0:
80,84,69791,6,0,P|60:120|76:180,1,89,4|0,1:0|0:0,0:0:0:0:
360,260,70183,2,0,P|380:224|364:164,1,89,0|2,1:0|0:0,0:0:0:0:
212,252,70575,1,2,1:2:0:0:
176,220,70673,1,0,0:0:0:0:
160,172,70772,1,8,0:0:0:0:
176,124,70870,1,8,0:0:0:0:
336,60,70968,2,0,P|364:96|368:148,1,89,0|8,0:0|0:0,0:0:0:0:
116,316,71360,6,0,P|88:280|84:228,1,89,0|8,1:0|0:0,0:0:0:0:
108,196,71654,1,8,0:0:0:0:
196,224,71752,2,0,P|224:188|228:136,1,89,0|8,0:0|0:0,0:0:0:0:
68,160,72144,6,0,P|48:128|48:100,1,44.5,0|0,1:0|0:0,0:0:0:0:
144,104,72340,2,0,P|164:72|164:44,1,44.5,8|8,0:0|0:0,0:0:0:0:
84,20,72536,1,0,1:0:0:0:
244,112,72732,2,0,P|268:120|304:120,1,44.5,8|8,0:0|0:0,0:0:0:0:
116,96,72928,6,0,P|84:128|84:184,1,89,0|8,1:0|0:0,0:0:0:0:
244,40,73321,2,0,P|276:72|276:128,1,89,0|8,1:0|0:0,0:0:0:0:
252,156,73615,1,8,0:0:0:0:
79,169,73713,6,0,P|47:201|47:257,1,89,0|8,1:0|0:0,0:0:0:0:
296,312,74105,1,0,1:0:0:0:
340,284,74203,1,0,0:0:0:0:
360,236,74301,1,8,0:0:0:0:
348,184,74399,1,8,0:0:0:0:
188,228,74497,5,2,0:2:0:0:
144,200,74595,1,0,0:0:0:0:
124,152,74693,1,8,0:0:0:0:
136,100,74791,1,0,0:0:0:0:
324,36,74889,2,0,L|372:40,1,44.5,2|0,1:2|0:0,0:0:0:0:
288,112,75085,2,0,L|240:116,1,44.5,8|8,0:0|0:0,0:0:0:0:
324,36,75281,5,2,1:2:0:0:
164,168,75477,2,0,L|116:172,1,44.5,8|4,0:0|3:0,0:0:0:0:
320,192,75673,2,0,P|352:232|352:272,1,89,10|8,0:0|0:0,0:0:0:0:
188,352,75968,1,8,0:0:0:0:
24,280,76066,5,4,1:0:0:0:
132,132,76262,1,8,0:0:0:0:
88,104,76360,1,8,0:0:0:0:
44,72,76458,1,0,1:0:0:0:
204,76,76654,2,0,L|284:72,1,44.5,10|8,0:0|0:0,0:0:0:0:
88,152,76850,5,2,1:2:0:0:
52,188,76948,1,0,0:0:0:0:
36,240,77046,1,8,0:0:0:0:
52,188,77144,1,8,0:0:0:0:
240,156,77242,2,0,P|268:192|268:236,1,89,0|4,1:0|3:0,0:0:0:0:
244,280,77536,1,0,0:0:0:0:
64,317,77634,6,0,P|36:281|36:237,1,89,2|8,1:2|0:0,0:0:0:0:
196,100,78026,2,0,L|76:104,1,89,0|8,1:0|0:0,0:0:0:0:
267,94,78419,2,0,L|315:98,1,44.5,2|4,1:2|0:3,0:0:0:0:
231,166,78615,2,0,L|183:170,1,44.5,8|8,0:0|0:0,0:0:0:0:
267,94,78811,1,0,1:0:0:0:
107,102,79007,1,8,0:0:0:0:
376,212,79203,6,0,P|397:254|397:310,1,89,4|8,1:0|0:0,0:0:0:0:
373,338,79497,1,8,0:0:0:0:
281,166,79595,2,0,P|249:201|235:255,1,89,0|8,1:0|0:0,0:0:0:0:
249,294,79889,1,8,0:0:0:0:
337,70,79987,6,0,P|376:95|404:144,1,89,2|8,1:2|0:0,0:0:0:0:
408,184,80281,1,0,0:0:0:0:
320,144,80379,2,0,P|275:158|236:198,1,89,8|0,0:0|1:0,0:0:0:0:
224,236,80673,1,4,0:3:0:0:
388,308,80772,5,14,0:0:0:0:
432,276,80870,1,0,0:0:0:0:
452,228,80968,1,0,1:0:0:0:
432,180,81066,1,4,0:3:0:0:
208,180,81164,1,14,0:0:0:0:
164,148,81262,1,0,0:0:0:0:
144,100,81360,1,0,1:0:0:0:
164,52,81458,1,4,0:3:0:0:
324,24,81556,5,14,0:0:0:0:
164,52,81752,1,14,0:0:0:0:
344,103,81948,1,14,0:0:0:0:
236,139,82144,1,14,0:0:0:0:
488,160,82340,6,0,P|496:212|456:284,1,133.5,4|8,1:0|0:0,0:0:0:0:
228,268,82732,1,8,0:0:0:0:
388,232,82928,2,0,P|436:208|376:128,1,178,4|4,1:0|1:3,0:0:0:0:
128,240,83517,1,4,1:0:0:0:
256,192,83713,12,0,91752,0:0:0:0:
