osu file format v14

[General]
AudioFilename: audio.mp3
AudioLeadIn: 0
PreviewTime: 44301
Countdown: 0
SampleSet: Soft
StackLeniency: 0.7
Mode: 0
LetterboxInBreaks: 0
WidescreenStoryboard: 0

[Editor]
Bookmarks: 83517,91752
DistanceSpacing: 1.2
BeatDivisor: 4
GridSize: 4
TimelineZoom: 1

[Metadata]
Title:Pleasure garden
TitleUnicode:Pleasure garden
Artist:Rin'ca
ArtistUnicode:Rin'ca
Creator:Kin
Version:Normal
Source:D.S. -Dal Segno-
Tags:ダル・セーニョ Circus yozuca* chokix VN visual novel eroge OP opening
BeatmapID:1551409
BeatmapSetID:727429

[Difficulty]
HPDrainRate:5
CircleSize:3.4
OverallDifficulty:5.8
ApproachRate:6.9
SliderMultiplier:1.29
SliderTickRate:1

[Events]
//Background and Video events
Video,379,"HEEEEEEEEEEEEEEEEEEEEEEEEEEEEY SAAALUUUUUUUT AAAAA TOUUUUUUUUS ICIIIIIIII DAVIIIIIIIID LAFARGE POKEMON.mp4"
0,0,"on c ts se kel att ptdr.jpg",0,0
//Break Periods
//Storyboard Layer 0 (Background)
//Storyboard Layer 1 (Fail)
//Storyboard Layer 2 (Pass)
//Storyboard Layer 3 (Foreground)
//Storyboard Sound Samples

[TimingPoints]
772,392.156862745098,4,2,1,65,1,0
10379,-100,4,2,1,65,0,0
11850,-100,4,2,1,5,0,0
11948,-100,4,2,1,65,0,0
12732,-100,4,2,1,70,0,0
12928,-100,4,2,1,75,0,0
13124,-100,4,2,1,80,0,0
13713,-100,4,2,1,80,0,0
18026,-100,4,2,1,80,0,0
18222,-100,4,2,1,45,0,0
18419,-100,4,2,1,55,0,0
18615,-100,4,2,1,65,0,0
18811,-100,4,2,1,75,0,0
19203,-100,4,2,1,55,0,0
19399,-100,4,2,1,75,0,0
19595,-100,4,2,1,65,0,0
19693,-100,4,2,1,45,0,0
25870,-100,4,2,1,65,0,0
25968,-100,4,2,1,45,0,0
29301,-100,4,2,1,5,0,0
29399,-100,4,2,1,65,0,0
29595,-100,4,2,1,55,0,0
29889,-100,4,2,1,5,0,0
29987,-100,4,2,1,70,0,0
31850,-100,4,2,1,5,0,0
31948,-100,4,2,1,70,0,0
43321,-100,4,1,0,70,0,0
44203,-100,4,2,1,70,0,0
44693,-100,4,2,1,70,0,1
55673,-100,4,2,1,70,0,0
57242,-100,4,2,1,70,0,1
58909,-100,4,2,1,5,0,1
59007,-100,4,2,1,70,0,1
69791,-100,4,2,1,70,0,0
69889,-100,4,2,1,55,0,0
76066,-100,4,2,1,70,0,0
76164,-100,4,2,1,55,0,0
79203,-100,4,2,1,70,0,0
79301,-100,4,2,1,55,0,0
81556,-100,4,2,1,45,0,0
81752,-100,4,2,1,55,0,0
81948,-100,4,2,1,65,0,0
82144,-100,4,2,1,75,0,0
83909,-100,4,2,1,55,0,0
84693,-100,4,2,1,55,0,0
85477,-100,4,2,1,55,0,0
86262,-100,4,2,1,55,0,0
87046,-100,4,2,1,55,0,0
87830,-100,4,2,1,55,0,0
88615,-100,4,2,1,55,0,0
89399,-100,4,2,1,55,0,0
90183,-100,4,2,1,55,0,0
90968,-100,4,2,1,55,0,0
91752,-100,4,2,1,55,0,0

[Colours]
Combo1 : 136,255,136
Combo2 : 151,219,255
Combo3 : 74,74,255
Combo4 : 255,164,119

[HitObjects]
164,40,379,6,0,L|240:44,1,64.5,0|0,0:0|0:0,0:0:0:0:
296,84,772,2,0,P|320:136|304:220,1,129,4|2,1:0|1:2,0:0:0:0:
256,260,1360,2,0,P|204:252|104:256,2,129,2|2|2,0:0|0:0|0:0,0:0:0:0:
332,280,2340,5,0,1:0:0:0:
368,128,2732,1,2,1:2:0:0:
220,92,3124,1,2,1:2:0:0:
184,244,3517,2,0,L|272:264,1,64.5,2|2,1:2|0:0,0:0:0:0:
325,240,3909,6,0,P|365:191|368:128,1,129,4|2,1:0|1:2,0:0:0:0:
316,72,4497,1,2,0:0:0:0:
164,56,4889,1,2,0:0:0:0:
224,200,5281,6,0,P|236:252|220:336,1,129,6|2,0:0|0:0,0:0:0:0:
148,304,5870,2,0,P|136:252|152:168,1,129,2|2,1:2|1:2,0:0:0:0:
204,124,6458,1,0,0:0:0:0:
208,120,6654,2,0,L|280:132,1,64.5,8|4,0:0|1:3,0:0:0:0:
348,148,7046,6,0,P|364:212|340:280,1,129,4|10,1:0|0:0,0:0:0:0:
284,316,7634,2,0,B|220:300|220:300|140:308,1,129,2|2,0:0|1:2,0:0:0:0:
107,367,8222,1,8,0:0:0:0:
107,367,8419,6,0,P|76:313|95:254,1,129,6|2,1:2|1:2,0:0:0:0:
168,228,9007,2,0,L|324:232,2,129,10|10|10,0:0|0:0|0:0,0:0:0:0:
108,180,9987,6,0,P|76:125|95:66,1,129,4|0,1:0|1:0,0:0:0:0:
164,32,10575,2,0,L|320:36,1,129,10|10,0:0|0:0,0:0:0:0:
400,148,11360,1,10,0:0:0:0:
404,152,11556,6,0,P|408:208|400:300,1,129,4|0,1:0|1:0,0:0:0:0:
344,332,12144,2,0,P|300:344|200:324,1,129,10|10,0:0|0:0,0:0:0:0:
168,272,12732,1,10,0:0:0:0:
164,268,12928,2,0,L|172:188,1,64.5,10|14,0:0|0:0,0:0:0:0:
336,48,13713,5,2,0:0:0:0:
340,44,13909,2,0,P|404:36|420:144,1,193.5,2|2,0:0|0:0,0:0:0:0:
272,176,14889,5,2,0:0:0:0:
272,176,15085,2,0,B|216:184|144:168|144:168|168:196|172:232,1,193.5,2|2,0:0|0:0,0:0:0:0:
108,368,16066,2,0,P|76:372|44:368,1,64.5,2|4,0:0|0:0,0:0:0:0:
0,304,16458,6,0,L|12:160,1,129,4|2,0:1|0:0,0:0:0:0:
64,120,17046,2,0,B|104:120|128:104|128:104|168:128|216:128|260:108,1,193.5,2|2,0:0|0:0,0:0:0:0:
388,44,18026,6,0,P|408:100|392:180,1,129,2|10,0:0|0:0,0:0:0:0:
284,272,18811,2,0,L|216:268,2,64.5,10|0|10,0:0|0:0|1:2,0:0:0:0:
328,336,19399,1,10,1:2:0:0:
332,340,19595,6,0,P|400:356|464:336,1,129,4|0,1:0|1:0,0:0:0:0:
496,276,20183,2,0,L|488:200,1,64.5,2|0,0:0|1:0,0:0:0:0:
472,136,20575,2,0,P|420:152|336:140,1,129,2|2,0:0|0:0,0:0:0:0:
292,88,21164,1,0,1:0:0:0:
176,192,21556,6,0,L|172:268,1,64.5,0|2,1:0|0:0,0:0:0:0:
168,332,21948,1,0,1:0:0:0:
172,336,22144,2,0,P|228:348|308:340,2,129,2|2|0,0:0|0:0|0:0,0:0:0:0:
108,292,23124,5,0,1:0:0:0:
180,156,23517,1,0,1:0:0:0:
264,284,23909,1,0,1:0:0:0:
268,288,24105,2,0,L|420:284,2,129,2|2|2,0:0|0:0|0:0,0:0:0:0:
108,292,25281,2,0,P|80:256|84:148,1,129,2|2,0:0|0:0,0:0:0:0:
108,104,25870,5,4,1:0:0:0:
256,60,26262,2,0,L|332:56,2,64.5,2|0|2,1:2|0:0|1:2,0:0:0:0:
108,104,27046,1,0,1:0:0:0:
104,108,27242,2,0,P|88:156|108:244,2,129,2|0|2,0:0|0:0|0:0,0:0:0:0:
176,144,28222,5,0,1:0:0:0:
180,148,28419,2,0,B|240:160|244:128|312:136,1,129,2|2,0:0|0:0,0:0:0:0:
376,172,29007,6,0,P|396:212|380:304,1,129,4|8,1:0|0:0,0:0:0:0:
332,348,29595,2,0,P|276:332|184:332,1,129,4|4,1:0|1:3,0:0:0:0:
132,352,30183,1,10,0:0:0:0:
92,284,30379,2,0,P|80:248|100:144,1,129,4|0,1:0|1:0,0:0:0:0:
152,108,30968,1,8,0:0:0:0:
284,192,31360,5,10,0:0:0:0:
288,196,31556,2,0,L|360:192,1,64.5,14|0,0:0|0:0,0:0:0:0:
392,128,31948,2,0,P|428:176|404:248,1,129,4|0,1:0|1:0,0:0:0:0:
340,268,32536,1,8,0:0:0:0:
248,144,32928,6,0,L|252:76,2,64.5,2|2|8,1:2|0:0|0:0,0:0:0:0:
188,192,33517,2,0,P|132:180|60:180,1,129,4|0,1:0|1:0,0:0:0:0:
0,232,34105,1,8,0:0:0:0:
96,352,34497,6,0,P|128:360|160:352,2,64.5,2|2|8,1:2|0:0|0:0,0:0:0:0:
128,284,35085,2,0,B|132:224|92:224|100:152,1,129,4|0,1:0|1:0,0:0:0:0:
132,92,35673,1,10,0:0:0:0:
136,88,35870,2,0,L|280:92,1,129,2|0,1:2|1:2,0:0:0:0:
308,28,36458,1,10,0:2:0:0:
344,96,36654,6,0,L|340:224,1,129,4|0,1:0|1:0,0:0:0:0:
336,304,37242,2,0,B|268:316|268:292|204:300,2,129,10|10|10,0:0|0:0|0:0,0:0:0:0:
404,268,38222,1,8,0:0:0:0:
340,224,38419,6,0,L|344:96,1,129,4|10,1:0|0:0,0:0:0:0:
292,36,39007,1,0,0:0:0:0:
288,32,39203,2,0,L|196:40,1,64.5,2|2,1:2|1:2,0:0:0:0:
148,48,39595,1,8,0:0:0:0:
108,112,39791,6,0,P|100:168|112:248,1,129,4|2,1:0|1:2,0:0:0:0:
164,292,40379,2,0,P|121:314|48:284,2,129,8|8|14,0:0|0:0|0:0,0:0:0:0:
184,216,41360,1,10,0:0:0:0:
200,140,41556,6,0,L|328:148,1,129,4|4,1:0|1:3,0:0:0:0:
372,84,42144,2,0,P|364:52|364:8,2,64.5,4|0|10,1:3|0:0|0:0,0:0:0:0:
404,156,42732,1,2,0:0:0:0:
432,228,42928,6,0,P|444:276|392:348,1,129,4|0,1:0|1:0,0:0:0:0:
328,340,43517,2,0,L|248:332,1,64.5,0|0,0:0|0:0,0:0:0:0:
192,360,43909,2,0,L|112:352,1,64.5,0|0,0:0|0:0,0:0:0:0:
56,380,44301,1,8,0:0:0:0:
12,232,44693,6,0,P|4:192|16:96,1,129,4|10,1:0|0:0,0:0:0:0:
68,52,45281,2,0,P|112:64|204:60,1,129,2|0,0:0|0:0,0:0:0:0:
256,16,45870,1,8,0:0:0:0:
316,64,46066,6,0,P|328:104|312:200,1,129,2|2,0:0|0:0,0:0:0:0:
256,236,46654,2,0,L|188:232,2,64.5,10|0|2,0:0|0:0|2:0,0:0:0:0:
328,264,47242,1,2,0:0:0:0:
332,268,47438,2,0,L|396:264,1,64.5,8|2,0:0|0:0,0:0:0:0:
456,216,47830,6,0,P|468:180|452:80,1,129,4|10,1:0|0:0,0:0:0:0:
392,48,48419,2,0,P|424:20|460:16,2,64.5,2|0|0,0:0|1:0|0:0,0:0:0:0:
352,116,49007,1,8,0:0:0:0:
220,36,49399,6,0,L|140:40,1,64.5,2|0,1:2|0:0,0:0:0:0:
124,112,49791,2,0,L|204:116,1,64.5,10|0,0:0|0:0,0:0:0:0:
220,188,50183,2,0,L|140:192,1,64.5,2|0,1:2|0:0,0:0:0:0:
80,200,50575,1,10,0:0:0:0:
156,336,50968,6,0,L|236:340,1,64.5,4|0,1:0|0:0,0:0:0:0:
296,344,51360,1,10,0:0:0:0:
300,344,51556,2,0,P|316:300|308:196,1,129,2|2,0:0|0:0,0:0:0:0:
284,148,52144,2,0,L|204:144,1,64.5,10|0,0:0|0:0,0:0:0:0:
156,100,52536,2,0,L|76:104,2,64.5,2|2|8,1:2|0:0|0:0,0:0:0:0:
228,68,53124,2,0,L|356:74,1,129,2|0,0:0|0:0,0:0:0:0:
416,124,53713,6,0,P|432:164|432:208,1,64.5,10|2,0:0|0:0,0:0:0:0:
412,260,54105,1,4,1:0:0:0:
264,220,54497,1,10,0:0:0:0:
300,68,54889,1,2,1:2:0:0:
448,108,55281,1,10,0:0:0:0:
412,260,55673,6,0,P|360:236|280:220,1,129,2|8,1:2|0:0,0:0:0:0:
212,228,56262,1,0,0:0:0:0:
256,292,56458,1,8,0:0:0:0:
316,148,56850,2,0,P|324:116|324:84,1,64.5,4|4,1:3|1:3,0:0:0:0:
276,24,57242,6,0,L|148:36,1,129,4|10,1:0|0:0,0:0:0:0:
84,80,57830,2,0,B|64:144|100:144|80:208,1,129,2|0,0:0|1:0,0:0:0:0:
56,280,58419,1,8,0:0:0:0:
92,348,58615,6,0,P|144:368|224:356,1,129,4|2,1:0|1:2,0:0:0:0:
268,304,59203,1,10,0:0:0:0:
268,148,59595,2,0,L|260:80,2,64.5,2|2|8,1:2|1:2|0:0,0:0:0:0:
304,216,60183,1,2,0:0:0:0:
308,220,60379,6,0,P|356:244|448:220,1,129,4|10,1:0|0:0,0:0:0:0:
476,172,60968,2,0,L|460:44,1,129,2|0,0:0|1:0,0:0:0:0:
392,8,61556,1,0,0:0:0:0:
332,56,61752,6,0,L|196:64,1,129,4|0,1:0|1:0,0:0:0:0:
144,16,62340,2,0,P|124:64|164:128,1,129,0|4,1:0|1:3,0:0:0:0:
312,152,63124,2,0,P|320:188|320:228,1,64.5,12|0,1:2|0:0,0:0:0:0:
300,292,63517,6,0,L|236:288,2,64.5,4|0|0,1:0|0:0|1:0,0:0:0:0:
376,276,64105,2,0,P|396:220|384:136,1,129,8|8,0:0|0:0,0:0:0:0:
356,84,64693,1,0,1:0:0:0:
284,108,64889,2,0,P|280:76|296:36,2,64.5,8|4|8,0:0|1:0|0:0,0:0:0:0:
316,180,65477,5,0,1:0:0:0:
390,151,65673,2,0,P|396:215|376:276,1,129,8|8,0:0|0:0,0:0:0:0:
332,340,66262,2,0,L|268:336,1,64.5,0|8,1:0|0:0,0:0:0:0:
192,344,66654,5,4,1:0:0:0:
156,192,67046,1,0,1:0:0:0:
308,156,67438,1,0,1:0:0:0:
344,308,67830,1,0,1:0:0:0:
192,344,68222,6,0,L|176:280,1,64.5,0|8,1:0|0:0,0:0:0:0:
240,236,68615,2,0,L|256:172,1,64.5,0|8,1:0|0:0,0:0:0:0:
280,100,69007,2,0,L|344:116,1,64.5,0|8,1:0|0:0,0:0:0:0:
404,68,69399,2,0,L|468:52,1,64.5,0|8,1:0|0:0,0:0:0:0:
504,120,69791,6,0,P|512:164|488:248,1,129,4|0,1:0|1:0,0:0:0:0:
436,300,70379,1,2,0:0:0:0:
432,304,70575,2,0,L|296:296,1,129,2|0,1:2|0:0,0:0:0:0:
188,192,71360,6,0,P|180:160|180:128,1,64.5,0|8,1:0|0:0,0:0:0:0:
200,52,71752,1,0,0:0:0:0:
352,32,72144,1,0,1:0:0:0:
472,128,72536,2,0,P|480:160|480:192,1,64.5,0|8,1:0|0:0,0:0:0:0:
460,268,72928,5,0,1:0:0:0:
312,308,73321,2,0,L|236:300,1,64.5,0|8,1:0|0:0,0:0:0:0:
184,344,73713,2,0,L|108:336,1,64.5,0|8,1:0|0:0,0:0:0:0:
56,380,74105,1,0,1:0:0:0:
8,232,74497,6,0,P|0:180|16:92,2,129,2|2|2,0:2|1:2|1:2,0:0:0:0:
119,337,75673,2,0,L|184:344,1,64.5,10|8,0:0|0:0,0:0:0:0:
247,301,76066,2,0,L|375:287,1,129,4|0,1:0|1:0,0:0:0:0:
440,328,76654,1,10,0:0:0:0:
444,332,76850,2,0,P|456:308|408:216,1,129,2|0,1:2|1:0,0:0:0:0:
268,196,77634,6,0,L|140:210,1,129,2|0,1:2|1:0,0:0:0:0:
192,64,78419,2,0,L|320:78,1,129,2|0,1:2|1:0,0:0:0:0:
364,140,79007,1,8,0:0:0:0:
408,204,79203,6,0,P|428:256|396:336,1,129,4|0,1:0|1:0,0:0:0:0:
260,368,79987,2,0,P|200:356|112:360,1,129,2|8,1:2|0:0,0:0:0:0:
40,232,80772,6,0,P|31:192|32:156,2,64.5,14|0|14,0:0|1:0|0:0,0:0:0:0:
192,264,81556,2,0,L|272:256,1,64.5,14|14,0:0|0:0,0:0:0:0:
296,192,81948,2,0,L|376:200,1,64.5,14|14,0:0|0:0,0:0:0:0:
404,264,82340,6,0,P|428:240|424:148,1,129,4|8,1:0|0:0,0:0:0:0:
356,120,82928,2,0,L|227:107,1,129,4|4,1:0|1:3,0:0:0:0:
152,100,83517,1,4,1:0:0:0:
256,192,83713,12,0,91752,0:0:0:0:
