osu file format v14

[General]
AudioFilename: audio.mp3
AudioLeadIn: 0
PreviewTime: 44301
Countdown: 0
SampleSet: Soft
StackLeniency: 0.7
Mode: 0
LetterboxInBreaks: 0
WidescreenStoryboard: 0

[Editor]
Bookmarks: 83517,91752
DistanceSpacing: 0.8
BeatDivisor: 4
GridSize: 4
TimelineZoom: 1

[Metadata]
Title:Pleasure garden
TitleUnicode:Pleasure garden
Artist:Rin'ca
ArtistUnicode:Rin'ca
Creator:Kin
Version:Light Insane
Source:D.S. -Dal Segno-
Tags:ダル・セーニョ Circus yozuca* chokix VN visual novel eroge OP opening
BeatmapID:1536004
BeatmapSetID:727429

[Difficulty]
HPDrainRate:5.8
CircleSize:4
OverallDifficulty:7.4
ApproachRate:8.2
SliderMultiplier:1.6
SliderTickRate:1

[Events]
//Background and Video events
Video,379,"HEEEEEEEEEEEEEEEEEEEEEEEEEEEEY SAAALUUUUUUUT AAAAA TOUUUUUUUUS ICIIIIIIII DAVIIIIIIIID LAFARGE POKEMON.mp4"
0,0,"c pa ochizora.jpg",0,0
//Break Periods
//Storyboard Layer 0 (Background)
//Storyboard Layer 1 (Fail)
//Storyboard Layer 2 (Pass)
//Storyboard Layer 3 (Foreground)
//Storyboard Layer 4 (Overlay)
//Storyboard Sound Samples

[TimingPoints]
772,392.156862745098,4,2,1,65,1,0
10281,-100,4,2,1,5,0,0
10379,-100,4,2,1,65,0,0
11850,-100,4,2,1,5,0,0
11948,-100,4,2,1,65,0,0
12732,-100,4,2,1,70,0,0
12928,-100,4,2,1,75,0,0
13124,-100,4,2,1,80,0,0
13713,-133.333333333333,4,2,1,35,0,0
18026,-100,4,2,1,35,0,0
18222,-100,4,2,1,45,0,0
18419,-100,4,2,1,55,0,0
18615,-100,4,2,1,65,0,0
18811,-100,4,2,1,75,0,0
19203,-100,4,2,1,55,0,0
19399,-100,4,2,1,75,0,0
19595,-100,4,2,1,65,0,0
19693,-100,4,2,1,45,0,0
25870,-100,4,2,1,65,0,0
25968,-100,4,2,1,45,0,0
29301,-100,4,2,1,5,0,0
29399,-100,4,2,1,65,0,0
29595,-100,4,2,1,55,0,0
29889,-100,4,2,1,5,0,0
29889,-100,4,2,1,5,0,0
29987,-100,4,2,1,70,0,0
31850,-100,4,2,1,5,0,0
31948,-100,4,2,1,70,0,0
43321,-100,4,1,0,70,0,0
44203,-100,4,2,1,70,0,0
44693,-100,4,2,1,70,0,1
55673,-100,4,2,1,70,0,0
57242,-100,4,2,1,70,0,1
58909,-100,4,2,1,5,0,1
59007,-100,4,2,1,70,0,1
69791,-100,4,2,1,70,0,0
69889,-100,4,2,1,55,0,0
76066,-100,4,2,1,70,0,0
76164,-100,4,2,1,55,0,0
79203,-100,4,2,1,70,0,0
79301,-100,4,2,1,55,0,0
81556,-100,4,2,1,45,0,0
81752,-100,4,2,1,55,0,0
81948,-100,4,2,1,65,0,0
82144,-100,4,2,1,75,0,0
84693,-100,4,2,1,50,0,0
85477,-100,4,2,1,45,0,0
86262,-100,4,2,1,40,0,0
87046,-100,4,2,1,35,0,0
87830,-100,4,2,1,30,0,0
88615,-100,4,2,1,25,0,0
89399,-100,4,2,1,20,0,0
90183,-100,4,2,1,15,0,0
90968,-100,4,2,1,10,0,0
91752,-100,4,2,1,5,0,0

[Colours]
Combo1 : 255,174,136
Combo2 : 179,228,255
Combo3 : 102,102,255
Combo4 : 255,255,164

[HitObjects]
384,24,379,5,0,0:0:0:0:
376,40,477,1,0,0:0:0:0:
368,56,575,1,2,0:0:0:0:
360,72,673,1,2,0:0:0:0:
352,88,772,6,0,B|328:164|372:164|352:248,1,160,4|2,1:0|1:2,0:0:0:0:
256,352,1360,2,0,L|168:348,1,80,2|0,0:0|1:0,0:0:0:0:
68,252,1752,2,0,L|156:248,1,80,2|0,0:0|1:0,0:0:0:0:
256,152,2144,1,2,0:0:0:0:
256,152,2242,1,0,0:0:0:0:
256,152,2340,6,0,L|168:148,1,80,0|0,1:0|0:0,0:0:0:0:
96,96,2732,2,0,P|84:60|84:16,1,80,2|0,1:2|0:0,0:0:0:0:
176,148,3124,2,0,P|188:184|188:228,1,80,2|0,1:2|0:0,0:0:0:0:
132,304,3517,1,2,1:2:0:0:
32,160,3713,1,2,0:0:0:0:
28,156,3811,1,2,0:0:0:0:
24,152,3909,6,0,P|64:156|116:136,1,80,4|0,1:0|0:0,0:0:0:0:
156,64,4301,1,2,1:2:0:0:
256,168,4497,2,0,L|248:264,1,80,2|0,0:0|1:0,0:0:0:0:
140,340,4889,2,0,L|132:244,1,80,2|0,0:0|1:0,0:0:0:0:
272,152,5281,2,0,P|316:156|352:148,2,80,6|0|2,0:0|0:0|0:0,0:0:0:0:
192,100,5870,2,0,L|92:108,1,80,2|0,1:2|0:0,0:0:0:0:
28,60,6262,2,0,P|16:104|32:160,1,80,2|0,1:2|0:0,0:0:0:0:
40,172,6556,1,0,0:0:0:0:
64,204,6654,2,0,P|76:248|60:304,1,80,8|4,0:0|1:3,0:0:0:0:
224,368,7046,6,0,B|348:376|348:376|300:336,1,160,4|10,1:0|0:0,0:0:0:0:
204,272,7634,1,2,0:0:0:0:
200,276,7732,1,0,1:0:0:0:
196,280,7830,2,0,L|84:288,1,80,0|2,1:0|1:2,0:0:0:0:
208,176,8222,1,8,0:0:0:0:
296,328,8419,6,0,B|324:256|272:248|296:168,1,160,6|2,1:2|1:2,0:0:0:0:
400,72,9007,2,0,L|496:80,1,80,10|0,0:0|1:0,0:0:0:0:
295,171,9399,2,0,L|199:179,1,80,10|0,0:0|1:0,0:0:0:0:
184,180,9693,1,0,1:0:0:0:
152,184,9791,1,10,0:0:0:0:
300,88,9987,6,0,P|360:112|380:200,1,160,4|0,1:0|1:0,0:0:0:0:
264,284,10575,2,0,L|176:276,1,80,10|0,0:0|1:0,0:0:0:0:
380,198,10968,2,0,L|468:190,1,80,10|8,0:0|0:0,0:0:0:0:
264,112,11360,1,10,0:0:0:0:
340,272,11556,6,0,P|332:328|224:352,1,160,4|0,1:0|1:0,0:0:0:0:
172,236,12144,2,0,L|184:136,1,80,10|0,0:0|1:0,0:0:0:0:
36,256,12536,1,10,0:0:0:0:
156,332,12732,1,10,0:0:0:0:
100,200,12928,1,10,0:0:0:0:
52,372,13124,1,14,0:0:0:0:
52,372,13713,5,2,0:0:0:0:
132,352,13909,2,0,L|260:356,1,120.000004577637,2|2,0:0|0:0,0:0:0:0:
316,304,14497,2,0,P|328:272|328:232,1,60.0000022888184,2|0,0:0|0:0,0:0:0:0:
264,192,14889,5,2,0:0:0:0:
136,228,15085,2,0,L|12:224,1,120.000004577637,2|2,0:0|0:0,0:0:0:0:
56,152,15673,2,0,P|64:120|64:88,1,60.0000022888184,2|0,0:0|0:0,0:0:0:0:
12,28,16066,1,2,0:0:0:0:
96,16,16262,1,4,0:0:0:0:
160,132,16458,6,0,P|152:184|112:248,1,120.000004577637,4|2,0:1|0:0,0:0:0:0:
196,208,17046,2,0,P|244:200|272:204,1,60.0000022888184,2|0,0:0|0:0,0:0:0:0:
336,228,17438,1,2,0:0:0:0:
252,336,17634,2,0,P|204:340|176:336,2,60.0000022888184,2|0|2,0:0|0:0|0:0,0:0:0:0:
348,324,18222,5,0,0:0:0:0:
336,228,18419,1,10,0:0:0:0:
440,300,18615,1,8,0:0:0:0:
404,160,18811,1,10,0:0:0:0:
369,139,18909,1,0,0:0:0:0:
330,134,19007,1,8,0:0:0:0:
291,143,19105,1,8,0:0:0:0:
259,166,19203,1,10,1:2:0:0:
336,228,19399,1,10,1:2:0:0:
184,108,19595,6,0,P|96:104|48:156,1,160,4|0,1:0|1:0,0:0:0:0:
24,244,20183,1,2,0:0:0:0:
68,328,20379,1,0,1:0:0:0:
152,372,20575,2,0,L|244:364,1,80,2|0,0:0|1:0,0:0:0:0:
308,244,20968,1,2,0:0:0:0:
308,244,21164,6,0,L|139:229,1,160,0|0,1:0|1:0,0:0:0:0:
64,276,21752,1,2,0:0:0:0:
68,180,21948,1,0,1:0:0:0:
144,316,22144,1,2,0:0:0:0:
148,320,22340,6,0,L|245:328,1,80,0|2,1:0|0:0,0:0:0:0:
312,280,22732,2,0,P|324:244|324:200,1,80,0|0,1:0|0:0,0:0:0:0:
256,132,23124,2,0,P|200:136|80:128,1,160,0|0,1:0|1:0,0:0:0:0:
16,80,23713,1,2,0:0:0:0:
16,80,23909,1,0,1:0:0:0:
120,224,24105,6,0,P|132:256|132:308,1,80,2|0,0:0|1:0,0:0:0:0:
240,160,24497,2,0,P|228:192|228:244,1,80,2|0,0:0|1:0,0:0:0:0:
120,96,24889,2,0,P|80:84|36:80,1,80,2|0,0:0|1:0,0:0:0:0:
216,64,25281,2,0,P|256:52|300:48,1,80,2|0,0:0|1:0,0:0:0:0:
416,128,25673,1,2,0:0:0:0:
420,132,25772,1,2,0:0:0:0:
424,136,25870,6,0,L|416:228,1,80,4|0,1:0|0:0,0:0:0:0:
348,284,26262,1,2,1:2:0:0:
256,316,26458,1,0,0:0:0:0:
164,284,26654,1,2,1:2:0:0:
94,215,26850,1,0,0:0:0:0:
72,308,27046,1,0,1:0:0:0:
188,192,27242,1,2,0:0:0:0:
192,188,27438,6,0,P|204:152|196:32,1,160,0|0,1:0|1:0,0:0:0:0:
116,84,28026,1,2,0:0:0:0:
116,84,28222,1,0,1:0:0:0:
210,111,28419,2,0,L|314:99,1,80,2|0,0:0|1:0,0:0:0:0:
352,28,28811,1,2,0:0:0:0:
472,156,29007,6,0,B|488:232|420:228|456:316,1,160,4|8,1:0|0:0,0:0:0:0:
376,172,29595,2,0,P|320:152|252:176,1,120,4|0,1:0|0:0,0:0:0:0:
244,192,29987,1,4,1:3:0:0:
316,256,30183,1,10,0:0:0:0:
432,104,30379,6,0,B|456:72|456:72|488:92|492:148|472:196,1,160,4|0,1:0|1:0,0:0:0:0:
316,256,30968,1,8,0:0:0:0:
412,256,31164,1,0,0:0:0:0:
416,260,31262,1,8,0:0:0:0:
420,264,31360,1,10,0:0:0:0:
268,176,31556,2,0,B|176:192|176:192|204:212,1,120,14|0,0:0|0:0,0:0:0:0:
316,256,31948,6,0,P|304:200|328:84,1,160,4|0,1:0|1:0,0:0:0:0:
452,44,32536,1,8,0:0:0:0:
360,12,32732,1,0,0:0:0:0:
360,12,32830,1,8,0:0:0:0:
360,12,32928,2,0,P|320:20|272:24,1,80,2|2,1:2|0:0,0:0:0:0:
136,12,33321,1,8,0:0:0:0:
284,108,33517,6,0,P|304:144|304:192,1,80,4|0,1:0|0:0,0:0:0:0:
212,168,33909,1,0,1:0:0:0:
348,56,34105,2,0,L|432:64,1,80,8|0,0:0|0:0,0:0:0:0:
512,16,34497,1,2,1:2:0:0:
512,16,34693,1,2,0:0:0:0:
468,188,34889,1,8,0:0:0:0:
348,56,35085,6,0,L|188:40,1,160,4|0,1:0|1:0,0:0:0:0:
52,88,35673,1,10,0:0:0:0:
164,180,35870,2,0,P|176:228|168:272,1,80,2|0,1:2|0:0,0:0:0:0:
80,228,36262,1,0,1:2:0:0:
232,140,36458,1,10,0:2:0:0:
232,316,36654,6,0,P|276:344|364:280,1,160,4|0,1:0|1:0,0:0:0:0:
340,152,37242,2,0,L|328:44,1,80,10|0,0:0|1:0,0:0:0:0:
448,208,37634,2,0,L|436:316,1,80,10|0,0:0|0:0,0:0:0:0:
418,321,37928,1,8,0:0:0:0:
397,355,38026,1,10,0:0:0:0:
304,244,38222,1,8,0:0:0:0:
172,364,38419,6,0,P|112:372|12:364,1,160,4|10,1:0|0:0,0:0:0:0:
60,280,39007,1,0,0:0:0:0:
16,196,39203,1,2,1:2:0:0:
152,248,39399,2,0,P|192:256|240:252,1,80,2|8,1:2|0:0,0:0:0:0:
356,128,39791,6,0,B|372:112|376:88|376:88|400:116|400:160|376:200,1,160,4|2,1:0|1:2,0:0:0:0:
296,76,40379,2,0,L|192:84,1,80,8|2,0:0|1:2,0:0:0:0:
68,176,40772,2,0,L|172:184,1,80,8|0,0:0|0:0,0:0:0:0:
180,204,41066,1,8,0:0:0:0:
212,224,41164,2,0,L|316:216,1,80,14|10,0:0|0:0,0:0:0:0:
400,100,41556,6,0,B|384:144|392:180|408:172|416:208|401:256,1,160,4|4,1:0|1:3,0:0:0:0:
212,224,42144,2,0,L|316:216,1,80,4|4,1:3|1:3,0:0:0:0:
308,244,42438,1,8,0:0:0:0:
324,272,42536,1,10,0:0:0:0:
244,132,42732,1,2,0:0:0:0:
176,328,42928,6,0,P|104:352|24:280,1,160,4|0,1:0|1:0,0:0:0:0:
108,128,43517,1,0,0:0:0:0:
180,188,43713,1,0,0:0:0:0:
116,256,43909,1,0,0:0:0:0:
44,192,44105,1,0,0:0:0:0:
40,188,44203,1,2,0:0:0:0:
36,184,44301,1,8,0:0:0:0:
260,188,44497,2,0,L|304:184,2,26.6666666666667,2|2|2,0:0|0:0|0:0,0:0:0:0:
280,204,44693,6,0,P|368:204|464:188,1,160,4|10,1:0|0:0,0:0:0:0:
508,128,45281,1,2,0:0:0:0:
408,24,45477,2,0,L|320:32,1,80,0|0,1:0|0:0,0:0:0:0:
232,12,45870,1,8,0:0:0:0:
348,144,46066,6,0,P|360:196|348:232,1,80,2|0,0:0|1:0,0:0:0:0:
255,371,46458,1,2,0:0:0:0:
244,189,46654,1,10,0:0:0:0:
362,333,46850,1,0,0:0:0:0:
184,284,47046,1,2,2:0:0:0:
353,220,47242,1,2,0:0:0:0:
255,371,47438,1,8,0:0:0:0:
147,192,47634,1,2,0:0:0:0:
353,220,47830,6,0,B|380:232|436:232|471:214|471:214|432:192,1,160,4|10,1:0|0:0,0:0:0:0:
276,120,48419,1,2,0:0:0:0:
276,120,48615,2,0,P|248:156|244:208,1,80,0|0,1:0|0:0,0:0:0:0:
272,280,49007,1,8,0:0:0:0:
276,284,49203,1,0,0:0:0:0:
372,136,49399,6,0,B|356:44,1,80,2|0,1:2|0:0,0:0:0:0:
456,204,49791,2,0,B|472:112,1,80,10|0,0:0|0:0,0:0:0:0:
274,146,50183,2,0,B|258:54,1,80,2|0,1:2|0:0,0:0:0:0:
358,214,50575,2,0,B|374:122,1,80,10|0,0:0|0:0,0:0:0:0:
380,96,50870,1,0,0:0:0:0:
388,56,50968,6,0,P|428:64|472:56,1,80,4|2,1:0|0:0,0:0:0:0:
300,0,51360,1,10,0:0:0:0:
256,84,51556,2,0,L|260:184,1,80,2|0,0:0|1:0,0:0:0:0:
176,280,51948,1,2,0:0:0:0:
116,148,52144,1,10,0:0:0:0:
259,163,52340,1,0,0:0:0:0:
100,236,52536,6,0,P|52:244|12:236,1,80,2|2,1:2|0:0,0:0:0:0:
116,148,52928,1,8,0:0:0:0:
176,280,53124,2,0,P|224:288|264:280,2,80,2|0|0,0:0|1:0|0:0,0:0:0:0:
259,163,53713,1,10,0:0:0:0:
332,224,53909,1,2,0:0:0:0:
116,148,54105,6,0,L|20:156,1,80,4|0,1:0|0:0,0:0:0:0:
176,280,54497,2,0,L|272:288,1,80,10|0,0:0|0:0,0:0:0:0:
76,248,54889,2,0,L|84:344,1,80,2|0,1:2|0:0,0:0:0:0:
208,188,55281,2,0,L|216:92,1,80,10|0,0:0|0:0,0:0:0:0:
76,248,55673,6,0,P|104:292|212:268,1,160,2|8,1:2|0:0,0:0:0:0:
208,188,56262,1,0,0:0:0:0:
211,148,56360,1,0,0:0:0:0:
214,108,56458,1,8,0:0:0:0:
340,32,56654,1,8,0:0:0:0:
343,71,56752,1,8,0:0:0:0:
346,111,56850,1,4,1:3:0:0:
349,150,56948,1,8,1:3:0:0:
352,190,57046,1,4,1:3:0:0:
201,283,57242,6,0,P|128:300|32:260,1,160,4|10,1:0|0:0,0:0:0:0:
136,156,57830,1,2,0:0:0:0:
140,152,57928,1,8,0:0:0:0:
144,148,58026,2,0,L|136:64,1,80,8|0,0:0|1:0,0:0:0:0:
40,80,58419,1,8,0:0:0:0:
244,48,58615,6,0,P|312:72|348:160,1,160,4|2,1:0|1:2,0:0:0:0:
304,316,59203,1,10,0:0:0:0:
240,152,59399,1,0,0:0:0:0:
384,244,59595,1,2,1:2:0:0:
212,256,59791,1,2,1:2:0:0:
348,147,59987,1,8,0:0:0:0:
400,348,60183,1,2,0:0:0:0:
212,256,60379,6,0,B|180:244|128:244|92:256|92:256|136:276,1,160,4|10,1:0|0:0,0:0:0:0:
276,328,60968,1,2,0:0:0:0:
292,332,61066,1,8,0:0:0:0:
308,336,61164,2,0,L|400:324,1,80,8|0,0:0|1:0,0:0:0:0:
476,360,61556,1,8,0:0:0:0:
344,200,61752,6,0,P|328:164|328:124,2,80,4|0|0,1:0|0:0|0:0,0:0:0:0:
484,236,62340,1,8,0:0:0:0:
400,280,62536,1,8,1:3:0:0:
396,284,62634,1,0,0:0:0:0:
392,288,62732,2,0,L|308:284,1,80,4|4,1:3|1:3,0:0:0:0:
196,192,63124,2,0,L|275:188,1,80,12|0,1:2|0:0,0:0:0:0:
104,232,63517,6,0,B|88:188|96:152|112:160|120:124|105:76,1,160,4|0,1:0|1:0,0:0:0:0:
232,52,64105,1,8,0:0:0:0:
264,48,64203,1,8,0:0:0:0:
296,44,64301,2,0,L|380:52,1,80,0|8,1:0|0:0,0:0:0:0:
488,144,64693,2,0,L|404:152,1,80,0|8,1:0|0:0,0:0:0:0:
384,172,64987,1,8,0:0:0:0:
360,192,65085,6,0,L|280:184,1,80,4|8,1:0|0:0,0:0:0:0:
164,100,65477,1,0,1:0:0:0:
192,192,65673,1,8,0:0:0:0:
276,76,65870,2,0,L|355:68,1,80,0|8,1:0|0:0,0:0:0:0:
388,64,66164,1,8,0:0:0:0:
419,60,66262,1,0,1:0:0:0:
456,184,66458,1,8,0:0:0:0:
464,216,66556,1,8,0:0:0:0:
472,248,66654,6,0,L|460:328,1,80,4|8,1:0|0:0,0:0:0:0:
364,164,67046,2,0,L|352:84,1,80,0|8,1:0|0:0,0:0:0:0:
256,248,67438,2,0,L|244:328,1,80,0|8,1:0|0:0,0:0:0:0:
148,164,67830,2,0,L|136:84,1,80,0|8,1:0|0:0,0:0:0:0:
40,248,68222,6,0,L|28:328,1,80,0|8,1:0|0:0,0:0:0:0:
148,164,68615,2,0,P|188:156|236:160,1,80,0|8,1:0|0:0,0:0:0:0:
336,316,69007,2,0,P|296:324|248:320,1,80,0|8,1:0|0:0,0:0:0:0:
360,160,69399,2,0,P|399:157|438:165,1,80,0|8,1:0|0:0,0:0:0:0:
257,321,69791,6,0,B|140:304|140:304|192:276,1,160,4|0,1:0|1:0,0:0:0:0:
312,216,70379,1,2,0:0:0:0:
312,216,70575,2,0,B|388:200|388:244|476:216,1,160,2|0,1:2|0:0,0:0:0:0:
424,132,71164,1,8,0:0:0:0:
468,48,71360,6,0,L|380:40,1,80,0|8,1:0|0:0,0:0:0:0:
356,40,71654,1,8,0:0:0:0:
324,40,71752,2,0,L|236:48,1,80,0|8,0:0|0:0,0:0:0:0:
128,104,72144,1,0,1:0:0:0:
144,132,72242,1,0,0:0:0:0:
152,164,72340,1,8,0:0:0:0:
144,196,72438,1,8,0:0:0:0:
128,220,72536,1,0,1:0:0:0:
236,316,72732,1,8,0:0:0:0:
264,348,72830,1,8,0:0:0:0:
292,376,72928,6,0,P|328:384|372:376,1,80,0|8,1:0|0:0,0:0:0:0:
480,280,73321,2,0,L|468:192,1,80,0|8,1:0|0:0,0:0:0:0:
448,176,73615,1,8,0:0:0:0:
432,148,73713,2,0,L|444:60,1,80,0|8,1:0|0:0,0:0:0:0:
368,8,74105,1,0,1:0:0:0:
256,100,74301,1,8,0:0:0:0:
252,104,74399,1,8,0:0:0:0:
248,108,74497,6,0,P|208:112|156:108,1,80,2|8,0:2|0:0,0:0:0:0:
336,208,74889,2,0,P|296:204|244:208,1,80,2|8,1:2|0:0,0:0:0:0:
424,108,75281,2,0,P|384:112|332:108,1,80,2|8,1:2|0:0,0:0:0:0:
512,208,75673,2,0,P|472:204|420:208,1,80,10|8,0:0|0:0,0:0:0:0:
408,240,75968,1,8,0:0:0:0:
384,272,76066,6,0,B|304:296|304:248|228:268,1,160,4|0,1:0|1:0,0:0:0:0:
264,356,76654,1,10,0:0:0:0:
352,184,76850,2,0,P|368:104|336:20,1,160,2|0,1:2|1:0,0:0:0:0:
216,96,77438,1,4,3:0:0:0:
212,100,77536,1,0,0:0:0:0:
208,104,77634,6,0,L|108:96,1,80,2|8,1:2|0:0,0:0:0:0:
36,208,78026,2,0,L|136:200,1,80,0|8,1:0|0:0,0:0:0:0:
224,300,78419,1,2,1:2:0:0:
252,314,78517,1,4,0:3:0:0:
283,319,78615,1,8,0:0:0:0:
315,315,78713,1,8,0:0:0:0:
344,302,78811,2,0,L|336:212,1,80,0|8,1:0|0:0,0:0:0:0:
256,32,79203,6,0,L|247:122,1,80,4|8,1:0|0:0,0:0:0:0:
244,144,79497,1,8,0:0:0:0:
240,176,79595,2,0,P|200:188|144:176,1,80,0|8,1:0|0:0,0:0:0:0:
40,108,79987,1,2,1:2:0:0:
36,139,80085,1,0,0:0:0:0:
33,171,80183,1,8,0:0:0:0:
30,203,80281,1,0,0:0:0:0:
27,235,80379,1,8,0:0:0:0:
162,183,80575,1,0,1:0:0:0:
140,328,80772,6,0,L|224:320,1,80,14|0,0:0|1:0,0:0:0:0:
248,336,81066,1,4,0:3:0:0:
272,356,81164,1,14,0:0:0:0:
336,192,81360,1,0,1:0:0:0:
344,160,81458,1,4,0:3:0:0:
352,128,81556,1,14,0:0:0:0:
224,248,81752,1,14,0:0:0:0:
392,300,81948,1,14,0:0:0:0:
352,128,82144,1,14,0:0:0:0:
288,328,82340,6,0,P|260:344|204:348,1,80,4|0,1:0|0:0,0:0:0:0:
128,324,82634,1,8,0:0:0:0:
104,304,82732,1,8,0:0:0:0:
192,152,82928,2,0,B|208:116|208:116|240:144|240:188|220:228,1,160,4|4,1:0|1:3,0:0:0:0:
44,244,83517,1,4,1:0:0:0:
256,192,83615,12,0,91752,0:0:0:0:
