osu file format v14

[General]
AudioFilename: audio.mp3
AudioLeadIn: 0
PreviewTime: 44301
Countdown: 0
SampleSet: Soft
StackLeniency: 0.7
Mode: 0
LetterboxInBreaks: 0
WidescreenStoryboard: 0

[Editor]
Bookmarks: 83517,91752
DistanceSpacing: 1.2
BeatDivisor: 4
GridSize: 4
TimelineZoom: 1

[Metadata]
Title:Pleasure garden
TitleUnicode:Pleasure garden
Artist:Rin'ca
ArtistUnicode:Rin'ca
Creator:Kin
Version:Insane
Source:D.S. -Dal Segno-
Tags:ダル・セーニョ Circus yozuca* chokix VN visual novel eroge OP opening
BeatmapID:1535779
BeatmapSetID:727429

[Difficulty]
HPDrainRate:6
CircleSize:4.2
OverallDifficulty:8.2
ApproachRate:9
SliderMultiplier:1.8
SliderTickRate:1

[Events]
//Background and Video events
Video,379,"HEEEEEEEEEEEEEEEEEEEEEEEEEEEEY SAAALUUUUUUUT AAAAA TOUUUUUUUUS ICIIIIIIII DAVIIIIIIIID LAFARGE POKEMON.mp4"
0,0,"oui.jpg",0,0
//Break Periods
//Storyboard Layer 0 (Background)
//Storyboard Layer 1 (Fail)
//Storyboard Layer 2 (Pass)
//Storyboard Layer 3 (Foreground)
//Storyboard Layer 4 (Overlay)
//Storyboard Sound Samples

[TimingPoints]
772,392.156862745098,4,2,1,65,1,0
10281,-100,4,2,1,5,0,0
10379,-100,4,2,1,65,0,0
11850,-100,4,2,1,5,0,0
11948,-100,4,2,1,65,0,0
12732,-100,4,2,1,70,0,0
12928,-100,4,2,1,75,0,0
13124,-100,4,2,1,80,0,0
13713,-133.333333333333,4,2,1,35,0,0
18026,-100,4,2,1,35,0,0
18222,-100,4,2,1,45,0,0
18419,-100,4,2,1,55,0,0
18615,-100,4,2,1,65,0,0
18811,-100,4,2,1,75,0,0
19203,-100,4,2,1,55,0,0
19399,-100,4,2,1,75,0,0
19595,-100,4,2,1,65,0,0
19693,-100,4,2,1,45,0,0
25870,-100,4,2,1,65,0,0
25968,-100,4,2,1,45,0,0
29301,-100,4,2,1,5,0,0
29399,-100,4,2,1,65,0,0
29595,-100,4,2,1,55,0,0
29889,-100,4,2,1,5,0,0
29987,-100,4,2,1,70,0,0
31850,-100,4,2,1,5,0,0
31948,-100,4,2,1,70,0,0
43222,-100,4,2,1,70,0,0
43321,-100,4,1,0,70,0,0
44203,-100,4,2,1,70,0,0
44693,-83.3333333333333,4,2,1,70,0,1
55673,-83.3333333333333,4,2,1,70,0,0
57242,-83.3333333333333,4,2,1,70,0,1
58909,-83.3333333333333,4,2,1,5,0,1
59007,-83.3333333333333,4,2,1,70,0,1
69791,-100,4,2,1,70,0,0
69889,-100,4,2,1,55,0,0
76066,-100,4,2,1,70,0,0
76164,-100,4,2,1,55,0,0
79203,-100,4,2,1,70,0,0
79301,-100,4,2,1,55,0,0
81556,-100,4,2,1,45,0,0
81752,-100,4,2,1,55,0,0
81948,-100,4,2,1,65,0,0
82144,-100,4,2,1,75,0,0
83909,-100,4,2,1,55,0,0
84693,-100,4,2,1,50,0,0
85477,-100,4,2,1,45,0,0
86262,-100,4,2,1,40,0,0
87046,-100,4,2,1,35,0,0
87830,-100,4,2,1,30,0,0
88615,-100,4,2,1,25,0,0
89399,-100,4,2,1,20,0,0
90183,-100,4,2,1,15,0,0
90968,-100,4,2,1,10,0,0
91752,-100,4,2,1,5,0,0

[Colours]
Combo1 : 255,45,45
Combo2 : 151,219,255
Combo3 : 255,255,147
Combo4 : 255,164,119

[HitObjects]
180,88,379,5,0,0:0:0:0:
206,111,477,1,0,0:0:0:0:
240,123,575,1,2,0:0:0:0:
276,121,673,1,2,0:0:0:0:
308,106,772,6,0,L|415:111,1,90,4|0,1:0|0:0,0:0:0:0:
256,24,1164,1,2,1:2:0:0:
176,204,1360,2,0,P|132:216|88:212,1,90,2|0,0:0|1:0,0:0:0:0:
264,340,1752,2,0,P|308:352|352:348,1,90,2|0,0:0|1:0,0:0:0:0:
472,240,2144,1,2,0:0:0:0:
472,240,2242,1,0,0:0:0:0:
472,240,2340,6,0,L|464:144,1,90,0|0,1:0|0:0,0:0:0:0:
272,16,2732,2,0,L|264:112,1,90,2|0,1:2|0:0,0:0:0:0:
72,240,3124,2,0,L|64:144,1,90,2|0,1:2|0:0,0:0:0:0:
255,284,3517,1,2,1:2:0:0:
116,320,3713,1,2,0:0:0:0:
80,327,3811,1,2,0:0:0:0:
45,335,3909,6,0,L|37:239,1,90,4|0,1:0|0:0,0:0:0:0:
184,304,4301,1,2,1:2:0:0:
92,88,4497,2,0,L|84:177,1,90,2|0,0:0|1:0,0:0:0:0:
256,20,4889,2,0,L|263:109,1,90,2|0,0:0|1:0,0:0:0:0:
12,76,5281,1,6,0:0:0:0:
92,88,5673,5,2,0:0:0:0:
28,220,5870,1,2,1:2:0:0:
12,76,6066,1,0,0:0:0:0:
108,232,6262,2,0,P|140:248|200:248,1,90,2|0,1:2|0:0,0:0:0:0:
228,236,6556,1,0,0:0:0:0:
272,168,6654,2,0,L|268:108,1,45,8|0,0:0|0:0,0:0:0:0:
340,316,6850,2,0,L|336:376,1,45,4|0,1:3|0:0,0:0:0:0:
193,249,7046,6,0,P|148:250|108:232,1,90,4|0,1:0|0:0,0:0:0:0:
360,212,7438,1,10,0:0:0:0:
116,140,7634,1,2,0:0:0:0:
80,128,7732,1,0,1:0:0:0:
44,120,7830,1,0,1:0:0:0:
272,68,8026,1,2,1:2:0:0:
192,308,8222,1,8,0:0:0:0:
180,16,8419,1,6,1:2:0:0:
272,68,8811,5,2,1:2:0:0:
20,40,9007,1,10,0:0:0:0:
320,164,9203,1,0,1:0:0:0:
68,136,9399,1,10,0:0:0:0:
272,68,9595,1,0,1:0:0:0:
304,56,9693,1,0,1:0:0:0:
336,44,9791,1,10,0:0:0:0:
180,328,9987,6,0,B|168:292|176:256|184:264|192:228|180:192,1,135,4|0,1:0|0:0,0:0:0:0:
168,160,10379,1,0,1:0:0:0:
336,324,10575,1,10,0:0:0:0:
152,124,10772,1,0,1:0:0:0:
379,182,10968,1,10,0:0:0:0:
120,100,11164,1,8,0:0:0:0:
345,37,11360,1,10,0:0:0:0:
180,328,11556,6,0,B|168:292|176:256|184:264|192:228|180:192,1,135,4|0,1:0|0:0,0:0:0:0:
168,160,11948,1,0,1:0:0:0:
393,97,12144,1,10,0:0:0:0:
152,124,12340,1,0,1:0:0:0:
379,182,12536,1,10,0:0:0:0:
120,100,12732,1,10,0:0:0:0:
180,364,12928,1,10,0:0:0:0:
379,182,13124,1,14,0:0:0:0:
379,182,13713,5,2,0:0:0:0:
304,208,13909,2,0,L|168:200,1,135.000005149842,2|2,0:0|0:0,0:0:0:0:
96,168,14497,2,0,P|88:136|96:100,1,67.5000025749208,2|0,0:0|0:0,0:0:0:0:
169,200,14889,5,2,0:0:0:0:
36,264,15085,2,0,P|28:292|32:332,1,67.5000025749208,2|0,0:0|0:0,0:0:0:0:
84,192,15477,1,2,0:0:0:0:
168,316,15673,2,0,P|204:324|244:316,1,67.5000025749208,2|0,0:0|0:0,0:0:0:0:
372,260,16066,1,2,0:0:0:0:
388,340,16262,1,4,0:0:0:0:
304,216,16458,6,0,P|299:182|304:148,1,67.5000025749208,4|0,0:1|0:0,0:0:0:0:
344,80,16850,1,2,0:0:0:0:
444,188,17046,2,0,P|448:221|444:256,1,67.5000025749208,2|0,0:0|0:0,0:0:0:0:
376,300,17438,1,2,0:0:0:0:
400,128,17634,2,0,P|428:116|468:120,1,67.5000025749208,2|0,0:0|0:0,0:0:0:0:
368,200,18026,1,2,0:0:0:0:
336,80,18222,5,0,0:0:0:0:
284,236,18419,1,10,0:0:0:0:
248,40,18615,1,8,0:0:0:0:
196,268,18811,1,10,0:0:0:0:
160,72,19007,1,8,0:0:0:0:
139,43,19105,1,8,0:0:0:0:
108,25,19203,1,10,1:2:0:0:
72,21,19301,1,8,0:0:0:0:
38,33,19399,1,10,1:2:0:0:
256,164,19595,6,0,P|352:172|444:164,1,180,4|0,1:0|1:0,0:0:0:0:
383,70,20183,1,2,0:0:0:0:
346,172,20379,1,0,1:0:0:0:
284,24,20575,2,0,P|240:16|196:20,1,90,2|0,0:0|1:0,0:0:0:0:
346,172,20968,6,0,P|389:171|436:165,2,90,2|0|0,0:0|1:0|0:0,0:0:0:0:
256,112,21556,1,0,1:0:0:0:
300,268,21752,1,2,0:0:0:0:
348,76,21948,1,0,1:0:0:0:
212,220,22144,2,0,P|176:228|116:224,1,90,2|0,0:0|1:0,0:0:0:0:
348,76,22536,6,0,P|384:68|444:72,2,90,2|0|0,0:0|1:0|0:0,0:0:0:0:
256,132,23124,2,0,B|240:164|240:200|252:224|260:216|272:240|272:276|256:308,1,180,0|0,1:0|1:0,0:0:0:0:
156,268,23713,1,2,0:0:0:0:
176,372,23909,1,0,1:0:0:0:
356,172,24105,6,0,P|364:112|352:80,1,90,2|0,0:0|1:0,0:0:0:0:
284,252,24497,2,0,P|331:288|365:294,1,90,2|0,0:0|1:0,0:0:0:0:
175,193,24889,2,0,P|207:162|249:149,1,90,2|0,0:0|1:0,0:0:0:0:
66,252,25281,2,0,P|98:283|140:296,1,90,2|0,0:0|1:0,0:0:0:0:
332,176,25673,1,2,0:0:0:0:
348,164,25772,1,2,0:0:0:0:
364,152,25870,6,0,L|360:56,1,90,4|0,1:0|0:0,0:0:0:0:
204,20,26262,1,2,1:2:0:0:
244,176,26458,1,0,0:0:0:0:
296,4,26654,1,2,1:2:0:0:
164,128,26850,1,0,0:0:0:0:
360,62,27046,1,0,1:0:0:0:
124,56,27242,1,2,0:0:0:0:
124,56,27438,6,0,P|84:112|136:204,1,180,0|0,1:0|1:0,0:0:0:0:
268,164,28026,1,2,0:0:0:0:
130,201,28222,1,0,1:0:0:0:
340,140,28419,2,0,P|380:152|444:148,1,90,2|0,0:0|1:0,0:0:0:0:
508,80,28811,1,2,0:0:0:0:
188,24,29007,6,0,B|172:56|184:88|184:88|176:96|176:96|188:124|184:156,1,135,4|0,1:0|0:0,0:0:0:0:
152,228,29399,1,8,0:0:0:0:
364,64,29595,2,0,B|256:56|256:56|280:80,1,135,4|0,1:0|0:0,0:0:0:0:
328,136,29987,1,4,1:3:0:0:
104,68,30183,1,10,0:0:0:0:
392,72,30379,6,0,P|420:128|360:220,1,180,4|0,1:0|1:0,0:0:0:0:
168,184,30968,1,8,0:0:0:0:
328,108,31164,1,0,0:0:0:0:
360,92,31262,1,8,0:0:0:0:
392,72,31360,1,10,0:0:0:0:
104,112,31556,2,0,B|4:124|4:124|32:88,1,135,14|0,0:0|0:0,0:0:0:0:
184,68,31948,6,0,B|200:100|200:136|188:160|180:152|168:176|168:212|184:244,1,180,4|0,1:0|1:0,0:0:0:0:
340,288,32536,1,8,0:0:0:0:
240,332,32732,1,0,0:0:0:0:
240,332,32830,1,8,0:0:0:0:
240,332,32928,1,2,1:2:0:0:
256,224,33124,1,2,0:0:0:0:
316,376,33321,1,8,0:0:0:0:
392,96,33517,6,0,B|404:48|404:48|440:76|440:136|424:188,1,180,4|0,1:0|1:0,0:0:0:0:
256,224,34105,1,8,0:0:0:0:
360,248,34301,1,0,0:0:0:0:
364,252,34399,1,8,0:0:0:0:
368,256,34497,1,2,1:2:0:0:
332,144,34693,1,2,0:0:0:0:
292,300,34889,1,8,0:0:0:0:
192,32,35085,6,0,P|144:16|136:112,1,180,4|0,1:0|1:0,0:0:0:0:
304,48,35673,1,10,0:0:0:0:
288,264,35870,2,0,P|284:312|300:364,1,90,2|0,1:2|0:0,0:0:0:0:
368,208,36262,1,0,1:2:0:0:
150,239,36458,1,10,0:2:0:0:
424,280,36654,6,0,P|460:216|408:128,1,180,4|0,1:0|1:0,0:0:0:0:
164,184,37242,1,10,0:0:0:0:
372,44,37438,1,0,1:0:0:0:
233,256,37634,1,10,0:0:0:0:
276,44,37830,1,0,0:0:0:0:
280,28,37928,1,8,0:0:0:0:
282,10,38026,1,10,0:0:0:0:
316,168,38222,1,8,0:0:0:0:
52,100,38419,6,0,P|32:140|32:184,1,90,4|0,1:0|0:0,0:0:0:0:
188,144,38811,1,10,0:0:0:0:
128,236,39007,1,0,0:0:0:0:
124,240,39105,1,8,0:0:0:0:
120,244,39203,1,2,1:2:0:0:
52,100,39399,1,2,1:2:0:0:
24,296,39595,1,8,0:0:0:0:
152,56,39791,6,0,L|248:64,1,90,4|0,1:0|0:0,0:0:0:0:
340,16,40183,1,2,1:2:0:0:
244,228,40379,1,8,0:0:0:0:
241,63,40575,1,2,1:2:0:0:
340,276,40772,1,8,0:0:0:0:
392,124,40968,1,0,0:0:0:0:
400,88,41066,1,8,0:0:0:0:
408,52,41164,1,14,0:0:0:0:
232,144,41360,1,10,0:0:0:0:
476,208,41556,6,0,P|488:248|476:296,1,90,4|4,1:0|1:3,0:0:0:0:
364,180,41948,1,4,1:3:0:0:
440,104,42144,1,4,1:3:0:0:
392,296,42340,1,4,1:3:0:0:
384,332,42438,1,8,0:0:0:0:
376,368,42536,1,10,0:0:0:0:
256,260,42732,1,2,0:0:0:0:
508,232,42928,6,0,B|516:196|508:172|508:172|516:164|516:164|500:136|504:96,1,135,4|0,1:0|0:0,0:0:0:0:
508,68,43321,1,0,1:0:0:0:
220,56,43517,1,0,0:0:0:0:
424,204,43713,1,0,0:0:0:0:
320,16,43909,1,0,0:0:0:0:
352,284,44105,1,0,0:0:0:0:
356,320,44203,1,2,0:0:0:0:
360,356,44301,1,8,0:0:0:0:
168,192,44497,5,2,0:0:0:0:
164,188,44562,1,2,0:0:0:0:
160,184,44628,1,2,0:0:0:0:
156,180,44693,6,0,P|196:184|280:172,1,107.999996704102,4|0,1:0|0:0,0:0:0:0:
420,28,45085,1,10,0:0:0:0:
444,156,45281,1,2,0:0:0:0:
292,36,45477,2,0,L|168:44,1,107.999996704102,0|0,1:0|0:0,0:0:0:0:
444,156,45870,1,8,0:0:0:0:
252,124,46066,6,0,L|128:132,2,107.999996704102,2|0|0,0:0|1:0|0:0,0:0:0:0:
208,244,46654,1,10,0:0:0:0:
192,52,46850,1,0,0:0:0:0:
88,264,47046,1,2,2:0:0:0:
324,248,47242,1,2,0:0:0:0:
84,128,47438,1,8,0:0:0:0:
215,324,47634,1,2,0:0:0:0:
319,112,47830,6,0,P|332:64|320:8,1,107.999996704102,4|0,1:0|0:0,0:0:0:0:
216,172,48222,1,10,0:0:0:0:
332,228,48419,1,2,0:0:0:0:
252,48,48615,2,0,L|124:56,1,107.999996704102,0|0,1:0|0:0,0:0:0:0:
352,116,49007,2,0,L|480:124,1,107.999996704102,8|0,0:0|0:0,0:0:0:0:
168,208,49399,6,0,P|140:252|132:316,1,107.999996704102,2|0,1:2|0:0,0:0:0:0:
344,208,49791,2,0,P|372:252|380:316,1,107.999996704102,10|0,0:0|0:0,0:0:0:0:
156,112,50183,2,0,B|108:112|72:132|72:132|92:140,1,107.999996704102,2|0,1:2|0:0,0:0:0:0:
356,112,50575,2,0,B|404:112|440:132|440:132|420:140,1,107.999996704102,10|0,0:0|0:0,0:0:0:0:
168,208,50968,5,4,1:0:0:0:
228,92,51164,1,2,0:0:0:0:
276,280,51360,1,10,0:0:0:0:
416,144,51556,2,0,P|352:148|288:128,1,107.999996704102,2|0,0:0|1:0,0:0:0:0:
492,76,51948,1,2,0:0:0:0:
492,76,52144,1,10,0:0:0:0:
500,204,52340,1,0,0:0:0:0:
336,96,52536,5,2,1:2:0:0:
324,292,52732,1,2,0:0:0:0:
500,204,52928,1,8,0:0:0:0:
240,188,53124,2,0,L|132:196,1,107.999996704102,2|0,0:0|1:0,0:0:0:0:
12,148,53517,1,0,0:0:0:0:
120,76,53713,1,10,0:0:0:0:
44,256,53909,1,2,0:0:0:0:
208,20,54105,6,0,L|316:12,1,107.999996704102,4|0,1:0|0:0,0:0:0:0:
512,148,54497,2,0,L|404:140,1,107.999996704102,10|0,0:0|0:0,0:0:0:0:
208,276,54889,2,0,L|316:268,1,107.999996704102,2|0,1:2|0:0,0:0:0:0:
92,184,55281,6,0,P|72:148|68:76,1,107.999996704102,10|0,0:0|0:0,0:0:0:0:
208,276,55673,2,0,P|216:332|200:400,1,107.999996704102,2|0,1:2|0:0,0:0:0:0:
112,212,56066,1,8,0:0:0:0:
344,256,56262,1,0,0:0:0:0:
388,264,56360,1,0,0:0:0:0:
432,272,56458,1,8,0:0:0:0:
228,80,56654,1,8,0:0:0:0:
184,88,56752,1,8,0:0:0:0:
140,96,56850,1,4,1:3:0:0:
96,104,56948,1,8,1:3:0:0:
52,112,57046,1,4,1:3:0:0:
344,256,57242,6,0,P|360:312|340:368,1,107.999996704102,4|0,1:0|0:0,0:0:0:0:
232,200,57634,1,10,0:0:0:0:
448,172,57830,1,2,0:0:0:0:
480,168,57928,1,8,0:0:0:0:
512,164,58026,1,8,0:0:0:0:
332,92,58222,1,0,1:0:0:0:
364,328,58419,1,8,0:0:0:0:
436,56,58615,6,0,B|440:40|456:24|456:24|488:56|488:108|472:144,1,161.999995056153,4|0,1:0|0:0,0:0:0:0:
452,176,59007,1,2,1:2:0:0:
312,40,59203,1,10,0:0:0:0:
264,228,59399,1,0,0:0:0:0:
436,56,59595,1,2,1:2:0:0:
380,288,59791,1,2,1:2:0:0:
312,40,59987,1,8,0:0:0:0:
492,228,60183,1,2,0:0:0:0:
160,136,60379,6,0,B|72:144|72:144|92:156,1,107.999996704102,4|0,1:0|0:0,0:0:0:0:
276,200,60771,1,10,0:0:0:0:
260,72,60968,1,2,0:0:0:0:
256,52,61066,1,8,0:0:0:0:
252,32,61164,1,8,0:0:0:0:
176,256,61360,1,0,1:0:0:0:
384,140,61556,1,8,0:0:0:0:
88,196,61752,6,0,P|72:284|160:360,1,215.999993408203,4|0,1:0|0:0,0:0:0:0:
396,340,62340,1,8,0:0:0:0:
180,332,62536,1,8,1:3:0:0:
401,251,62732,1,4,1:3:0:0:
199,303,62928,1,4,1:3:0:0:
460,116,63124,1,12,1:2:0:0:
480,104,63517,6,0,P|432:124|356:96,1,107.999996704102,4|8,1:0|0:0,0:0:0:0:
352,92,63811,1,8,0:0:0:0:
340,64,63909,1,0,1:0:0:0:
296,252,64105,1,8,0:0:0:0:
288,284,64203,1,8,0:0:0:0:
280,316,64301,1,0,1:0:0:0:
164,160,64497,1,8,0:0:0:0:
156,128,64595,1,8,0:0:0:0:
148,96,64693,1,0,1:0:0:0:
340,64,64889,2,0,P|368:60|404:64,1,53.9999983520508,8|8,0:0|0:0,0:0:0:0:
484,120,65085,6,0,B|488:176|460:168|464:232,1,107.999996704102,4|8,1:0|0:0,0:0:0:0:
468,256,65379,1,8,0:0:0:0:
484,284,65477,1,0,1:0:0:0:
276,336,65673,1,8,0:0:0:0:
232,328,65772,1,8,0:0:0:0:
188,320,65870,1,0,1:0:0:0:
324,152,66066,1,8,0:0:0:0:
368,144,66165,1,8,0:0:0:0:
412,136,66263,1,0,1:0:0:0:
232,20,66458,2,0,L|178:11,1,53.9999983520508,8|8,0:0|0:0,0:0:0:0:
88,68,66654,6,0,P|68:108|72:172,1,107.999996704102,4|8,1:0|0:0,0:0:0:0:
80,200,66948,1,8,0:0:0:0:
96,228,67046,1,0,1:0:0:0:
224,76,67242,6,0,L|152:72,1,53.9999983520508,8|8,0:0|0:0,0:0:0:0:
88,68,67438,1,0,1:0:0:0:
236,156,67634,6,0,L|308:152,1,53.9999983520508,8|8,0:0|0:0,0:0:0:0:
376,148,67830,1,0,1:0:0:0:
248,236,68026,6,0,L|176:232,1,53.9999983520508,8|8,0:0|0:0,0:0:0:0:
108,228,68222,1,0,1:0:0:0:
236,316,68419,6,0,L|308:312,1,53.9999983520508,8|8,0:0|0:0,0:0:0:0:
376,308,68615,1,0,1:0:0:0:
248,236,68811,6,0,L|244:164,1,53.9999983520508,8|8,0:0|0:0,0:0:0:0:
236,96,69007,1,0,1:0:0:0:
168,224,69203,6,0,L|164:296,1,53.9999983520508,8|8,0:0|0:0,0:0:0:0:
156,364,69399,1,0,1:0:0:0:
88,236,69595,6,0,L|84:164,1,53.9999983520508,8|8,0:0|0:0,0:0:0:0:
80,76,69791,6,0,B|168:80|172:44|256:48,1,180,4|0,1:0|1:0,0:0:0:0:
360,72,70379,1,2,0:0:0:0:
460,200,70575,2,0,P|464:244|456:296,1,90,2|8,1:2|0:0,0:0:0:0:
444,324,70870,1,8,0:0:0:0:
420,352,70968,1,0,0:0:0:0:
340,280,71164,1,8,0:0:0:0:
188,336,71360,5,0,1:0:0:0:
292,372,71556,1,8,0:0:0:0:
296,376,71654,1,8,0:0:0:0:
300,380,71752,1,0,0:0:0:0:
228,216,71948,1,8,0:0:0:0:
112,356,72144,1,0,1:0:0:0:
364,256,72340,1,8,0:0:0:0:
400,230,72438,1,8,0:0:0:0:
419,189,72536,1,0,1:0:0:0:
415,145,72634,1,4,0:3:0:0:
390,108,72732,1,8,0:0:0:0:
350,88,72830,1,8,0:0:0:0:
306,91,72928,6,0,P|260:96|212:88,1,90,0|8,1:0|0:0,0:0:0:0:
68,20,73321,2,0,P|80:64|76:112,1,90,0|8,1:0|0:0,0:0:0:0:
28,172,73615,1,8,0:0:0:0:
16,196,73713,2,0,P|4:240|8:288,1,90,0|8,1:0|0:0,0:0:0:0:
156,156,74105,1,0,1:0:0:0:
192,352,74301,1,8,0:0:0:0:
196,356,74399,1,8,0:0:0:0:
200,360,74497,6,0,P|240:368|312:360,1,90,2|8,0:2|0:0,0:0:0:0:
464,240,74889,2,0,P|424:232|352:240,1,90,2|8,1:2|0:0,0:0:0:0:
331,245,75183,1,8,0:0:0:0:
287,239,75281,1,2,1:2:0:0:
249,217,75379,1,4,0:3:0:0:
222,181,75477,1,8,0:0:0:0:
211,138,75575,1,4,3:0:0:0:
217,93,75673,1,10,0:0:0:0:
168,288,75870,2,0,L|156:352,1,45,8|8,0:0|0:0,0:0:0:0:
72,376,76066,6,0,L|49:256,1,90,4|8,1:0|0:0,0:0:0:0:
48,252,76360,1,8,0:0:0:0:
40,216,76458,1,0,1:0:0:0:
164,60,76654,1,10,0:0:0:0:
196,48,76752,1,8,0:0:0:0:
232,36,76850,2,0,L|296:40,1,45,2|0,1:2|0:0,0:0:0:0:
404,104,77046,1,8,0:0:0:0:
416,136,77144,1,8,0:0:0:0:
428,172,77242,2,0,L|424:236,1,45,0|0,1:0|0:0,0:0:0:0:
508,336,77438,2,0,L|504:272,1,45,4|0,3:0|0:0,0:0:0:0:
328,360,77634,6,0,P|288:372|240:364,1,90,2|8,1:2|0:0,0:0:0:0:
208,344,77928,1,8,0:0:0:0:
184,316,78026,1,0,1:0:0:0:
280,268,78222,1,8,0:0:0:0:
84,360,78419,1,2,1:2:0:0:
40,351,78517,1,4,0:3:0:0:
8,320,78615,1,8,0:0:0:0:
0,277,78713,1,8,0:0:0:0:
15,235,78811,1,0,1:0:0:0:
184,316,79007,1,8,0:0:0:0:
76,108,79203,6,0,P|116:108|164:92,1,90,4|8,1:0|0:0,0:0:0:0:
192,72,79497,1,8,0:0:0:0:
208,40,79595,1,0,1:0:0:0:
332,144,79791,1,8,0:0:0:0:
336,148,79889,1,8,0:0:0:0:
340,152,79987,2,0,L|332:260,1,90,2|8,1:2|0:0,0:0:0:0:
276,92,80379,1,8,0:0:0:0:
464,156,80575,6,0,P|484:160|508:160,1,45,0|4,1:0|0:3,0:0:0:0:
404,88,80772,1,14,0:0:0:0:
304,240,80968,6,0,P|300:260|300:284,1,45,0|4,1:0|0:3,0:0:0:0:
372,180,81164,1,14,0:0:0:0:
220,80,81360,6,0,P|200:76|176:76,1,45,0|4,1:0|0:3,0:0:0:0:
280,148,81556,1,14,0:0:0:0:
100,120,81752,1,14,0:0:0:0:
308,68,81948,1,14,0:0:0:0:
256,316,82144,1,14,0:0:0:0:
180,20,82340,6,0,P|200:68|200:128,1,90,4|0,1:0|0:0,0:0:0:0:
168,180,82634,1,8,0:0:0:0:
152,204,82732,1,8,0:0:0:0:
388,40,82928,2,0,B|416:24|480:28|512:56|512:56|464:72,1,180,4|4,1:0|1:3,0:0:0:0:
180,20,83517,1,4,1:0:0:0:
256,192,83615,12,0,91752,0:0:0:0:
