osu file format v14

[General]
AudioFilename: audio.mp3
AudioLeadIn: 0
PreviewTime: 44301
Countdown: 0
SampleSet: Soft
StackLeniency: 0.7
Mode: 0
LetterboxInBreaks: 0
WidescreenStoryboard: 0

[Editor]
Bookmarks: 83517,91752
DistanceSpacing: 0.8
BeatDivisor: 4
GridSize: 4
TimelineZoom: 1

[Metadata]
Title:Pleasure garden
TitleUnicode:Pleasure garden
Artist:Rin'ca
ArtistUnicode:Rin'ca
Creator:Kin
Version:Hard
Source:D.S. -Dal Segno-
Tags:ダル・セーニョ Circus yozuca* chokix VN visual novel eroge OP opening
BeatmapID:1538176
BeatmapSetID:727429

[Difficulty]
HPDrainRate:5.2
CircleSize:3.8
OverallDifficulty:6.9
ApproachRate:7.8
SliderMultiplier:1.48
SliderTickRate:1

[Events]
//Background and Video events
Video,379,"HEEEEEEEEEEEEEEEEEEEEEEEEEEEEY SAAALUUUUUUUT AAAAA TOUUUUUUUUS ICIIIIIIII DAVIIIIIIIID LAFARGE POKEMON.mp4"
0,0,"Jean ai paidai.jpg",0,0
//Break Periods
//Storyboard Layer 0 (Background)
//Storyboard Layer 1 (Fail)
//Storyboard Layer 2 (Pass)
//Storyboard Layer 3 (Foreground)
//Storyboard Sound Samples

[TimingPoints]
772,392.156862745098,4,2,1,65,1,0
10281,-100,4,2,1,5,0,0
10379,-100,4,2,1,65,0,0
11850,-100,4,2,1,5,0,0
11948,-100,4,2,1,65,0,0
12732,-100,4,2,1,70,0,0
12928,-100,4,2,1,75,0,0
13124,-100,4,2,1,80,0,0
13713,-133.333333333333,4,2,1,35,0,0
18026,-100,4,2,1,35,0,0
18222,-100,4,2,1,45,0,0
18419,-100,4,2,1,55,0,0
18615,-100,4,2,1,65,0,0
18811,-100,4,2,1,75,0,0
19203,-100,4,2,1,55,0,0
19399,-100,4,2,1,75,0,0
19595,-100,4,2,1,65,0,0
19693,-100,4,2,1,45,0,0
25870,-100,4,2,1,65,0,0
25968,-100,4,2,1,45,0,0
29301,-100,4,2,1,5,0,0
29399,-100,4,2,1,65,0,0
29595,-100,4,2,1,55,0,0
29889,-100,4,2,1,5,0,0
29987,-100,4,2,1,70,0,0
31850,-100,4,2,1,5,0,0
31948,-100,4,2,1,70,0,0
43321,-100,4,1,0,70,0,0
44203,-100,4,2,1,70,0,0
44693,-100,4,2,1,70,0,1
55673,-100,4,2,1,70,0,0
57242,-100,4,2,1,70,0,1
58909,-100,4,2,1,5,0,1
59007,-100,4,2,1,70,0,1
69791,-100,4,2,1,70,0,0
69889,-100,4,2,1,55,0,0
76066,-100,4,2,1,70,0,0
76164,-100,4,2,1,55,0,0
79203,-100,4,2,1,70,0,0
79301,-100,4,2,1,55,0,0
81556,-100,4,2,1,45,0,0
81752,-100,4,2,1,55,0,0
81948,-100,4,2,1,65,0,0
82144,-100,4,2,1,75,0,0
83909,-100,4,2,1,55,0,0
84693,-100,4,2,1,50,0,0
85477,-100,4,2,1,45,0,0
86262,-100,4,2,1,40,0,0
87046,-100,4,2,1,35,0,0
87830,-100,4,2,1,30,0,0
88615,-100,4,2,1,25,0,0
89399,-100,4,2,1,20,0,0
90183,-100,4,2,1,15,0,0
90968,-100,4,2,1,10,0,0
91752,-100,4,2,1,5,0,0

[Colours]
Combo1 : 255,45,45
Combo2 : 151,219,255
Combo3 : 255,255,147
Combo4 : 255,164,119

[HitObjects]
136,28,379,6,0,L|132:76,3,37,0|0|0|0,0:0|0:0|0:0|0:0,0:0:0:0:
132,96,772,6,0,B|164:100|164:100|244:92|244:92|280:96,1,148,4|2,1:0|1:2,0:0:0:0:
356,136,1360,2,0,P|364:184|356:220,1,74,2|0,0:0|1:0,0:0:0:0:
308,280,1752,2,0,L|232:276,1,74,2|0,0:0|1:0,0:0:0:0:
160,324,2144,1,2,0:0:0:0:
156,328,2340,6,0,L|80:332,1,74,0|0,1:0|0:0,0:0:0:0:
24,268,2732,2,0,P|8:232|12:192,1,74,2|0,1:2|0:0,0:0:0:0:
96,216,3124,2,0,P|112:180|108:140,1,74,2|0,1:2|0:0,0:0:0:0:
64,72,3517,2,0,L|160:64,1,74,2|2,1:2|0:0,0:0:0:0:
164,52,3811,1,2,0:0:0:0:
192,40,3909,6,0,L|339:52,1,148,4|2,1:0|1:2,0:0:0:0:
420,20,4497,2,0,P|428:60|416:96,1,74,2|0,0:0|1:0,0:0:0:0:
344,136,4889,2,0,P|336:176|348:212,1,74,2|0,0:0|1:0,0:0:0:0:
452,284,5281,6,0,B|400:280|400:280|368:304|328:304|296:284,1,148,6|2,0:0|0:0,0:0:0:0:
256,220,5870,2,0,L|172:228,1,74,2|0,1:2|0:0,0:0:0:0:
104,188,6262,2,0,P|88:156|88:112,1,74,2|0,1:2|0:0,0:0:0:0:
92,88,6556,1,0,0:0:0:0:
108,64,6654,2,0,L|181:56,1,74,8|4,0:0|1:3,0:0:0:0:
304,4,7046,6,0,P|296:80|328:152,1,148,4|10,1:0|0:0,0:0:0:0:
384,208,7634,2,0,L|440:196,2,37,2|0|0,0:0|1:0|1:0,0:0:0:0:
296,228,8026,1,2,1:2:0:0:
356,292,8222,1,8,0:0:0:0:
322,144,8419,6,0,P|268:144|208:224,1,148,6|2,1:2|1:2,0:0:0:0:
220,300,9007,2,0,L|228:380,1,74,10|0,0:0|1:0,0:0:0:0:
348,365,9399,2,0,L|356:285,1,74,10|0,0:0|1:0,0:0:0:0:
360,264,9693,1,0,1:0:0:0:
364,236,9791,1,10,0:0:0:0:
284,148,9987,6,0,P|224:160|136:148,1,148,4|0,1:0|1:0,0:0:0:0:
92,76,10575,2,0,L|103:2,1,74,10|0,0:0|1:0,0:0:0:0:
4,68,10968,2,0,L|15:141,1,74,10|8,0:0|0:0,0:0:0:0:
0,228,11360,1,10,0:0:0:0:
112,304,11556,6,0,P|176:312|272:296,1,148,4|0,1:0|1:0,0:0:0:0:
320,236,12144,2,0,L|312:152,1,74,10|0,0:0|1:0,0:0:0:0:
300,76,12536,1,10,0:0:0:0:
216,100,12732,1,10,0:0:0:0:
128,80,12928,1,10,0:0:0:0:
148,196,13124,1,14,0:0:0:0:
216,100,13713,5,2,0:0:0:0:
300,76,13909,2,0,L|424:80,1,111.000004234314,2|2,0:0|0:0,0:0:0:0:
472,144,14497,2,0,P|488:184|472:256,1,111.000004234314,2|2,0:0|0:0,0:0:0:0:
400,296,15085,2,0,L|289:292,1,111.000004234314,2|2,0:0|0:0,0:0:0:0:
216,344,15673,2,0,L|105:347,1,111.000004234314,2|2,0:0|0:0,0:0:0:0:
28,300,16262,1,4,0:0:0:0:
28,300,16458,6,0,B|12:244|44:244|32:192,1,111.000004234314,4|2,0:1|0:0,0:0:0:0:
4,108,17046,2,0,P|52:112|128:88,1,111.000004234314,2|2,0:0|0:0,0:0:0:0:
180,36,17634,2,0,L|248:40,1,55.5000021171571,2|0,0:0|0:0,0:0:0:0:
308,92,18026,6,0,L|385:87,1,74,2|0,0:0|0:0,0:0:0:0:
440,20,18419,1,10,0:0:0:0:
468,104,18615,1,8,0:0:0:0:
412,172,18811,2,0,L|264:180,1,148,10|10,0:0|1:2,0:0:0:0:
220,104,19399,1,10,1:2:0:0:
188,232,19595,6,0,P|168:276|48:292,1,148,4|0,1:0|1:0,0:0:0:0:
28,232,20183,1,2,0:0:0:0:
28,232,20379,2,0,L|36:144,1,74,0|2,1:0|0:0,0:0:0:0:
80,80,20772,1,0,1:0:0:0:
164,104,20968,6,0,P|168:68|148:24,2,74,2|0|0,0:0|1:0|0:0,0:0:0:0:
100,164,21556,2,0,L|93:237,1,74,0|2,1:0|0:0,0:0:0:0:
148,308,21948,1,0,1:0:0:0:
228,268,22144,2,0,P|264:264|316:268,1,74,2|0,0:0|1:0,0:0:0:0:
376,216,22536,6,0,P|372:176|380:124,2,74,2|0|0,0:0|1:0|0:0,0:0:0:0:
420,292,23124,2,0,P|480:296|512:220,2,148,0|0|0,1:0|1:0|1:0,0:0:0:0:
376,216,24105,6,0,L|292:224,1,74,2|0,0:0|1:0,0:0:0:0:
252,296,24497,2,0,L|168:288,1,74,2|0,0:0|1:0,0:0:0:0:
128,216,24889,2,0,L|44:224,1,74,2|0,0:0|1:0,0:0:0:0:
8,300,25281,2,0,P|0:336|4:376,2,74,2|0|2,0:0|1:0|0:0,0:0:0:0:
54,223,25870,6,0,P|74:175|58:63,1,148,4|2,1:0|1:2,0:0:0:0:
140,32,26458,1,0,0:0:0:0:
140,32,26654,2,0,L|224:36,1,74,2|0,1:2|0:0,0:0:0:0:
284,92,27046,1,0,1:0:0:0:
288,96,27242,6,0,P|312:48|304:8,2,74,2|0|0,0:0|1:0|0:0,0:0:0:0:
204,120,27830,2,0,P|188:164|192:204,1,74,0|2,1:0|0:0,0:0:0:0:
252,252,28222,1,0,1:0:0:0:
256,256,28419,2,0,L|336:252,2,74,2|0|2,0:0|1:0|0:0,0:0:0:0:
148,336,29007,6,0,P|88:336|32:260,1,148,4|8,1:0|0:0,0:0:0:0:
88,152,29595,2,0,B|112:136|112:136|132:168|132:212|120:252,1,148,4|4,1:0|1:3,0:0:0:0:
33,272,30183,1,10,0:0:0:0:
88,152,30379,2,0,B|112:136|112:136|148:152|192:152|228:136,1,148,4|0,1:0|1:0,0:0:0:0:
288,72,30968,2,0,L|384:80,1,74,8|0,0:0|0:0,0:0:0:0:
392,84,31262,1,8,0:0:0:0:
420,88,31360,1,10,0:0:0:0:
356,204,31556,6,0,B|344:232|344:268|356:296|356:296|364:276,1,111,14|0,0:0|0:0,0:0:0:0:
356,296,31948,6,0,B|372:328|372:328|332:316|296:316|260:332,1,148,4|0,1:0|1:0,0:0:0:0:
184,372,32536,2,0,L|108:368,1,74,8|0,0:0|0:0,0:0:0:0:
92,344,32830,1,8,0:0:0:0:
76,320,32928,2,0,P|64:288|68:240,1,74,2|2,1:2|0:0,0:0:0:0:
100,168,33321,1,8,0:0:0:0:
212,240,33517,6,0,B|292:248|284:208|360:220,1,148,4|0,1:0|1:0,0:0:0:0:
424,276,34105,2,0,P|440:248|440:204,1,74,8|0,0:0|0:0,0:0:0:0:
384,140,34497,2,0,P|372:108|372:60,1,74,2|2,1:2|0:0,0:0:0:0:
432,4,34889,1,8,0:0:0:0:
512,112,35085,6,0,P|496:180|452:256,1,148,4|0,1:0|1:0,0:0:0:0:
404,176,35673,1,10,0:0:0:0:
360,256,35870,2,0,P|309:208|265:132,1,148,2|0,1:2|1:2,0:0:0:0:
268,52,36458,1,10,0:2:0:0:
400,32,36654,6,0,B|508:40|508:40|468:80,1,148,4|0,1:0|1:0,0:0:0:0:
408,120,37242,2,0,P|400:160|412:208,1,74,10|0,0:0|1:0,0:0:0:0:
292,264,37634,2,0,P|300:224|288:176,1,74,10|0,0:0|0:0,0:0:0:0:
276,168,37928,1,8,0:0:0:0:
256,148,38026,2,0,L|172:152,1,74,10|8,0:0|0:0,0:0:0:0:
64,92,38419,6,0,P|88:120|80:240,1,148,4|10,1:0|0:0,0:0:0:0:
36,296,39007,2,0,L|0:292,2,37,0|8|2,0:0|0:0|1:2,0:0:0:0:
108,348,39399,2,0,L|181:339,1,74,2|8,1:2|0:0,0:0:0:0:
312,356,39791,6,0,B|324:280|276:280|296:208,1,148,4|2,1:0|1:2,0:0:0:0:
344,140,40379,2,0,L|440:148,1,74,8|2,0:0|1:2,0:0:0:0:
348,48,40772,2,0,L|252:56,1,74,8|0,0:0|0:0,0:0:0:0:
244,60,41066,1,8,0:0:0:0:
216,64,41164,2,0,L|120:56,1,74,14|10,0:0|0:0,0:0:0:0:
56,160,41556,6,0,P|36:196|64:304,1,148,4|4,1:0|1:3,0:0:0:0:
176,352,42144,2,0,B|220:356|248:336|248:336|268:340|280:352|280:352|304:340|328:340,1,148,4|10,1:3|0:0,0:0:0:0:
400,356,42732,1,2,0:0:0:0:
480,248,42928,6,0,P|464:184|472:92,1,148,4|0,1:0|1:0,0:0:0:0:
404,40,43517,2,0,L|320:48,1,74,0|0,0:0|0:0,0:0:0:0:
248,16,43909,1,0,0:0:0:0:
264,104,44105,1,0,0:0:0:0:
184,192,44301,2,0,P|144:196|104:192,1,74,8|2,0:0|0:0,0:0:0:0:
24,92,44693,6,0,B|8:64|8:64|-16:92|-16:144|0:176,1,148,4|10,1:0|0:0,0:0:0:0:
40,252,45281,1,2,0:0:0:0:
44,256,45477,2,0,P|48:304|36:348,1,74,0|0,1:0|0:0,0:0:0:0:
132,308,45870,1,8,0:0:0:0:
212,348,46066,6,0,L|312:340,1,74,2|0,0:0|1:0,0:0:0:0:
360,292,46458,2,0,L|460:300,2,74,2|10|0,0:0|0:0|0:0,0:0:0:0:
280,256,47046,1,2,2:0:0:0:
256,172,47242,1,2,0:0:0:0:
280,88,47438,2,0,L|364:80,1,74,8|2,0:0|0:0,0:0:0:0:
460,160,47830,6,0,P|480:196|456:304,1,148,4|10,1:0|0:0,0:0:0:0:
388,344,48419,1,2,0:0:0:0:
388,344,48615,2,0,L|300:336,1,74,0|0,1:0|0:0,0:0:0:0:
192,284,49007,2,0,L|280:276,1,74,8|0,0:0|0:0,0:0:0:0:
396,264,49399,6,0,P|408:224|408:180,1,74,2|0,1:2|0:0,0:0:0:0:
276,188,49791,2,0,P|264:148|264:104,1,74,10|0,0:0|0:0,0:0:0:0:
396,112,50183,2,0,P|408:72|408:28,1,74,2|0,1:2|0:0,0:0:0:0:
276,36,50575,2,0,P|232:36|196:48,1,74,10|0,0:0|0:0,0:0:0:0:
132,156,50968,6,0,B|108:216|160:232|128:300,1,148,4|10,1:0|0:0,0:0:0:0:
76,372,51556,2,0,L|0:364,2,74,2|0|2,0:0|1:0|0:0,0:0:0:0:
164,380,52144,2,0,L|237:372,1,74,10|0,0:0|0:0,0:0:0:0:
300,312,52536,6,0,P|312:276|312:240,1,74,2|2,1:2|0:0,0:0:0:0:
264,168,52928,1,8,0:0:0:0:
156,248,53124,2,0,P|100:264|40:192,1,148,2|0,0:0|0:0,0:0:0:0:
56,120,53713,1,10,0:0:0:0:
56,120,53909,1,2,0:0:0:0:
180,72,54105,6,0,L|256:76,1,74,4|0,1:0|0:0,0:0:0:0:
336,112,54497,2,0,L|412:108,1,74,10|0,0:0|0:0,0:0:0:0:
484,56,54889,2,0,P|500:96|488:144,1,74,2|0,1:2|0:0,0:0:0:0:
436,192,55281,2,0,P|424:228|432:272,1,74,10|0,0:0|0:0,0:0:0:0:
512,368,55673,6,0,P|440:380|360:372,1,148,2|8,1:2|0:0,0:0:0:0:
292,324,56262,1,0,0:0:0:0:
292,324,56458,2,0,L|297:250,1,74,8|8,0:0|0:0,0:0:0:0:
300,220,56752,1,8,0:0:0:0:
304,192,56850,1,4,1:3:0:0:
260,116,57046,1,4,1:3:0:0:
168,212,57242,6,0,P|104:228|20:208,1,148,4|10,1:0|0:0,0:0:0:0:
12,124,57830,2,0,L|8:72,2,37,2|8|8,0:0|0:0|0:0,0:0:0:0:
25,210,58222,2,0,L|17:306,1,74,0|8,1:0|0:0,0:0:0:0:
140,344,58615,6,0,B|172:360|212:360|252:340|252:340|224:320,1,148,4|2,1:0|1:2,0:0:0:0:
164,260,59203,2,0,P|152:224|152:184,1,74,10|0,0:0|0:0,0:0:0:0:
232,84,59595,1,2,1:2:0:0:
240,172,59791,1,2,1:2:0:0:
144,104,59987,2,0,L|56:120,1,74,8|2,0:0|0:0,0:0:0:0:
240,172,60379,6,0,P|304:188|388:192,1,148,4|10,1:0|0:0,0:0:0:0:
444,124,60968,2,0,L|436:48,2,74,2|8|0,0:0|0:0|1:0,0:0:0:0:
472,208,61556,1,8,0:0:0:0:
476,212,61752,2,0,P|468:268|360:308,1,148,4|0,1:0|0:0,0:0:0:0:
308,292,62340,2,0,L|228:308,1,74,8|8,0:0|1:3,0:0:0:0:
148,324,62732,1,4,1:3:0:0:
148,324,62928,1,4,1:3:0:0:
60,244,63124,2,0,P|52:208|56:164,1,74,12|0,1:2|0:0,0:0:0:0:
148,76,63517,6,0,L|300:84,1,148,4|0,1:0|1:0,0:0:0:0:
368,136,64105,1,8,0:0:0:0:
372,140,64301,2,0,P|388:176|388:224,1,74,0|8,1:0|0:0,0:0:0:0:
344,284,64693,2,0,L|256:280,1,74,0|8,1:0|0:0,0:0:0:0:
156,348,65085,6,0,L|68:352,1,74,4|8,1:0|0:0,0:0:0:0:
24,284,65477,2,0,P|12:248|12:212,1,74,0|8,1:0|0:0,0:0:0:0:
48,132,65870,2,0,L|140:128,1,74,0|8,1:0|0:0,0:0:0:0:
192,72,66262,1,0,1:0:0:0:
280,172,66458,1,8,0:0:0:0:
284,176,66556,1,8,0:0:0:0:
288,180,66654,6,0,L|284:272,1,74,4|8,1:0|0:0,0:0:0:0:
192,328,67046,2,0,L|188:236,1,74,0|8,1:0|0:0,0:0:0:0:
276,332,67438,2,0,P|316:328|344:304,1,74,0|8,1:0|0:0,0:0:0:0:
356,220,67830,1,0,1:0:0:0:
260,128,68026,1,8,0:0:0:0:
256,124,68124,1,8,0:0:0:0:
252,120,68222,6,0,L|172:128,1,74,0|8,1:0|0:0,0:0:0:0:
100,216,68615,2,0,L|180:224,1,74,0|8,1:0|0:0,0:0:0:0:
252,304,69007,2,0,L|172:312,1,74,0|8,1:0|0:0,0:0:0:0:
92,304,69399,1,0,1:0:0:0:
92,304,69595,1,8,0:0:0:0:
40,180,69791,6,0,B|20:144|20:92|40:64|40:64|72:92,1,148,4|0,1:0|1:0,0:0:0:0:
124,144,70379,1,2,0:0:0:0:
200,100,70575,2,0,L|372:108,1,148,2|0,1:2|0:0,0:0:0:0:
396,32,71164,1,8,0:0:0:0:
432,112,71360,6,0,L|428:208,1,74,0|8,1:0|0:0,0:0:0:0:
428,216,71654,1,8,0:0:0:0:
428,244,71752,1,0,0:0:0:0:
336,320,71948,1,8,0:0:0:0:
256,232,72144,2,0,L|164:240,1,74,0|8,1:0|0:0,0:0:0:0:
116,296,72536,1,0,1:0:0:0:
76,184,72732,1,8,0:0:0:0:
72,176,72830,1,8,0:0:0:0:
68,168,72928,6,0,L|76:76,1,74,0|8,1:0|0:0,0:0:0:0:
144,40,73321,2,0,P|180:32|224:32,1,74,0|8,1:0|0:0,0:0:0:0:
268,104,73713,2,0,P|304:112|348:112,1,74,0|8,1:0|0:0,0:0:0:0:
392,40,74105,2,0,P|428:32|472:32,1,74,0|8,1:0|0:0,0:0:0:0:
512,156,74497,6,0,L|500:244,1,74,2|8,0:2|0:0,0:0:0:0:
404,296,74889,2,0,L|392:208,1,74,2|8,1:2|0:0,0:0:0:0:
296,156,75281,2,0,L|284:244,1,74,2|8,1:2|0:0,0:0:0:0:
188,296,75673,2,0,L|176:208,1,74,10|8,0:0|0:0,0:0:0:0:
172,192,75968,1,8,0:0:0:0:
168,164,76066,6,0,P|104:180|48:124,1,148,4|0,1:0|1:0,0:0:0:0:
60,40,76654,1,10,0:0:0:0:
120,108,76850,2,0,P|100:192|68:260,1,148,2|0,1:2|1:0,0:0:0:0:
16,316,77438,1,4,3:0:0:0:
12,320,77536,1,0,0:0:0:0:
8,324,77634,6,0,P|80:344|156:336,1,148,2|0,1:2|1:0,0:0:0:0:
224,284,78222,1,8,0:0:0:0:
308,320,78419,2,0,L|396:316,1,74,2|8,1:2|0:0,0:0:0:0:
404,300,78713,1,8,0:0:0:0:
428,284,78811,1,0,1:0:0:0:
360,228,79007,1,8,0:0:0:0:
480,220,79203,6,0,P|496:144|480:64,1,148,4|0,1:0|1:0,0:0:0:0:
420,16,79791,1,8,0:0:0:0:
340,52,79987,2,0,L|248:44,1,74,2|8,1:2|0:0,0:0:0:0:
200,104,80379,2,0,L|108:112,1,74,8|0,0:0|1:0,0:0:0:0:
12,44,80772,6,0,P|0:72|0:128,1,74,14|0,0:0|1:0,0:0:0:0:
92,208,81164,2,0,P|104:236|104:292,1,74,14|0,0:0|1:0,0:0:0:0:
36,336,81556,1,14,0:0:0:0:
120,364,81752,1,14,0:0:0:0:
192,252,81948,2,0,P|184:208|164:168,1,74,14|14,0:0|0:0,0:0:0:0:
44,144,82340,6,0,B|112:136|112:136|132:112|164:104,1,111,4|8,1:0|0:0,0:0:0:0:
176,108,82732,1,8,0:0:0:0:
304,148,82928,2,0,B|320:180|320:224|304:264|304:264|280:236,1,148,4|4,1:0|1:3,0:0:0:0:
204,116,83517,5,4,1:0:0:0:
256,192,83713,12,0,91752,0:0:0:0:
