osu file format v14

[General]
AudioFilename: audio.mp3
AudioLeadIn: 0
PreviewTime: 44301
Countdown: 0
SampleSet: Normal
StackLeniency: 0.7
Mode: 1
LetterboxInBreaks: 0
WidescreenStoryboard: 1

[Editor]
Bookmarks: 83517,91752
DistanceSpacing: 0.9
BeatDivisor: 4
GridSize: 4
TimelineZoom: 0.6999999

[Metadata]
Title:Pleasure garden
TitleUnicode:Pleasure garden
Artist:Rin'ca
ArtistUnicode:Rin'ca
Creator:Kin
Version:Futsuu
Source:D.S. -Dal Segno-
Tags:ダル・セーニョ Circus yozuca* chokix VN visual novel eroge OP opening
BeatmapID:1552351
BeatmapSetID:727429

[Difficulty]
HPDrainRate:6
CircleSize:4.5
OverallDifficulty:4
ApproachRate:5
SliderMultiplier:1.4
SliderTickRate:1

[Events]
//Background and Video events
Video,379,"HEEEEEEEEEEEEEEEEEEEEEEEEEEEEY SAAALUUUUUUUT AAAAA TOUUUUUUUUS ICIIIIIIII DAVIIIIIIIID LAFARGE POKEMON.mp4"
0,0,"kurai il ai paydai.jpg",0,100
//Break Periods
//Storyboard Layer 0 (Background)
//Storyboard Layer 1 (Fail)
//Storyboard Layer 2 (Pass)
//Storyboard Layer 3 (Foreground)
//Storyboard Sound Samples

[TimingPoints]
772,392.156862745098,4,1,0,75,1,0
13321,-107.142860969388,4,1,0,75,0,0
13713,-125,4,1,0,75,0,0
18222,-121.212121212121,4,1,0,75,0,0
18419,-117.647058823529,4,1,0,75,0,0
18615,-114.285714285714,4,1,0,75,0,0
18811,-111.111111111111,4,1,0,75,0,0
18909,-109.58904109589,4,1,0,75,0,0
19007,-108.108108108108,4,1,0,75,0,0
19105,-106.666666666667,4,1,0,75,0,0
19203,-105.263157894737,4,1,0,75,0,0
19301,-103.896103896104,4,1,0,75,0,0
19399,-102.564102564103,4,1,0,75,0,0
19595,-100,4,1,0,75,0,0
44693,-100,4,1,0,75,0,1
55673,-100,4,1,0,75,0,0
57242,-100,4,1,0,75,0,1
69791,-100,4,1,0,75,0,0
82144,-100,4,1,0,75,0,0
83909,-100,4,1,0,55,0,0
84693,-100,4,1,0,50,0,0
85477,-100,4,1,0,45,0,0
86262,-100,4,1,0,40,0,0
87046,-100,4,1,0,35,0,0
87830,-100,4,1,0,30,0,0
88615,-100,4,1,0,25,0,0
89399,-100,4,1,0,20,0,0
90183,-100,4,1,0,15,0,0
90968,-100,4,1,0,10,0,0
91752,-100,4,1,0,5,0,0

[Colours]
Combo1 : 255,45,45
Combo2 : 151,219,255
Combo3 : 255,255,147
Combo4 : 255,164,119

[HitObjects]
256,196,379,5,8,0:0:0:0:
256,196,772,1,4,0:0:0:0:
256,196,1164,1,8,0:0:0:0:
256,196,1360,1,0,0:0:0:0:
256,196,1752,1,8,0:0:0:0:
256,196,2144,1,8,0:0:0:0:
256,196,2536,1,0,0:0:0:0:
256,196,2732,1,8,0:0:0:0:
256,196,3124,1,8,0:0:0:0:
256,196,3909,1,4,0:0:0:0:
256,196,4301,1,8,0:0:0:0:
256,196,4497,1,8,0:0:0:0:
256,196,4889,1,8,0:0:0:0:
256,196,5281,1,4,0:0:0:0:
256,196,5870,1,8,0:0:0:0:
256,196,6262,1,0,0:0:0:0:
256,196,6654,1,8,0:0:0:0:
256,196,7046,1,4,0:0:0:0:
256,196,7438,1,8,0:0:0:0:
256,196,7634,1,0,0:0:0:0:
256,196,8026,1,0,0:0:0:0:
256,196,8222,1,8,0:0:0:0:
256,196,8419,1,4,0:0:0:0:
256,196,9007,1,8,0:0:0:0:
256,196,9399,1,8,0:0:0:0:
256,196,9791,1,8,0:0:0:0:
256,196,9987,1,4,0:0:0:0:
256,196,10379,1,0,0:0:0:0:
256,196,10575,1,8,0:0:0:0:
256,196,10968,1,0,0:0:0:0:
256,196,11360,1,0,0:0:0:0:
256,196,11556,1,14,0:0:0:0:
256,196,12144,1,8,0:0:0:0:
256,196,12536,1,10,0:0:0:0:
256,196,12928,1,0,0:0:0:0:
256,196,13124,1,14,0:0:0:0:
256,196,13909,1,8,0:0:0:0:
256,196,14497,1,8,0:0:0:0:
256,196,15085,1,8,0:0:0:0:
256,196,15673,1,0,0:0:0:0:
256,196,16066,1,8,0:0:0:0:
256,196,16458,1,0,0:0:0:0:
256,196,17046,1,8,0:0:0:0:
256,196,17634,1,8,0:0:0:0:
256,196,18026,1,0,0:0:0:0:
256,196,18419,1,8,0:0:0:0:
256,196,18811,1,8,0:0:0:0:
256,196,19007,1,8,0:0:0:0:
256,196,19203,1,0,0:0:0:0:
256,196,19595,1,4,0:0:0:0:
256,196,19987,1,8,0:0:0:0:
256,196,20379,1,0,0:0:0:0:
256,196,20575,1,8,0:0:0:0:
256,196,20968,1,8,0:0:0:0:
256,196,21752,1,0,0:0:0:0:
256,196,21948,1,0,0:0:0:0:
256,196,22144,1,8,0:0:0:0:
256,196,22536,1,8,0:0:0:0:
256,196,23517,1,0,0:0:0:0:
256,196,23909,1,0,0:0:0:0:
256,196,24105,1,8,0:0:0:0:
256,196,24497,1,0,0:0:0:0:
256,196,24889,1,8,0:0:0:0:
256,196,25281,1,8,0:0:0:0:
256,196,25870,1,0,0:0:0:0:
256,196,26262,1,8,0:0:0:0:
256,196,26654,1,0,0:0:0:0:
256,196,27046,1,0,0:0:0:0:
256,196,27242,1,8,0:0:0:0:
256,196,28026,1,0,0:0:0:0:
256,196,28222,1,0,0:0:0:0:
256,196,28419,1,8,0:0:0:0:
256,196,28811,1,8,0:0:0:0:
256,196,29007,1,4,0:0:0:0:
256,196,29595,1,4,0:0:0:0:
256,196,29987,1,8,0:0:0:0:
256,196,30183,1,8,0:0:0:0:
256,196,30379,1,4,0:0:0:0:
256,196,30968,1,8,0:0:0:0:
256,196,31360,1,0,0:0:0:0:
256,196,31556,1,14,0:0:0:0:
256,196,31948,1,4,0:0:0:0:
256,196,32536,1,8,0:0:0:0:
256,196,32928,1,0,0:0:0:0:
256,196,33124,1,8,0:0:0:0:
256,196,33517,1,4,0:0:0:0:
256,196,34105,1,8,0:0:0:0:
256,196,34497,1,8,0:0:0:0:
256,196,34693,1,8,0:0:0:0:
256,196,35085,1,4,0:0:0:0:
256,196,35673,1,8,0:0:0:0:
256,196,35870,1,0,0:0:0:0:
256,196,36262,1,8,0:0:0:0:
256,196,36458,1,8,0:0:0:0:
256,196,36654,1,4,0:0:0:0:
256,196,37242,1,8,0:0:0:0:
256,196,37634,1,0,0:0:0:0:
256,196,38026,1,8,0:0:0:0:
256,196,38419,1,4,0:0:0:0:
256,196,39203,1,0,0:0:0:0:
256,196,39399,1,8,0:0:0:0:
256,196,39791,1,4,0:0:0:0:
256,196,40183,1,0,0:0:0:0:
256,196,40575,1,8,0:0:0:0:
256,196,41164,1,8,0:0:0:0:
256,196,41360,1,8,0:0:0:0:
256,196,41556,1,4,0:0:0:0:
256,196,41948,1,8,0:0:0:0:
256,196,42144,1,8,0:0:0:0:
256,196,42536,1,8,0:0:0:0:
256,196,42732,1,8,0:0:0:0:
256,196,42928,1,4,0:0:0:0:
256,196,43517,1,8,0:0:0:0:
256,196,43909,1,0,0:0:0:0:
256,196,44105,1,0,0:0:0:0:
256,196,44301,1,14,0:0:0:0:
256,196,44693,1,4,0:0:0:0:
256,196,45085,1,8,0:0:0:0:
256,196,45281,1,8,0:0:0:0:
256,196,46066,1,8,0:0:0:0:
256,196,46458,1,0,0:0:0:0:
256,196,46654,1,8,0:0:0:0:
256,196,47046,1,8,0:0:0:0:
256,196,47242,1,8,0:0:0:0:
256,196,47438,1,0,0:0:0:0:
256,196,47830,1,14,0:0:0:0:
256,196,48222,1,0,0:0:0:0:
256,196,48419,1,8,0:0:0:0:
256,196,49399,1,0,0:0:0:0:
256,196,49791,1,8,0:0:0:0:
256,196,50183,1,0,0:0:0:0:
256,196,50575,1,8,0:0:0:0:
256,196,50968,1,4,0:0:0:0:
256,196,51360,1,0,0:0:0:0:
256,196,51556,1,8,0:0:0:0:
256,196,51948,1,8,0:0:0:0:
256,196,52144,1,8,0:0:0:0:
256,196,52536,1,0,0:0:0:0:
256,196,52928,1,8,0:0:0:0:
256,196,53124,1,8,0:0:0:0:
256,196,53713,1,8,0:0:0:0:
256,196,53909,1,8,0:0:0:0:
256,196,54105,1,0,0:0:0:0:
256,196,54497,1,8,0:0:0:0:
256,196,54889,1,0,0:0:0:0:
256,196,55281,1,8,0:0:0:0:
324,184,55673,1,0,0:0:0:0:
260,200,56262,1,0,0:0:0:0:
260,200,56458,1,8,0:0:0:0:
260,200,56850,1,8,0:0:0:0:
260,200,57046,1,8,0:0:0:0:
260,200,57242,1,4,0:0:0:0:
260,200,57634,1,8,0:0:0:0:
260,200,57830,1,8,0:0:0:0:
260,200,58615,1,4,0:0:0:0:
260,200,59007,1,0,0:0:0:0:
260,200,59203,1,8,0:0:0:0:
260,200,59595,1,8,0:0:0:0:
260,200,59791,1,8,0:0:0:0:
260,200,59987,1,0,0:0:0:0:
260,200,60379,1,8,0:0:0:0:
260,200,60771,1,0,0:0:0:0:
260,200,60968,1,8,0:0:0:0:
260,200,61752,1,0,0:0:0:0:
260,200,61948,1,8,0:0:0:0:
260,200,62340,1,0,0:0:0:0:
260,200,62732,1,8,0:0:0:0:
256,192,63124,1,4,0:0:0:0:
256,192,63713,1,0,0:0:0:0:
256,192,63909,1,0,0:0:0:0:
256,192,64105,1,8,0:0:0:0:
256,192,64497,1,0,0:0:0:0:
256,192,64889,1,8,0:0:0:0:
256,192,65281,1,0,0:0:0:0:
256,192,65477,1,0,0:0:0:0:
256,192,65673,1,8,0:0:0:0:
256,192,66262,1,8,0:0:0:0:
256,192,66654,1,4,0:0:0:0:
256,192,67046,1,0,0:0:0:0:
256,192,67438,1,0,0:0:0:0:
256,192,67830,1,8,0:0:0:0:
256,192,68026,1,8,0:0:0:0:
256,192,68222,1,8,0:0:0:0:
256,192,68615,1,0,0:0:0:0:
256,192,69007,1,8,0:0:0:0:
256,192,69399,1,8,0:0:0:0:
256,192,69595,1,8,0:0:0:0:
256,192,69791,1,4,0:0:0:0:
256,192,70379,1,8,0:0:0:0:
256,192,70575,1,0,0:0:0:0:
256,192,70968,1,0,0:0:0:0:
256,192,71360,1,0,0:0:0:0:
256,192,71752,1,0,0:0:0:0:
256,192,71948,1,8,0:0:0:0:
256,192,72144,1,0,0:0:0:0:
256,192,72536,1,0,0:0:0:0:
256,192,72928,1,0,0:0:0:0:
256,192,73713,1,8,0:0:0:0:
256,192,74105,1,0,0:0:0:0:
256,192,74301,1,0,0:0:0:0:
256,192,74497,1,8,0:0:0:0:
256,192,74889,1,8,0:0:0:0:
256,192,75281,1,8,0:0:0:0:
256,192,75477,1,8,0:0:0:0:
256,192,75673,1,0,0:0:0:0:
256,192,76066,1,4,0:0:0:0:
256,192,76654,1,8,0:0:0:0:
256,192,76850,1,0,0:0:0:0:
256,192,77242,1,0,0:0:0:0:
256,192,77634,1,0,0:0:0:0:
256,192,78419,1,0,0:0:0:0:
256,192,78615,1,8,0:0:0:0:
256,192,78811,1,0,0:0:0:0:
256,192,79203,1,0,0:0:0:0:
256,192,79987,1,0,0:0:0:0:
256,192,80772,1,0,0:0:0:0:
256,192,80968,1,0,0:0:0:0:
256,192,81164,1,8,0:0:0:0:
256,192,81556,1,0,0:0:0:0:
256,192,81752,1,0,0:0:0:0:
256,192,81948,1,8,0:0:0:0:
256,192,82340,1,4,0:0:0:0:
256,192,82928,1,4,0:0:0:0:
256,192,83517,1,4,0:0:0:0:
