osu file format v14

[General]
AudioFilename: audio.mp3
AudioLeadIn: 0
PreviewTime: 39719
Countdown: 0
SampleSet: Soft
StackLeniency: 0.7
Mode: 0
LetterboxInBreaks: 0
WidescreenStoryboard: 1

[Editor]
DistanceSpacing: 0.9
BeatDivisor: 8
GridSize: 4
TimelineZoom: 2.799999

[Metadata]
Title:Koisuru MODE
TitleUnicode:恋するMODE
Artist:Rin'ca
ArtistUnicode:Rin'ca
Creator:Ozato Fumika
Version:Erisu's Insane
Source:D.C.4 ~ダ・カーポ4~
Tags:Japanese JP Jpop J-pop pop yozuca* Nekusam Visual Novel VN Vocals Galgame 美少女ゲーム Video Game Circus D.C.4 ~Da Capo 4~ 2nd op opening 鷺澤有里栖 Sagisawa Arisu 常坂二乃 Tokisaka Nino 逢見諳子 Oumi Sorane 白河ひより Shirakawa Hiyori 鳳城詩名 Houjyou Shiina 美嶋未羽 Mishima Miu 日野原ちよ子 Hinohara Chiyoko DC4 Momochikun Erisu Momoyo momoka moeka shioi no dap civil oath wen Rinca D.C.4 〜ダ・カーポ4〜
BeatmapID:4430064
BeatmapSetID:2110359

[Difficulty]
HPDrainRate:5
CircleSize:4
OverallDifficulty:7
ApproachRate:9
SliderMultiplier:1.7
SliderTickRate:2

[Events]
//Background and Video events
0,0,"Miu.jpg",0,0
//Break Periods
//Storyboard Layer 0 (Background)
//Storyboard Layer 1 (Fail)
//Storyboard Layer 2 (Pass)
//Storyboard Layer 3 (Foreground)
//Storyboard Layer 4 (Overlay)
//Storyboard Sound Samples

[TimingPoints]
612,306.122448979592,4,2,18,40,1,0
612,-200,4,2,18,40,0,0
5509,-125,4,2,18,60,0,0
11632,-142.857142857143,4,2,18,50,0,0
21428,-111.111111111111,4,2,18,60,0,0
31224,-125,4,2,18,50,0,0
35816,-100,4,2,18,70,0,0
36122,-100,4,2,18,70,0,0
40407,-76.9230769230769,4,2,18,80,0,0
41020,-100,4,2,18,80,0,1
80203,-333.333333333333,4,2,18,30,0,0
81428,-100,4,2,18,70,0,0
109591,-100,4,2,18,5,0,0

[Colours]
Combo1 : 253,253,0
Combo2 : 242,140,184
Combo3 : 255,70,70
Combo4 : 102,255,102
Combo5 : 79,167,255
Combo6 : 255,131,70

[HitObjects]
107,247,612,6,0,L|93:300,2,42.5,2|0|0,0:0|0:0|0:0,0:0:0:0:
78,168,1071,2,0,P|107:207|194:210,1,127.5
346,151,1836,5,2,0:0:0:0:
250,107,2142,1,0,0:0:0:0:
273,191,2448,1,0,0:0:0:0:
328,64,2754,1,0,0:0:0:0:
324,72,3060,6,0,L|318:19,2,42.5,2|0|0,0:0|0:0|0:0,0:0:0:0:
360,157,3520,2,0,P|408:127|484:148,1,127.5
337,283,4285,2,0,P|276:297|222:266,1,127.5,2|0,0:0|0:0,0:0:0:0:
161,212,4897,2,0,L|154:146,1,63.75,4|0,0:3|0:0,0:0:0:0:
138,101,5203,2,0,L|89:94,1,42.5,8|0,0:0|0:0,0:0:0:0:
228,22,5509,6,0,B|263:78|263:78|239:162,1,136,4|0,1:0|1:0,0:0:0:0:
86,220,5969,1,0,0:0:0:0:
156,168,6122,2,0,L|174:256,1,68,0|0,1:0|0:0,0:0:0:0:
13,347,6428,2,0,L|26:280,1,68,0|0,1:0|0:0,0:0:0:0:
226,322,6734,6,0,P|164:357|78:339,2,136,0|0|0,1:0|1:0|1:0,0:0:0:0:
419,179,7652,2,0,L|403:254,1,68,0|0,1:0|0:0,0:0:0:0:
468,334,7958,2,0,L|330:307,1,136,4|8,1:0|0:0,0:0:0:0:
158,213,8418,2,8,L|104:227,2,34
294,214,8724,1,4,0:3:0:0:
165,304,8877,1,4,0:3:0:0:
136,127,9030,1,4,0:3:0:0:
272,268,9183,5,8,0:0:0:0:
245,161,9336,1,8,0:0:0:0:
249,295,9642,5,8,0:0:0:0:
279,132,9795,1,8,0:0:0:0:
253,113,10101,5,8,0:0:0:0:
289,300,10254,1,8,0:0:0:0:
277,77,10560,5,8,0:0:0:0:
239,327,10713,1,8,0:0:0:0:
442,178,11020,6,0,P|386:206|305:198,2,136,0|0|4,0:3|0:0|1:0,0:0:0:0:
442,178,11938,2,0,P|427:146|418:108,1,59.4999981842042,0|0,1:0|0:0,0:0:0:0:
296,36,12244,2,0,P|281:68|272:106,1,59.4999981842042,0|0,1:0|0:0,0:0:0:0:
465,42,12550,2,0,P|433:27|395:18,1,59.4999981842042,0|0,1:0|0:0,0:0:0:0:
261,173,12856,6,0,P|310:171|354:122,1,118.999996368408,0|0,1:0|1:0,0:0:0:0:
305,258,13316,2,0,L|316:316,1,59.4999981842042,0|0,0:0|1:0,0:0:0:0:
420,192,13622,2,0,L|408:250,1,59.4999981842042,0|0,0:0|1:0,0:0:0:0:
388,357,13928,1,0,0:0:0:0:
511,364,14081,6,0,P|475:335|385:344,1,118.999996368408,0|0,1:0|1:0,0:0:0:0:
327,370,14540,1,0,0:0:0:0:
259,309,14693,2,0,L|186:325,1,59.4999981842042,0|0,1:0|0:0,0:0:0:0:
334,221,14999,2,0,L|261:205,1,59.4999981842042,0|0,1:0|0:0,0:0:0:0:
153,151,15305,6,0,P|158:190|169:225,1,59.4999981842042,0|0,1:0|0:0,0:0:0:0:
303,114,15612,2,0,P|298:75|287:40,1,59.4999981842042,0|0,1:0|0:0,0:0:0:0:
185,17,15918,1,0,1:0:0:0:
185,17,16071,1,0,0:0:0:0:
100,87,16224,2,0,P|157:111|230:103,1,118.999996368408,0|0,1:0|1:0,0:0:0:0:
213,108,16836,6,0,P|210:70|198:38,1,59.4999981842042,0|0,1:0|0:0,0:0:0:0:
29,41,17142,2,0,P|20:69|19:99,1,59.4999981842042,0|0,1:0|0:0,0:0:0:0:
80,202,17448,2,0,L|138:188,1,59.4999981842042,0|0,1:0|0:0,0:0:0:0:
12,291,17754,2,0,L|135:309,1,118.999996368408,0|0,1:0|1:0,0:0:0:0:
236,361,18214,2,0,P|223:331|221:292,1,59.4999981842042,0|0,0:0|1:0,0:0:0:0:
253,207,18520,1,0,0:0:0:0:
344,226,18673,2,0,P|340:255|328:282,1,59.4999981842042,0|0,1:0|0:0,0:0:0:0:
178,172,18979,6,0,P|221:133|296:140,2,118.999996368408,0|0|0,1:0|1:0|1:0,0:0:0:0:
393,358,19897,1,0,1:0:0:0:
393,358,20203,2,0,B|407:299|407:299|385:230,1,118.999996368408,0|4,1:0|1:2,0:0:0:0:
303,177,20663,1,0,0:0:0:0:
273,284,20816,1,4,0:3:0:0:
404,163,20969,1,4,0:3:0:0:
222,135,21122,1,12,0:0:0:0:
344,23,21275,1,8,0:0:0:0:
344,23,21351,1,8,0:0:0:0:
344,23,21428,6,0,L|319:182,1,152.999995330811,4|8,1:0|0:0,0:0:0:0:
411,157,21887,1,0,0:0:0:0:
237,230,22040,2,0,L|155:214,1,76.4999976654053,0|0,0:0|1:0,0:0:0:0:
306,301,22346,2,0,L|388:285,1,76.4999976654053,8|0,0:0|0:0,0:0:0:0:
192,383,22652,6,0,P|168:327|203:239,1,152.999995330811,0|8,1:0|0:0,0:0:0:0:
148,108,23112,1,0,0:0:0:0:
82,216,23265,1,0,0:0:0:0:
148,108,23418,2,0,L|134:27,1,76.4999976654053,0|8,1:0|0:0,0:0:0:0:
41,141,23724,1,0,0:0:0:0:
198,244,23877,6,0,P|262:280|354:258,2,152.999995330811,0|8|0,1:0|0:0|1:0,0:0:0:0:
285,163,24642,1,0,1:0:0:0:
400,210,24795,2,0,P|419:243|423:299,1,76.4999976654053,8|0,0:0|0:0,0:0:0:0:
285,163,25101,2,0,P|312:136|347:121,1,76.4999976654053,0|0,1:0|0:0,0:0:0:0:
506,149,25407,2,0,P|470:134|443:107,1,76.4999976654053,8|0,0:0|0:0,0:0:0:0:
319,37,25714,1,0,1:0:0:0:
466,4,25867,1,0,1:0:0:0:
319,37,26020,2,0,L|231:28,1,76.4999976654053,8|0,0:0|0:0,0:0:0:0:
365,243,26326,6,0,B|383:208|396:187|396:187|387:143|370:91,2,152.999995330811,0|8|0,1:0|0:0|1:0,0:0:0:0:
225,196,27091,1,0,1:0:0:0:
180,290,27244,2,0,P|217:284|262:272,1,76.4999976654053,8|0,0:0|0:0,0:0:0:0:
109,180,27550,2,0,P|67:219|83:311,1,152.999995330811,0|8,1:0|0:0,0:0:0:0:
214,203,28009,2,0,L|196:112,1,76.4999976654053,0|0,1:0|0:0,0:0:0:0:
62,21,28316,2,0,L|44:112,1,76.4999976654053,0|8,1:0|0:0,0:0:0:0:
172,22,28622,1,0,0:0:0:0:
172,22,28775,6,0,P|212:53|316:51,1,152.999995330811,0|8,1:0|0:0,0:0:0:0:
437,186,29234,1,0,0:0:0:0:
494,113,29387,2,0,P|419:105|355:144,1,152.999995330811,0|8,1:0|0:0,0:0:0:0:
293,203,29846,1,0,0:0:0:0:
445,260,29999,6,0,P|447:216|428:173,1,76.4999976654053,12|0,0:0|0:0,0:0:0:0:
223,250,30305,2,0,P|221:294|240:337,1,76.4999976654053,8|0,0:0|1:0,0:0:0:0:
231,324,30535,1,0,1:0:0:0:
231,324,30612,1,8,0:0:0:0:
329,259,30765,1,8,0:0:0:0:
252,169,30918,1,8,0:0:0:0:
350,261,31071,1,8,0:0:0:0:
136,320,31224,5,4,1:0:0:0:
136,320,31530,2,0,P|96:334|59:337,1,68,8|0,0:3|0:0,0:0:0:0:
186,240,31836,2,0,P|146:226|109:223,1,68,8|0,0:3|0:0,0:0:0:0:
66,110,32142,1,4,0:3:0:0:
23,189,32295,1,0,1:0:0:0:
160,137,32448,2,0,P|155:103|142:71,1,68,8|0,0:3|0:0,0:0:0:0:
46,15,32754,5,4,0:3:0:0:
142,71,32907,2,0,B|206:84|207:43|284:62,1,136
373,30,33367,2,0,L|383:109,1,68,8|0,0:3|0:0,0:0:0:0:
302,260,33673,6,0,P|276:193|305:121,1,136,4|0,0:3|0:0,0:0:0:0:
473,116,34132,2,0,P|427:172|351:182,1,136,4|0,0:3|0:0,0:0:0:0:
277,28,34591,2,0,P|341:44|382:97,1,136,4|0,0:3|1:0,0:0:0:0:
98,338,35356,5,8,0:0:0:0:
98,338,35433,1,8,0:0:0:0:
98,338,35509,1,8,0:0:0:0:
168,283,35663,1,4,1:0:0:0:
172,372,35816,1,8,0:0:0:0:
92,226,35969,1,2,0:3:0:0:
269,245,36122,6,0,P|279:289|282:337,1,85,12|0,0:0|0:0,0:0:0:0:
173,222,36428,1,0,1:0:0:0:
60,327,36581,6,0,P|102:323|143:313,1,85,12|0,0:0|0:0,0:0:0:0:
240,157,36887,1,0,1:0:0:0:
177,46,37040,6,0,P|158:84|146:125,1,85,12|0,0:0|0:0,0:0:0:0:
338,169,37346,2,0,P|325:128|307:89,1,85,12|0,0:0|0:0,0:0:0:0:
240,157,37652,1,0,1:0:0:0:
277,268,37805,2,0,P|348:224|455:257,1,170,12|0,0:0|0:0,0:0:0:0:
250,372,38265,2,0,L|96:348,1,127.5,12|0,0:0|0:0,0:0:0:0:
92,380,38571,6,0,L|81:327,3,42.5,0|0|0|0,1:0|0:0|0:0|0:0,0:0:0:0:
186,253,38877,2,0,L|194:211,3,42.5,0|0|0|0,1:0|0:0|0:0|0:0,0:0:0:0:
62,113,39183,2,0,L|70:154,3,42.5,0|0|0|0,1:0|0:0|0:0|0:0,0:0:0:0:
23,248,39489,5,8,0:0:0:0:
34,265,39565,1,8,0:0:0:0:
53,275,39642,1,8,0:0:0:0:
74,275,39718,1,8,0:0:0:0:
93,266,39795,1,6,1:0:0:0:
93,266,40101,6,0,L|87:295,6,21.25
107,230,40407,6,0,P|139:273|119:358,1,110.499994941712,4|0,0:1|0:0,0:0:0:0:
24,214,40714,1,8,0:0:0:0:
43,176,40790,1,8,0:0:0:0:
77,152,40867,1,8,0:0:0:0:
119,148,40943,1,8,0:0:0:0:
158,164,41020,6,0,P|221:155|346:146,2,170,4|8|2,1:0|0:0|1:2,0:0:0:0:
333,269,41785,1,0,1:0:0:0:
333,269,41938,2,0,P|378:264|430:252,1,85,8|0,0:0|0:0,0:0:0:0:
238,236,42244,6,0,P|229:277|224:319,1,85,0|0,1:0|0:0,0:0:0:0:
432,152,42550,2,0,P|427:109|418:68,1,85,8|0,0:0|0:0,0:0:0:0:
229,44,42856,1,2,1:2:0:0:
324,191,43009,1,0,1:0:0:0:
192,123,43163,2,0,P|254:126|305:83,1,127.5,8|0,0:0|0:0,0:0:0:0:
229,44,43469,6,0,P|205:76|212:227,1,170,4|8,1:0|0:0,0:0:0:0:
160,329,43928,1,0,0:0:0:0:
160,329,44081,2,0,P|117:327|73:307,1,85,2|0,1:2|1:0,0:0:0:0:
213,204,44387,1,8,0:0:0:0:
278,364,44540,1,0,0:0:0:0:
100,234,44693,6,0,B|65:169|74:103|74:103|134:67,1,170,0|8,1:0|0:0,0:0:0:0:
209,165,45152,2,0,P|251:155|305:149,1,85,0|2,1:0|0:0,0:0:0:0:
106,333,45458,2,0,P|63:327|22:317,1,85,0|8,1:0|0:0,0:0:0:0:
231,196,45765,1,0,1:0:0:0:
231,196,45841,1,0,1:0:0:0:
231,196,45918,6,0,P|280:256|256:358,2,170,0|8|2,1:0|0:0|1:2,0:0:0:0:
199,279,46683,1,0,1:0:0:0:
363,351,46836,2,0,P|378:310|380:267,1,85,8|0,0:0|0:0,0:0:0:0:
500,160,47142,6,0,B|415:132|420:212|321:175,1,170,0|8,1:0|0:0,0:0:0:0:
251,90,47601,1,0,1:0:0:0:
56,337,47907,1,0,1:0:0:0:
154,370,48060,2,0,L|126:227,1,127.5,8|0,0:0|0:0,0:0:0:0:
192,189,48367,6,0,P|115:160|48:208,2,170,4|8|2,1:0|0:0|1:2,0:0:0:0:
280,262,49132,1,0,1:0:0:0:
346,150,49285,2,0,P|332:104|321:46,1,85,8|0,0:0|0:0,0:0:0:0:
230,128,49591,6,0,P|185:114|147:111,1,85,2|0,1:0|0:0,0:0:0:0:
365,250,49897,2,0,P|407:246|447:232,1,85,8|0,0:0|0:0,0:0:0:0:
211,226,50203,1,2,1:0:0:0:
287,371,50356,1,0,1:0:0:0:
365,250,50509,2,0,P|362:205|346:162,1,85,8|8,0:0|0:0,0:0:0:0:
317,136,50739,1,8,0:0:0:0:
278,135,50816,6,0,B|241:210|241:210|250:251|265:319,1,170,4|8,1:0|0:0,0:0:0:0:
88,324,51275,1,0,0:0:0:0:
171,257,51428,1,2,1:2:0:0:
176,365,51581,1,0,1:0:0:0:
176,365,51734,2,0,P|131:366|83:349,1,85,8|0,0:0|0:0,0:0:0:0:
0,247,52040,6,0,P|65:202|162:209,2,170,0|8|2,1:0|0:0|1:2,0:0:0:0:
92,283,52805,1,0,1:0:0:0:
70,105,52958,2,0,P|80:73|94:5,1,85,8|0,0:0|0:0,0:0:0:0:
0,163,53265,6,0,P|65:208|162:201,1,170,4|8,1:0|0:0,0:0:0:0:
276,162,53724,1,0,0:0:0:0:
359,265,53877,2,0,P|312:263|266:234,1,85,2|0,1:2|1:0,0:0:0:0:
252,86,54183,1,8,0:0:0:0:
357,158,54336,1,0,0:0:0:0:
427,55,54489,6,0,P|462:126|439:226,1,170,4|8,1:0|0:0,0:0:0:0:
363,143,54948,1,0,1:0:0:0:
281,293,55101,2,0,P|318:274|361:274,1,85,8|8,0:0|0:0,0:0:0:0:
221,356,55407,2,0,P|200:319|198:276,1,85,8|0,0:0|0:0,0:0:0:0:
446,290,55714,2,0,P|442:247|422:211,1,85,12|0,0:0|0:0,0:0:0:0:
237,189,56020,6,0,L|328:168,1,85,8|0,0:0|1:0,0:0:0:0:
426,10,56326,2,0,L|398:99,1,85,8|0,0:0|1:0,0:0:0:0:
480,273,56632,2,0,L|416:204,1,85,8|0,0:0|1:0,0:0:0:0:
262,36,56938,6,0,P|219:110|238:191,1,170,8|8,0:0|0:0,0:0:0:0:
149,279,57397,1,0,1:0:0:0:
251,293,57550,1,8,0:0:0:0:
89,191,57703,1,0,1:0:0:0:
267,293,57856,1,8,0:0:0:0:
76,356,58009,1,8,0:0:0:0:
76,356,58086,1,8,0:0:0:0:
76,356,58163,6,0,B|62:301|62:301|67:251|92:180,1,170,8|8,0:0|0:0,0:0:0:0:
196,92,58622,1,0,1:0:0:0:
177,9,58775,1,8,0:0:0:0:
107,111,58928,1,0,1:0:0:0:
210,179,59081,1,8,0:0:0:0:
279,77,59234,1,8,0:0:0:0:
279,77,59310,1,8,0:0:0:0:
279,77,59387,6,0,P|234:92|183:96,1,85,8|0,0:0|0:0,0:0:0:0:
368,243,59693,2,0,P|360:201|343:162,1,85,8|0,0:0|0:0,0:0:0:0:
156,340,59999,6,0,P|201:355|252:359,1,85,12|0,0:0|0:0,0:0:0:0:
111,203,60305,2,0,P|68:208|28:222,1,85,12|0,0:0|0:0,0:0:0:0:
167,259,60612,6,0,P|179:154|110:123,2,170,4|8|2,1:0|0:0|1:2,0:0:0:0:
111,203,61377,1,0,1:0:0:0:
246,107,61530,2,0,P|241:64|227:24,1,85,8|0,0:0|0:0,0:0:0:0:
96,0,61836,6,0,P|45:42|76:162,1,170,0|8,1:0|0:0,0:0:0:0:
203,65,62295,1,0,1:0:0:0:
203,65,62448,2,0,P|247:88|293:93,1,85,2|0,1:2|1:0,0:0:0:0:
444,1,62754,2,0,P|402:8|365:29,1,85,8|0,0:0|0:0,0:0:0:0:
427,246,63060,6,0,B|455:205|455:205|453:143|425:80,2,170,0|8|2,1:0|0:0|1:2,0:0:0:0:
259,264,63826,1,0,1:0:0:0:
348,209,63979,1,8,0:0:0:0:
346,311,64132,1,0,0:0:0:0:
257,179,64285,6,0,B|222:184|222:184|193:202|193:202|143:191|96:219,1,170,0|8,1:0|0:0,0:0:0:0:
41,301,64744,1,0,1:0:0:0:
103,18,65050,1,0,1:0:0:0:
30,65,65203,2,0,P|76:98|163:88,1,127.5,8|0,0:0|0:0,0:0:0:0:
187,29,65509,6,0,L|356:16,2,170,0|8|2,1:0|0:0|1:2,0:0:0:0:
302,151,66275,1,0,1:0:0:0:
302,151,66428,2,0,P|259:147|221:129,1,85,8|0,0:0|0:0,0:0:0:0:
145,294,66734,6,0,P|184:276|237:281,1,85,0|0,1:0|0:0,0:0:0:0:
411,284,67040,1,8,0:0:0:0:
366,211,67193,2,0,P|322:281|353:357,1,170,0|0,1:0|1:0,0:0:0:0:
352,356,67652,1,8,0:0:0:0:
478,257,67805,1,8,0:0:0:0:
478,257,67882,1,8,0:0:0:0:
478,257,67958,6,0,P|508:181|464:111,1,170,0|8,1:0|0:0,0:0:0:0:
351,34,68418,1,0,0:0:0:0:
195,109,68571,2,0,L|338:137,1,127.5,2|0,1:2|0:0,0:0:0:0:
336,117,68877,2,0,P|345:75|350:33,1,85,8|0,0:0|0:0,0:0:0:0:
142,234,69183,6,0,P|181:230|236:216,1,85,2|0,1:0|0:0,0:0:0:0:
73,172,69489,1,8,0:0:0:0:
198,315,69642,1,0,1:0:0:0:
60,384,69795,1,2,1:0:0:0:
142,234,69948,1,0,1:0:0:0:
10,323,70101,2,0,P|55:354|145:337,1,127.5,8|8,0:0|0:0,0:0:0:0:
154,318,70407,6,0,B|147:217|206:261|176:126,2,170,4|8|2,1:0|0:0|1:2,0:0:0:0:
99,188,71173,1,0,1:0:0:0:
243,287,71326,1,8,0:0:0:0:
65,289,71479,1,0,0:0:0:0:
243,287,71632,6,0,B|301:311|301:311|385:289,1,127.5,0|0,1:0|0:0,0:0:0:0:
390,256,71938,2,0,B|488:278|487:278,1,85,8|0,0:0|0:0,0:0:0:0:
308,211,72244,1,2,1:2:0:0:
434,143,72397,1,0,1:0:0:0:
355,45,72550,2,0,P|337:81|322:142,1,85,8|0,0:0|0:0,0:0:0:0:
308,211,72856,6,0,B|262:222|206:187|206:187|182:216|139:223,1,170,4|8,1:0|0:0,0:0:0:0:
154,219,73316,1,0,0:0:0:0:
86,316,73469,2,0,P|67:278|56:238,1,85,2|0,1:2|1:0,0:0:0:0:
78,68,73775,1,8,0:0:0:0:
206,187,73928,1,0,0:0:0:0:
18,127,74081,6,0,P|102:146|163:71,1,170,4|8,1:0|0:0,0:0:0:0:
268,34,74540,1,0,1:0:0:0:
344,189,74693,1,8,0:0:0:0:
286,54,74846,1,0,1:0:0:0:
207,227,74999,1,8,0:0:0:0:
282,85,75152,1,0,1:0:0:0:
367,265,75305,5,12,0:0:0:0:
367,265,75612,1,8,0:0:0:0:
316,152,75765,1,0,1:0:0:0:
429,102,75918,1,8,0:0:0:0:
479,214,76071,5,0,1:0:0:0:
342,80,76224,1,8,0:0:0:0:
282,235,76377,1,0,1:0:0:0:
448,296,76530,6,0,P|382:286|324:340,1,127.5,8|0,0:0|0:0,0:0:0:0:
277,357,76836,2,0,P|226:355|178:343,1,85,8|0,0:0|1:0,0:0:0:0:
247,178,77142,2,0,P|263:226|269:275,1,85,8|0,0:0|1:0,0:0:0:0:
76,364,77448,2,0,P|61:324|54:282,1,85,8|0,0:0|1:0,0:0:0:0:
141,142,77754,5,8,0:0:0:0:
141,142,78060,5,8,0:0:0:0:
241,184,78214,1,0,1:0:0:0:
101,211,78367,5,8,0:0:0:0:
285,104,78520,1,0,1:0:0:0:
147,62,78673,5,12,0:0:0:0:
333,244,78826,1,0,1:0:0:0:
339,236,78902,1,0,1:0:0:0:
346,228,78979,6,0,L|486:209,1,127.5,12|0,0:0|0:0,0:0:0:0:
424,144,79285,2,0,L|327:131,1,85,12|0,0:0|0:0,0:0:0:0:
229,187,79591,5,4,0:3:0:0:
177,70,79744,1,4,0:3:0:0:
287,15,79897,1,8,0:3:0:0:
339,132,80050,1,8,0:3:0:0:
155,228,80203,6,2,P|260:225|292:280,1,178.499994552612,2|0,0:1|0:1,0:1:0:0:
180,360,81428,6,0,P|189:338|193:315,3,42.5,0|0|0|0,1:0|0:0|0:0|0:0,0:0:0:0:
291,279,81734,2,0,P|282:257|278:234,3,42.5,0|0|0|0,1:0|0:0|0:0|0:0,0:0:0:0:
195,148,82040,6,0,P|204:126|208:103,3,42.5,0|0|0|0,1:0|0:0|0:0|0:0,0:0:0:0:
358,88,82346,2,0,P|349:68|345:47,3,42.5,8|8|8|8,0:0|0:0|0:0|0:0,0:0:0:0:
297,31,82652,6,0,B|210:55|212:3|128:28,1,170,4|8,1:0|0:0,0:0:0:0:
22,106,83112,1,0,0:0:0:0:
76,212,83265,1,0,1:0:0:0:
181,169,83418,1,0,1:0:0:0:
128,107,83571,2,0,B|98:142|98:142|94:187|109:222,1,127.5,8|0,0:0|0:0,0:0:0:0:
135,258,83877,6,0,L|246:241,1,85,0|0,1:0|0:0,0:0:0:0:
339,190,84183,2,0,L|321:298,1,85,8|0,0:0|0:0,0:0:0:0:
275,119,84489,1,0,1:0:0:0:
437,213,84642,1,0,1:0:0:0:
437,213,84795,2,0,L|423:129,1,85,8|0,0:0|0:0,0:0:0:0:
493,20,85101,6,0,P|450:69|343:70,1,170,0|8,1:0|0:0,0:0:0:0:
135,143,85560,2,0,P|217:139|277:196,1,170,0|0,1:0|0:0,0:0:0:0:
422,295,86020,2,0,P|374:275|326:271,1,85,8|0,0:0|0:0,0:0:0:0:
160,380,86326,6,0,B|203:291|136:299|185:204,2,170,4|8|8,1:0|0:0|0:0,0:0:0:0:
89,295,87091,1,0,1:0:0:0:
258,264,87244,1,4,0:3:0:0:
258,264,87397,1,4,0:3:0:0:
58,365,87550,6,0,P|13:302|68:223,1,170,4|8,1:0|0:0,0:0:0:0:
21,75,88009,2,0,L|200:115,1,170,0|0,1:0|0:0,0:0:0:0:
173,271,88469,2,0,P|156:230|157:175,1,85,8|0,0:0|0:0,0:0:0:0:
312,28,88775,2,0,P|328:66|330:109,1,85,0|0,1:0|0:0,0:0:0:0:
260,204,89081,5,8,0:0:0:0:
186,112,89234,1,0,1:0:0:0:
367,193,89387,2,0,L|486:176,1,85,0|0,1:0|1:0,0:0:0:0:
261,304,89693,2,0,L|142:287,1,85,8|0,0:0|0:0,0:0:0:0:
393,360,89999,6,0,L|365:183,2,170,4|8|0,1:0|0:0|1:2,0:0:0:0:
274,218,90765,1,0,1:0:0:0:
472,235,90918,1,8,0:0:0:0:
472,235,91071,1,0,0:0:0:0:
288,330,91224,6,0,B|198:305|213:364|123:348,1,170,12|8,0:0|0:0,0:0:0:0:
187,227,91683,1,0,1:0:0:0:
51,242,91836,1,8,0:0:0:0:
211,211,91989,1,0,1:0:0:0:
67,104,92142,1,4,0:3:0:0:
240,197,92295,1,4,0:3:0:0:
26,250,92448,6,0,P|5:178|52:90,1,170,4|8,1:0|0:0,0:0:0:0:
267,184,92907,2,0,P|305:257|285:338,1,170,0|0,1:0|1:0,0:0:0:0:
140,369,93367,2,0,L|160:285,1,85,8|0,0:0|0:0,0:0:0:0:
247,101,93673,1,0,1:0:0:0:
247,101,93979,6,0,L|267:185,1,85,8|0,0:0|0:0,0:0:0:0:
76,268,94285,2,0,P|117:280|165:285,1,85,0|0,1:0|1:0,0:0:0:0:
98,129,94591,2,0,P|55:133|15:145,1,85,8|0,0:0|0:0,0:0:0:0:
140,197,94897,6,0,P|173:125|95:50,1,170,0|8,1:0|0:0,0:0:0:0:
76,268,95356,2,0,P|141:287|249:295,1,170,0|0,1:0|1:0,0:0:0:0:
342,175,95816,2,0,P|283:184|228:206,1,85,8|0,0:0|1:0,0:0:0:0:
81,353,96122,2,0,P|139:343|194:321,1,85,4|0,1:0|0:0,0:0:0:0:
316,281,96428,5,8,0:0:0:0:
201,155,96581,1,0,1:0:0:0:
106,271,96734,1,8,0:0:0:0:
306,248,96887,1,0,1:0:0:0:
130,90,97040,1,8,0:0:0:0:
205,260,97193,1,0,1:0:0:0:
355,91,97346,6,0,P|293:53|190:76,1,170,4|8,1:0|0:0,0:0:0:0:
43,219,97805,2,0,B|104:209|104:209|144:185|144:185|209:179,1,170,0|0,1:0|1:0,0:0:0:0:
340,212,98265,2,0,L|327:295,1,85,8|0,0:0|0:0,0:0:0:0:
179,384,98571,2,0,L|166:301,1,85,0|0,1:0|0:0,0:0:0:0:
165,119,98877,1,8,0:0:0:0:
165,119,99030,1,0,1:0:0:0:
39,197,99183,2,0,L|131:214,1,85,0|0,1:0|1:0,0:0:0:0:
324,64,99489,1,8,0:0:0:0:
165,119,99642,1,0,0:0:0:0:
290,229,99795,6,0,B|327:191|308:104|308:104|264:129,1,170,4|8,1:0|0:0,0:0:0:0:
191,234,100254,1,8,0:0:0:0:
191,234,100331,1,8,0:0:0:0:
191,234,100407,1,8,0:0:0:0:
334,297,100560,2,8,L|397:287,1,42.5
290,228,100714,2,0,P|259:271|273:352,1,127.5,12|0,0:0|0:0,0:0:0:0:
277,367,101020,5,8,0:0:0:0:
107,326,101173,1,8,0:0:0:0:
70,310,101479,5,8,0:0:0:0:
240,269,101632,1,8,0:0:0:0:
275,252,101938,5,8,0:0:0:0:
105,211,102091,1,8,0:0:0:0:
70,193,102397,5,8,0:0:0:0:
240,152,102550,2,0,L|221:61,1,85,8|0,0:0|0:0,0:0:0:0:
370,263,102856,6,0,L|271:244,1,85,4|4,0:3|0:3,0:0:0:0:
377,157,103163,1,12,0:3:0:0:
331,361,103316,1,4,1:1:0:0:
256,192,103392,12,0,109591,0:0:0:0:
