osu file format v14

[General]
AudioFilename: audio.mp3
AudioLeadIn: 0
PreviewTime: 39719
Countdown: 0
SampleSet: Soft
StackLeniency: 0.7
Mode: 0
LetterboxInBreaks: 0
WidescreenStoryboard: 1

[Editor]
Bookmarks: 612,5509,11632,21428,31224,36122,41020,55714,60612,75305,80203,81428,82652,92448,103469,109285
DistanceSpacing: 1
BeatDivisor: 2
GridSize: 32
TimelineZoom: 1

[Metadata]
Title:Koisuru MODE
TitleUnicode:恋するMODE
Artist:Rin'ca
ArtistUnicode:Rin'ca
Creator:Ozato Fumika
Version:Civil oath's Normal
Source:D.C.4 ~ダ・カーポ4~
Tags:Japanese JP Jpop J-pop pop yozuca* Nekusam Visual Novel VN Vocals Galgame 美少女ゲーム Video Game Circus D.C.4 ~Da Capo 4~ 2nd op opening 鷺澤有里栖 Sagisawa Arisu 常坂二乃 Tokisaka Nino 逢見諳子 Oumi Sorane 白河ひより Shirakawa Hiyori 鳳城詩名 Houjyou Shiina 美嶋未羽 Mishima Miu 日野原ちよ子 Hinohara Chiyoko DC4 Momochikun Erisu Momoyo momoka moeka shioi no dap civil oath wen Rinca D.C.4 〜ダ・カーポ4〜
BeatmapID:4440961
BeatmapSetID:2110359

[Difficulty]
HPDrainRate:4
CircleSize:3.5
OverallDifficulty:4.5
ApproachRate:5.5
SliderMultiplier:1
SliderTickRate:1

[Events]
//Background and Video events
0,0,"Miu.jpg",0,0
//Break Periods
2,31424,34231
//Storyboard Layer 0 (Background)
//Storyboard Layer 1 (Fail)
//Storyboard Layer 2 (Pass)
//Storyboard Layer 3 (Foreground)
//Storyboard Layer 4 (Overlay)
//Storyboard Sound Samples

[TimingPoints]
612,306.122448979592,4,2,1,30,1,0
612,-125,4,2,1,30,0,0
4897,-125,4,2,1,50,0,0
5203,-125,4,2,1,70,0,0
5509,-100,4,2,1,70,0,0
11632,-111.111111111111,4,2,1,50,0,0
21428,-105.263157894737,4,2,1,60,0,0
31147,-105.263157894737,4,2,1,5,0,0
31224,-117.647058823529,4,2,1,45,0,0
35816,-117.647058823529,4,2,1,60,0,0
36122,-100,4,2,1,55,0,0
38418,-100,4,2,1,40,0,0
38571,-100,4,2,1,45,0,0
38877,-100,4,2,1,50,0,0
39183,-100,4,2,1,55,0,0
39489,-100,4,2,1,60,0,0
39642,-100,4,2,1,65,0,0
41020,-90.9090909090909,4,2,1,70,0,1
80203,-100,4,2,1,30,0,0
81351,-100,4,2,1,5,0,0
81428,-100,4,2,1,40,0,0
81734,-100,4,2,1,45,0,0
82040,-105.263157894737,4,2,1,50,0,0
82346,-105.263157894737,4,2,1,60,0,0
82652,-100,4,2,1,70,0,0
92448,-100,4,2,1,70,0,0
94897,-100,4,2,1,70,0,0
104693,-100,4,2,1,50,0,0
105918,-100,4,2,1,40,0,0
107145,-100,4,2,1,20,0,0
108367,-100,4,2,1,10,0,0
109285,-100,4,2,1,5,0,0

[Colours]
Combo1 : 253,253,0
Combo2 : 242,140,184
Combo3 : 255,70,70
Combo4 : 102,255,102
Combo5 : 79,167,255
Combo6 : 255,131,70

[HitObjects]
384,288,612,6,0,P|443:309|534:324,2,120,2|2|2,0:0|0:0|0:0,0:0:0:0:
255,383,2142,2,0,P|242:353|201:329,1,80,2|2,0:0|0:0,0:0:0:0:
124,346,2754,1,2,0:0:0:0:
148,269,3060,6,0,P|110:240|106:167,2,120,2|2|2,0:0|0:0|0:0,0:0:0:0:
202,328,4285,2,0,P|226:302|269:309,1,80,2|0,0:0|0:0,0:0:0:0:
336,265,4897,2,0,P|343:304|362:339,1,80,2|0,0:0|3:0,0:0:0:0:
269,377,5509,6,0,P|255:303|219:238,1,150,2|2,3:0|0:0,0:0:0:0:
189,197,6122,2,0,P|199:135|215:97,1,100,0|2,0:0|3:0,0:0:0:0:
234,3,6734,2,0,P|189:23|140:31,1,100,2|0,3:0|3:0,0:0:0:0:
44,61,7346,2,0,P|84:90|116:128,1,100,2|0,3:0|3:0,0:0:0:0:
189,197,7958,6,0,P|171:243|165:293,1,100,4|0,3:0|1:0,0:0:0:0:
231,369,8571,1,8,0:0:0:0:
316,317,8877,2,0,P|347:322|379:342,1,50,0|0,3:0|3:0,0:0:0:0:
408,353,9183,5,8,0:0:0:0:
408,353,9336,2,0,P|425:306|431:256,1,100,8|8,0:0|0:0,0:0:0:0:
475,278,9795,1,8,0:0:0:0:
497,179,10101,1,8,0:0:0:0:
497,179,10254,2,0,P|473:152|412:150,1,100,8|8,0:0|0:0,0:0:0:0:
367,172,10714,1,8,0:0:0:0:
512,337,11632,6,0,P|467:340|433:368,1,89.9999972534181,4|0,3:0|3:0,0:0:0:0:
379,297,12244,1,0,3:0:0:0:
294,265,12550,2,0,P|289:307|285:317,1,44.999998626709,2|0,3:0|0:0,0:0:0:0:
287,354,12856,2,0,P|221:349|163:381,1,134.999995880127,2|2,3:0|0:0,0:0:0:0:
86,334,13622,2,0,P|50:304|47:255,1,89.9999972534181,2|0,0:0|0:0,0:0:0:0:
0,254,14081,6,0,P|11:211|11:166,1,89.9999972534181,2|0,3:0|3:0,0:0:0:0:
53,87,14693,1,0,3:0:0:0:
140,112,14999,1,2,3:0:0:0:
165,25,15305,2,0,P|235:37|249:73,1,89.9999972534181,2|2,3:0|3:0,0:0:0:0:
299,118,15918,2,0,P|332:90|376:95,1,89.9999972534181,2|2,3:0|3:0,0:0:0:0:
462,122,16530,6,0,P|485:78|494:14,2,89.9999972534181,0|0|0,3:0|3:0|3:0,0:0:0:0:
435,208,17448,1,2,3:0:0:0:
496,273,17754,2,0,P|490:318|454:349,1,89.9999972534181,2|0,3:0|3:0,0:0:0:0:
422,374,18214,2,0,P|372:330|306:323,1,134.999995880127,2|2,0:0|3:0,0:0:0:0:
219,299,18979,6,0,P|215:343|248:389,2,89.9999972534181,2|0|0,3:0|3:0|3:0,0:0:0:0:
283,236,19897,1,2,3:0:0:0:
369,259,20203,2,0,P|379:213|391:170,1,89.9999972534181,2|0,3:0|3:0,0:0:0:0:
456,116,20816,2,0,P|462:92|441:38,2,44.999998626709,0|0|0,3:0|3:0|3:0,0:0:0:0:
376,86,21428,6,0,P|330:76|300:38,1,94.9999974632264,4|8,3:0|0:0,0:0:0:0:
221,91,22040,1,0,3:0:0:0:
176,7,22346,2,0,P|132:0|84:33,1,94.9999974632264,8|0,0:0|3:0,0:0:0:0:
61,114,22958,1,8,0:0:0:0:
61,114,23112,2,0,P|49:170|23:236,1,94.9999974632264,0|0,3:0|3:0,0:0:0:0:
75,233,23571,1,8,0:0:0:0:
1,291,23877,6,0,P|26:330|87:353,1,94.9999974632264,0|8,3:0|0:0,0:0:0:0:
155,313,24489,1,0,3:0:0:0:
226,375,24795,2,0,P|240:356|246:333,1,47.4999987316132,8|0,0:0|0:0,0:0:0:0:
272,293,25101,2,0,P|318:302|363:317,1,94.9999974632264,0|8,3:0|0:0,0:0:0:0:
457,336,25714,2,0,P|442:291|433:245,1,94.9999974632264,0|8,3:0|0:0,0:0:0:0:
508,186,26326,6,0,P|476:153|430:150,1,94.9999974632264,0|8,3:0|0:0,0:0:0:0:
339,117,26938,2,0,P|333:89|320:56,2,47.4999987316132,0|0|8,3:0|3:0|0:0,0:0:0:0:
294,202,27550,2,0,P|284:248|269:293,1,94.9999974632264,0|8,3:0|0:0,0:0:0:0:
289,336,28009,2,0,P|243:323|197:333,1,94.9999974632264,0|0,3:0|3:0,0:0:0:0:
163,299,28469,1,8,0:0:0:0:
96,365,28775,6,0,P|49:356|22:291,1,94.9999974632264,0|8,3:0|0:0,0:0:0:0:
0,227,29387,2,0,P|31:190|101:199,1,94.9999974632264,0|8,3:0|0:0,0:0:0:0:
167,212,29999,2,0,P|179:157|194:115,1,94.9999974632264,4|8,3:0|0:0,0:0:0:0:
226,88,30458,1,8,0:0:0:0:
226,88,30612,2,0,P|218:45|214:31,2,47.4999987316132,8|8|0,0:0|0:0|3:0,0:0:0:0:
263,166,31224,5,4,3:0:0:0:
447,68,35356,6,0,P|442:47|439:26,2,42.5000008106232,8|8|0,0:0|0:0|3:0,0:0:0:0:
418,99,35816,1,8,0:0:0:0:
487,170,36122,6,0,P|441:186|408:252,1,100,4|0,3:0|3:0,0:0:0:0:
366,206,36581,2,0,P|393:255|383:312,1,100,4|0,3:0|3:0,0:0:0:0:
433,321,37040,1,4,3:0:0:0:
355,380,37346,2,0,P|305:367|250:363,1,100,4|0,3:0|3:0,0:0:0:0:
281,319,37805,2,0,P|235:319|212:255,1,100,4|0,3:0|3:0,0:0:0:0:
164,297,38265,1,4,3:0:0:0:
94,366,38571,6,0,P|85:313|68:257,1,100,4|0,3:0|3:0,0:0:0:0:
84,220,39030,1,0,3:0:0:0:
84,220,39183,2,0,P|50:211|26:200,2,50,0|0|0,3:0|3:0|3:0,0:0:0:0:
182,239,39795,1,10,0:0:0:0:
44,384,40407,2,0,P|111:362|164:361,1,100,0|8,3:0|0:0,0:0:0:0:
247,382,41020,6,0,P|290:344|295:294,1,110.000003356934,4|8,3:0|0:0,0:0:0:0:
388,236,41632,2,0,P|359:194|336:179,1,55.0000016784668,0|0,3:0|3:0,0:0:0:0:
304,180,41938,1,8,0:0:0:0:
194,190,42244,2,0,P|220:103|228:61,1,110.000003356934,0|8,3:0|0:0,0:0:0:0:
194,37,42703,1,0,3:0:0:0:
194,37,42856,2,0,P|231:5|309:43,1,110.000003356934,0|8,3:0|0:0,0:0:0:0:
379,75,43469,6,0,P|438:70|507:51,1,110.000003356934,0|8,3:0|0:0,0:0:0:0:
512,165,44081,2,0,P|482:167|448:177,1,55.0000016784668,0|0,3:0|3:0,0:0:0:0:
418,211,44387,1,8,0:0:0:0:
447,316,44693,2,0,P|397:294|336:288,1,110.000003356934,0|8,3:0|0:0,0:0:0:0:
300,323,45152,2,0,P|290:271|258:218,1,110.000003356934,0|0,3:0|3:0,0:0:0:0:
224,181,45612,1,8,0:0:0:0:
152,264,45918,6,0,P|162:316|194:369,2,110.000003356934,0|8|0,3:0|0:0|3:0,0:0:0:0:
139,210,46683,1,0,3:0:0:0:
139,210,46836,1,8,0:0:0:0:
34,245,47142,2,0,P|22:184|57:137,1,110.000003356934,0|8,3:0|0:0,0:0:0:0:
44,90,47601,2,0,P|104:74|174:42,1,110.000003356934,0|0,3:0|3:0,0:0:0:0:
178,9,48060,1,8,0:0:0:0:
252,89,48367,6,0,P|284:46|340:37,2,110.000003356934,0|8|0,3:0|0:0|3:0,0:0:0:0:
205,118,49132,1,0,3:0:0:0:
205,118,49285,2,0,P|214:151|219:178,1,55.0000016784668,8|0,0:0|0:0,0:0:0:0:
241,221,49591,1,0,3:0:0:0:
343,180,49897,2,0,P|336:207|330:234,1,55.0000016784668,8|0,0:0|3:0,0:0:0:0:
318,287,50203,2,0,P|370:296|403:339,1,110.000003356934,0|8,0:0|0:0,0:0:0:0:
453,363,50663,1,8,0:0:0:0:
453,363,50816,6,0,P|467:310|478:256,1,110.000003356934,4|8,3:0|0:0,0:0:0:0:
509,150,51428,2,0,P|497:117|493:82,1,55.0000016784668,0|0,3:0|3:0,0:0:0:0:
510,44,51734,1,8,0:0:0:0:
409,2,52040,2,0,P|357:18|334:68,1,110.000003356934,0|8,3:0|0:0,0:0:0:0:
360,113,52499,2,0,P|294:89|224:81,1,110.000003356934,0|0,3:0|3:0,0:0:0:0:
200,79,52958,1,8,0:0:0:0:
122,0,53265,6,0,P|111:53|91:105,1,110.000003356934,0|8,3:0|0:0,0:0:0:0:
163,187,53877,2,0,P|99:213|75:205,1,55.0000016784668,0|0,3:0|3:0,0:0:0:0:
68,186,54183,1,8,0:0:0:0:
32,292,54489,2,0,P|90:306|122:362,1,110.000003356934,4|8,3:0|0:0,0:0:0:0:
163,375,54948,1,0,3:0:0:0:
163,375,55101,2,0,P|189:369|216:364,1,55.0000016784668,8|0,0:0|3:0,0:0:0:0:
268,382,55407,2,0,P|287:363|308:345,1,55.0000016784668,8|0,0:0|3:0,0:0:0:0:
290,292,55714,6,0,P|358:302|436:315,1,110.000003356934,12|8,0:0|0:0,0:0:0:0:
451,212,56326,2,0,P|483:228|512:235,2,55.0000016784668,8|0|8,0:0|3:0|0:0,0:0:0:0:
397,224,56785,1,0,3:0:0:0:
397,224,56938,2,0,P|363:148|375:109,1,110.000003356934,8|8,0:0|0:0,0:0:0:0:
341,18,57550,2,0,P|332:41|308:68,1,55.0000016784668,8|0,0:0|3:0,0:0:0:0:
285,111,57856,2,0,P|252:104|227:109,1,55.0000016784668,8|0,0:0|3:0,0:0:0:0:
193,67,58163,6,0,P|179:130|157:182,1,110.000003356934,8|8,0:0|0:0,0:0:0:0:
189,219,58622,1,0,3:0:0:0:
189,219,58775,2,0,P|137:199|83:188,1,110.000003356934,8|8,0:0|0:0,0:0:0:0:
31,171,59234,1,0,3:0:0:0:
31,171,59387,1,12,0:0:0:0:
7,64,59693,2,0,P|33:58|59:48,1,55.0000016784668,8|8,0:0|0:0,0:0:0:0:
92,4,59999,2,0,P|144:24|198:35,1,110.000003356934,8|0,0:0|3:0,0:0:0:0:
301,0,60612,6,0,P|345:29|351:82,1,110.000003356934,4|8,3:0|0:0,0:0:0:0:
406,177,61224,2,0,P|380:201|356:206,1,55.0000016784668,0|0,3:0|3:0,0:0:0:0:
308,196,61530,1,8,0:0:0:0:
200,172,61836,2,0,P|220:230|230:282,1,110.000003356934,0|8,3:0|0:0,0:0:0:0:
202,325,62295,1,0,3:0:0:0:
202,325,62448,2,0,P|230:365|306:363,1,110.000003356934,0|8,3:0|0:0,0:0:0:0:
376,311,63060,6,0,P|434:331|486:341,1,110.000003356934,0|8,3:0|0:0,0:0:0:0:
511,235,63673,2,0,P|485:226|458:219,1,55.0000016784668,0|0,3:0|3:0,0:0:0:0:
411,190,63979,1,8,0:0:0:0:
502,133,64285,2,0,P|492:77|445:37,1,110.000003356934,0|8,3:0|0:0,0:0:0:0:
419,0,64744,2,0,P|379:28|365:102,1,110.000003356934,0|0,3:0|3:0,0:0:0:0:
360,139,65203,1,8,0:0:0:0:
256,106,65509,6,0,P|217:67|209:14,2,110.000003356934,0|8|0,3:0|0:0|3:0,0:0:0:0:
239,158,66275,1,0,3:0:0:0:
239,158,66428,1,8,0:0:0:0:
136,113,66734,2,0,P|97:151|89:204,1,110.000003356934,0|8,3:0|0:0,0:0:0:0:
40,229,67193,2,0,P|92:262|144:335,1,110.000003356934,0|0,3:0|3:0,0:0:0:0:
174,276,67652,1,8,0:0:0:0:
278,243,67958,6,0,P|261:315|252:371,2,110.000003356934,0|8|0,3:0|0:0|3:0,0:0:0:0:
235,207,68724,1,0,3:0:0:0:
235,207,68877,2,0,P|226:179|211:145,1,55.0000016784668,8|0,0:0|0:0,0:0:0:0:
194,104,69183,1,0,3:0:0:0:
298,70,69489,2,0,P|307:42|322:8,1,55.0000016784668,8|0,0:0|3:0,0:0:0:0:
368,0,69795,2,0,P|408:40|487:45,1,110.000003356934,0|8,0:0|0:0,0:0:0:0:
500,87,70254,1,8,0:0:0:0:
500,87,70407,6,0,P|482:143|452:211,1,110.000003356934,4|8,3:0|0:0,0:0:0:0:
511,289,71020,2,0,P|471:305|459:317,1,55.0000016784668,0|0,3:0|3:0,0:0:0:0:
436,360,71326,1,8,0:0:0:0:
328,383,71632,2,0,P|276:358|265:309,1,110.000003356934,0|8,3:0|0:0,0:0:0:0:
282,258,72091,2,0,P|226:279|150:294,1,110.000003356934,0|0,3:0|3:0,0:0:0:0:
122,293,72550,1,8,0:0:0:0:
63,384,72856,6,0,P|50:330|30:279,1,110.000003356934,0|8,3:0|0:0,0:0:0:0:
116,211,73469,2,0,P|69:197|45:176,1,55.0000016784668,0|0,3:0|3:0,0:0:0:0:
20,162,73775,1,8,0:0:0:0:
61,66,74081,2,0,P|95:113|152:122,1,110.000003356934,4|8,3:0|0:0,0:0:0:0:
178,165,74540,1,0,3:0:0:0:
178,165,74693,2,0,P|207:147|220:127,1,55.0000016784668,8|0,0:0|3:0,0:0:0:0:
273,127,74999,2,0,P|280:93|275:70,1,55.0000016784668,8|0,0:0|3:0,0:0:0:0:
262,20,75305,6,0,P|320:13|380:3,1,110.000003356934,12|8,0:0|0:0,0:0:0:0:
463,64,75918,2,0,P|482:28|492:14,2,55.0000016784668,8|0|8,0:0|3:0|0:0,0:0:0:0:
485,114,76377,1,0,3:0:0:0:
485,114,76530,2,0,P|431:138|418:186,1,110.000003356934,8|8,0:0|0:0,0:0:0:0:
391,290,77142,2,0,P|367:275|341:266,1,55.0000016784668,8|0,0:0|3:0,0:0:0:0:
313,218,77448,2,0,P|294:258|280:275,1,55.0000016784668,8|0,0:0|3:0,0:0:0:0:
266,318,77754,6,0,P|213:297|153:285,1,110.000003356934,8|8,0:0|0:0,0:0:0:0:
138,235,78214,1,0,3:0:0:0:
138,235,78367,2,0,P|126:288|105:339,1,110.000003356934,8|8,0:0|0:0,0:0:0:0:
58,368,78826,1,0,3:0:0:0:
58,368,78979,2,0,P|23:374|-11:389,2,55.0000016784668,12|0|8,0:0|0:0|0:0,0:0:0:0:
41,259,79591,2,0,P|94:280|154:292,1,110.000003356934,8|0,0:0|3:0,0:0:0:0:
256,192,80203,12,0,81428,3:0:0:0:
160,285,82040,6,0,P|139:247|83:238,1,94.9999974632264,0|8,3:0|0:0,0:0:0:0:
1,192,82652,6,0,P|26:133|97:124,1,100,4|8,3:0|0:0,0:0:0:0:
112,36,83265,2,0,P|123:58|143:72,1,50,0|0,3:0|3:0,0:0:0:0:
182,103,83571,1,8,0:0:0:0:
275,66,83877,1,0,3:0:0:0:
312,159,84183,1,8,0:0:0:0:
312,159,84336,2,0,P|331:212|334:262,1,100,0|0,3:0|3:0,0:0:0:0:
357,299,84795,1,8,0:0:0:0:
435,234,85101,6,0,P|416:181|413:131,1,100,0|8,3:0|0:0,0:0:0:0:
478,54,85714,2,0,P|456:29|430:22,1,50,0|0,3:0|3:0,0:0:0:0:
391,21,86020,1,8,0:0:0:0:
293,0,86326,1,4,3:0:0:0:
271,97,86632,2,0,P|267:131|262:157,1,50,8|0,0:0|3:0,0:0:0:0:
268,196,86938,2,0,P|243:191|218:189,1,50,8|8,0:0|0:0,0:0:0:0:
174,213,87244,1,0,3:0:0:0:
129,121,87550,6,0,P|81:130|52:180,1,100,4|8,3:0|0:0,0:0:0:0:
1,255,88163,2,0,P|16:297|18:315,1,50,0|0,3:0|3:0,0:0:0:0:
2,350,88469,1,8,0:0:0:0:
95,383,88775,2,0,P|143:374|172:324,1,100,0|8,3:0|0:0,0:0:0:0:
212,361,89234,1,0,3:0:0:0:
251,269,89540,1,0,3:0:0:0:
251,269,89693,2,0,P|276:297|289:303,1,50,8|0,0:0|0:0,0:0:0:0:
313,344,89999,6,0,P|364:349|435:367,1,100,0|8,3:0|0:0,0:0:0:0:
453,384,90458,1,0,3:0:0:0:
491,297,90765,1,0,3:0:0:0:
491,297,90918,2,0,P|479:269|472:250,1,50,8|0,0:0|0:0,0:0:0:0:
429,223,91224,2,0,P|433:173|444:124,1,100,4|8,3:0|0:0,0:0:0:0:
415,48,91836,2,0,P|413:23|407:-1,2,50,8|8|0,0:0|0:0|3:0,0:0:0:0:
375,78,92295,1,0,3:0:0:0:
375,78,92448,6,0,P|327:82|285:121,1,100,4|8,3:0|0:0,0:0:0:0:
216,38,93060,2,0,P|209:71|194:98,1,50,0|0,3:0|3:0,0:0:0:0:
171,125,93367,1,8,0:0:0:0:
71,115,93673,1,0,3:0:0:0:
62,215,93979,1,8,0:0:0:0:
62,215,94132,2,0,P|86:258|102:305,1,100,0|0,3:0|3:0,0:0:0:0:
122,351,94591,1,8,0:0:0:0:
185,271,94897,6,0,P|160:227|144:180,1,100,0|8,3:0|0:0,0:0:0:0:
58,129,95509,2,0,P|65:105|78:83,1,50,0|0,3:0|3:0,0:0:0:0:
114,48,95816,1,8,0:0:0:0:
206,24,96122,1,4,3:0:0:0:
244,102,96428,2,0,P|273:88|309:81,1,50,8|0,0:0|3:0,0:0:0:0:
319,42,96734,2,0,P|341:52|365:60,1,50,8|8,0:0|0:0,0:0:0:0:
411,41,97040,1,0,3:0:0:0:
465,126,97346,6,0,P|504:159|512:205,1,100,4|8,3:0|0:0,0:0:0:0:
512,305,97958,2,0,P|485:295|452:290,1,50,0|0,3:0|3:0,0:0:0:0:
416,307,98265,1,8,0:0:0:0:
374,380,98571,2,0,P|335:347|327:301,1,100,0|8,3:0|0:0,0:0:0:0:
331,250,99030,1,0,3:0:0:0:
296,155,99336,1,0,3:0:0:0:
296,155,99489,2,0,P|277:173|255:184,1,50,8|0,0:0|0:0,0:0:0:0:
222,220,99795,6,0,P|181:228|97:266,1,100,4|8,3:0|0:0,0:0:0:0:
40,301,100407,2,0,P|35:276|26:253,1,50,8|8,0:0|0:0,0:0:0:0:
5,207,100714,2,0,P|29:201|52:192,1,50,0|0,3:0|3:0,0:0:0:0:
94,164,101020,5,8,0:0:0:0:
94,164,101173,1,8,0:0:0:0:
193,172,101479,1,8,0:0:0:0:
193,172,101632,1,8,0:0:0:0:
292,180,101938,1,8,0:0:0:0:
292,180,102091,1,8,0:0:0:0:
391,188,102397,1,8,0:0:0:0:
391,188,102550,1,8,0:0:0:0:
490,196,102856,6,0,P|479:270|429:352,1,150,8|12,0:0|0:0,0:0:0:0:
256,192,103469,12,0,109285,0:0:0:0:
