osu file format v14

[General]
AudioFilename: Koisuru MODE.mp3
AudioLeadIn: 0
PreviewTime: 171952
Countdown: 0
SampleSet: Soft
StackLeniency: 0.3
Mode: 0
LetterboxInBreaks: 0
WidescreenStoryboard: 1

[Editor]
DistanceSpacing: 0.4
BeatDivisor: 4
GridSize: 8
TimelineZoom: 1.5

[Metadata]
Title:Koisuru MODE
TitleUnicode:恋するMODE
Artist:Rin'ca
ArtistUnicode:Rin'ca
Creator:Hakusui3820
Version:DAHKJDAS'S EXTRA
Source:D.C.4 〜ダ・カーポ4〜
Tags:Alexsander Shikibe Mayu Kazato Asa Shizuku- dahkjdas Japanese JP Jpop J-pop pop yozuca* Nekusam Visual Novel VN Vocals Galgame 美少女ゲーム Video Game Circus D.C.4 ~Da Capo 4~ 2nd OP Second Opening Full Version 鷺澤有里栖 Sagisawa Arisu 常坂二乃 Tokisaka Nino 逢見諳子 Oumi Sorane 白河ひより Shirakawa Hiyori 鳳城詩名 Houjyou Shiina 美嶋未羽 Mishima Miu 日野原ちよ子 Hinohara Chiyoko
BeatmapID:3063026
BeatmapSetID:1457658

[Difficulty]
HPDrainRate:7
CircleSize:4
OverallDifficulty:9
ApproachRate:9.4
SliderMultiplier:1.7
SliderTickRate:1

[Events]
//Background and Video events
0,0,"Nino.jpg",0,0
//Break Periods
2,31412,34805
2,92637,94040
2,102433,105825
2,153861,159856
//Storyboard Layer 0 (Background)
//Storyboard Layer 1 (Fail)
//Storyboard Layer 2 (Pass)
//Storyboard Layer 3 (Foreground)
//Storyboard Layer 4 (Overlay)
//Storyboard Sound Samples

[TimingPoints]
-624,306.122448979592,4,2,1,60,1,0
600,-133.333333333333,4,2,1,15,0,0
4886,-100,4,2,1,15,0,0
5115,-100,4,2,1,15,0,0
5192,-80,4,2,1,45,0,0
5498,-90.9090909090909,4,2,1,55,0,0
7947,-90.9090909090909,4,2,1,65,0,0
8177,-90.9090909090909,4,2,1,65,0,0
8253,-90.9090909090909,4,2,1,65,0,0
10702,-133.333333333333,4,2,1,65,0,0
11620,-111.111111111111,4,2,1,45,0,0
20728,-111.111111111111,4,2,1,45,0,0
20804,-111.111111111111,4,2,2,50,0,0
21110,-111.111111111111,4,2,1,50,0,0
21416,-90.9090909090909,4,2,1,55,0,0
23789,-90.9090909090909,4,2,1,55,0,0
23865,-90.9090909090909,4,2,1,55,0,0
27462,-90.9090909090909,4,2,1,55,0,0
27539,-90.9090909090909,4,2,1,55,0,0
30906,-133.333333333333,4,2,1,55,0,0
31136,-133.333333333333,4,2,1,5,0,0
31212,-111.111111111111,4,2,1,45,0,0
34886,-111.111111111111,4,2,3,45,0,0
35345,-90.9090909090909,4,2,1,50,0,0
35498,-90.9090909090909,4,2,1,55,0,0
35651,-90.9090909090909,4,2,11,55,0,0
35804,-90.9090909090909,4,2,1,55,0,0
35957,-90.9090909090909,4,2,1,5,0,0
36110,-90.9090909090909,4,2,1,65,0,0
36340,-90.9090909090909,4,2,1,5,0,0
36416,-90.9090909090909,4,2,1,65,0,0
36799,-90.9090909090909,4,2,1,5,0,0
36876,-90.9090909090909,4,2,1,65,0,0
37564,-90.9090909090909,4,2,1,5,0,0
37641,-90.9090909090909,4,2,1,65,0,0
38023,-90.9090909090909,4,2,1,5,0,0
38100,-90.9090909090909,4,2,1,65,0,0
38559,-90.9090909090909,4,2,1,70,0,0
39171,-90.9090909090909,4,2,5,70,0,0
39784,-133.333333333333,4,2,96,70,0,0
39860,-133.333333333333,4,2,96,70,0,0
40319,-133.333333333333,4,2,96,5,0,0
40396,-90.9090909090909,4,2,1,70,0,0
40626,-90.9090909090909,4,2,1,5,0,0
40702,-90.9090909090909,4,2,1,70,0,0
41008,-80,4,2,1,75,0,1
41238,-80,4,2,1,5,0,1
41314,-80,4,2,1,75,0,1
42233,-80,4,2,2,75,0,1
42462,-80,4,2,2,5,0,1
42539,-80,4,2,1,75,0,1
43381,-80,4,2,1,75,0,1
43457,-80,4,2,1,75,0,1
45294,-80,4,2,1,75,0,1
45370,-80,4,2,1,75,0,1
45447,-80,4,2,1,75,0,1
45523,-80,4,2,1,75,0,1
45600,-80,4,2,1,75,0,1
45830,-80,4,2,1,75,0,1
45906,-80,4,2,1,75,0,1
47819,-80,4,2,1,75,0,1
47896,-80,4,2,1,75,0,1
48126,-80,4,2,1,75,0,1
48202,-80,4,2,1,75,0,1
48355,-80,4,2,1,75,0,1
48814,-80,4,2,2,75,0,1
48967,-80,4,2,1,75,0,1
49580,-80,4,2,2,75,0,1
49886,-80,4,2,1,75,0,1
50192,-80,4,2,2,75,0,1
50345,-80,4,2,11,75,0,1
50421,-80,4,2,11,5,0,1
50498,-80,4,2,1,75,0,1
50574,-80,4,2,5,75,0,1
50804,-80,4,2,1,75,0,1
51034,-80,4,2,1,75,0,1
51110,-80,4,2,1,75,0,1
52258,-80,4,2,1,75,0,1
52335,-80,4,2,1,75,0,1
53253,-80,4,2,2,75,0,1
53483,-80,4,2,2,5,0,1
53559,-80,4,2,1,75,0,1
54248,-80,4,2,1,75,0,1
54324,-80,4,2,1,75,0,1
55702,-80,4,2,4,75,0,1
55932,-80,4,2,4,5,0,1
56008,-80,4,2,4,75,0,1
59376,-80,4,2,1,75,0,1
60294,-80,4,2,5,75,0,1
60600,-80,4,2,1,75,0,1
60830,-80,4,2,1,5,0,1
60906,-80,4,2,1,75,0,1
61748,-80,4,2,1,75,0,1
61824,-80,4,2,2,75,0,1
62054,-80,4,2,2,5,0,1
62131,-80,4,2,1,75,0,1
62972,-80,4,2,1,75,0,1
63049,-80,4,2,1,75,0,1
64886,-80,4,2,1,75,0,1
64962,-80,4,2,1,75,0,1
65039,-80,4,2,1,75,0,1
65115,-80,4,2,1,75,0,1
65192,-80,4,2,1,75,0,1
65421,-80,4,2,1,75,0,1
65498,-80,4,2,1,75,0,1
67411,-80,4,2,1,75,0,1
67488,-80,4,2,1,75,0,1
67717,-80,4,2,1,75,0,1
67794,-80,4,2,1,75,0,1
67947,-80,4,2,1,75,0,1
68406,-80,4,2,2,75,0,1
68559,-80,4,2,1,75,0,1
69171,-80,4,2,2,75,0,1
69478,-80,4,2,1,75,0,1
69784,-80,4,2,2,75,0,1
69937,-80,4,2,11,75,0,1
70013,-80,4,2,11,5,0,1
70090,-80,4,2,1,75,0,1
70166,-80,4,2,5,75,0,1
70396,-80,4,2,1,75,0,1
70626,-80,4,2,1,75,0,1
70702,-80,4,2,1,75,0,1
71850,-80,4,2,1,75,0,1
71927,-80,4,2,1,75,0,1
72845,-80,4,2,2,75,0,1
73074,-80,4,2,2,5,0,1
73151,-80,4,2,1,75,0,1
73840,-80,4,2,1,75,0,1
73916,-80,4,2,1,75,0,1
74682,-80,4,2,5,75,0,1
74988,-80,4,2,1,75,0,1
75294,-80,4,2,4,75,0,1
75523,-80,4,2,4,5,0,1
75600,-80,4,2,4,75,0,1
78967,-80,4,2,1,75,0,1
79656,-80,4,2,1,5,0,1
79733,-80,4,2,1,75,0,1
79809,-80,4,2,1,5,0,1
79886,-66.6666666666667,4,2,1,75,0,1
80115,-80,4,2,1,5,0,1
80192,-80,4,2,1,65,0,0
80230,-80,4,2,1,65,0,0
80651,-80,4,2,1,65,0,0
80957,-80,4,2,1,65,0,0
81110,-80,4,2,1,65,0,0
81416,-80,4,2,1,65,0,0
81569,-80,4,2,1,65,0,0
81722,-80,4,2,1,60,0,0
82029,-80,4,2,1,60,0,0
82258,-80,4,2,1,5,0,0
82641,-90.9090909090909,4,2,1,55,0,0
85013,-90.9090909090909,4,2,1,55,0,0
85090,-90.9090909090909,4,2,1,55,0,0
88687,-90.9090909090909,4,2,1,55,0,0
88763,-90.9090909090909,4,2,1,55,0,0
91136,-90.9090909090909,4,2,1,55,0,0
91212,-90.9090909090909,4,2,1,55,0,0
92131,-133.333333333333,4,2,1,55,0,0
92360,-133.333333333333,4,2,1,5,0,0
92437,-111.111111111111,4,2,1,55,0,0
94886,-90.9090909090909,4,2,1,55,0,0
95115,-90.9090909090909,4,2,1,55,0,0
95192,-90.9090909090909,4,2,1,55,0,0
97564,-90.9090909090909,4,2,1,55,0,0
97641,-90.9090909090909,4,2,1,55,0,0
98483,-90.9090909090909,4,2,1,55,0,0
98559,-90.9090909090909,4,2,1,55,0,0
101927,-133.333333333333,4,2,1,55,0,0
102156,-133.333333333333,4,2,1,5,0,0
102233,-111.111111111111,4,2,1,45,0,0
105906,-111.111111111111,4,2,2,45,0,0
106365,-90.9090909090909,4,2,1,50,0,0
106518,-90.9090909090909,4,2,1,55,0,0
106671,-90.9090909090909,4,2,11,55,0,0
106824,-90.9090909090909,4,2,1,55,0,0
106978,-90.9090909090909,4,2,1,5,0,0
107131,-90.9090909090909,4,2,1,65,0,0
107360,-90.9090909090909,4,2,1,5,0,0
107437,-90.9090909090909,4,2,1,65,0,0
107819,-90.9090909090909,4,2,1,5,0,0
107896,-90.9090909090909,4,2,1,65,0,0
108585,-90.9090909090909,4,2,1,5,0,0
108661,-90.9090909090909,4,2,1,65,0,0
109044,-90.9090909090909,4,2,1,5,0,0
109120,-90.9090909090909,4,2,1,65,0,0
109580,-90.9090909090909,4,2,1,70,0,0
110192,-90.9090909090909,4,2,5,70,0,0
110804,-133.333333333333,4,2,96,70,0,0
110881,-133.333333333333,4,2,96,70,0,0
111340,-133.333333333333,4,2,96,5,0,0
111416,-90.9090909090909,4,2,1,70,0,0
111646,-90.9090909090909,4,2,1,5,0,0
111722,-90.9090909090909,4,2,1,70,0,0
112029,-80,4,2,1,75,0,1
112258,-80,4,2,1,5,0,1
112335,-80,4,2,1,75,0,1
113253,-80,4,2,2,75,0,1
113483,-80,4,2,2,5,0,1
113559,-80,4,2,1,75,0,1
114401,-80,4,2,1,75,0,1
114478,-80,4,2,1,75,0,1
115626,-80,4,2,1,75,0,1
115702,-80,4,2,1,75,0,1
116314,-80,4,2,1,75,0,1
116391,-80,4,2,1,75,0,1
116467,-80,4,2,1,75,0,1
116544,-80,4,2,1,75,0,1
116620,-80,4,2,1,75,0,1
116850,-80,4,2,1,75,0,1
116927,-80,4,2,1,75,0,1
118840,-80,4,2,1,75,0,1
118916,-80,4,2,1,75,0,1
119146,-80,4,2,1,75,0,1
119222,-80,4,2,1,75,0,1
119376,-80,4,2,1,75,0,1
119835,-80,4,2,2,75,0,1
119988,-80,4,2,1,75,0,1
120600,-80,4,2,2,75,0,1
120906,-80,4,2,1,75,0,1
121212,-80,4,2,2,75,0,1
121365,-80,4,2,11,75,0,1
121442,-80,4,2,11,5,0,1
121518,-80,4,2,1,75,0,1
121595,-80,4,2,5,75,0,1
121824,-80,4,2,1,75,0,1
122054,-80,4,2,1,75,0,1
122131,-80,4,2,1,75,0,1
124197,-80,4,2,1,75,0,1
124273,-80,4,2,2,75,0,1
124503,-80,4,2,2,5,0,1
124580,-80,4,2,1,75,0,1
125268,-80,4,2,1,75,0,1
125345,-80,4,2,1,75,0,1
126722,-80,4,2,4,75,0,1
126952,-80,4,2,4,5,0,1
127029,-80,4,2,4,75,0,1
130396,-80,4,2,1,75,0,1
131314,-80,4,2,5,75,0,1
131620,-80,4,2,1,75,0,1
131850,-80,4,2,1,5,0,1
131927,-80,4,2,1,75,0,1
132768,-80,4,2,1,75,0,1
132845,-80,4,2,2,75,0,1
133074,-80,4,2,2,5,0,1
133151,-80,4,2,1,75,0,1
133993,-80,4,2,1,75,0,1
134069,-80,4,2,1,75,0,1
135906,-80,4,2,1,75,0,1
135983,-80,4,2,1,75,0,1
136059,-80,4,2,1,75,0,1
136136,-80,4,2,1,75,0,1
136212,-80,4,2,1,75,0,1
136442,-80,4,2,1,75,0,1
136518,-80,4,2,1,75,0,1
138432,-80,4,2,1,75,0,1
138508,-80,4,2,1,75,0,1
138738,-80,4,2,1,75,0,1
138814,-80,4,2,1,75,0,1
138967,-80,4,2,1,75,0,1
139427,-80,4,2,2,75,0,1
139580,-80,4,2,1,75,0,1
140192,-80,4,2,2,75,0,1
140498,-80,4,2,1,75,0,1
140804,-80,4,2,2,75,0,1
140957,-80,4,2,11,75,0,1
141034,-80,4,2,11,5,0,1
141110,-80,4,2,1,75,0,1
141187,-80,4,2,5,75,0,1
141416,-80,4,2,1,75,0,1
141646,-80,4,2,1,75,0,1
141722,-80,4,2,1,75,0,1
142870,-80,4,2,1,75,0,1
142947,-80,4,2,1,75,0,1
143865,-80,4,2,2,75,0,1
144095,-80,4,2,2,5,0,1
144171,-80,4,2,1,75,0,1
144860,-80,4,2,1,75,0,1
144937,-80,4,2,1,75,0,1
145702,-80,4,2,5,75,0,1
146008,-80,4,2,1,75,0,1
146314,-80,4,2,4,75,0,1
146544,-80,4,2,4,5,0,1
146620,-80,4,2,4,75,0,1
149988,-80,4,2,1,75,0,1
150677,-80,4,2,1,5,0,1
150753,-80,4,2,1,75,0,1
150830,-80,4,2,1,5,0,1
150906,-80,4,2,1,75,0,1
151136,-80,4,2,1,5,0,1
151212,-100,4,2,1,55,0,0
154886,-100,4,2,2,55,0,0
155039,-100,4,2,1,55,0,0
155192,-100,4,2,2,55,0,0
155345,-100,4,2,1,55,0,0
159784,-100,4,2,2,55,0,0
159937,-100,4,2,1,55,0,0
160090,-100,4,2,2,55,0,0
160243,-100,4,2,51,55,0,0
160396,-100,4,2,1,60,0,0
161008,-80,4,2,1,65,0,0
161467,-80,4,2,11,65,0,0
161544,-80,4,2,1,65,0,0
162692,-80,4,2,11,65,0,0
162768,-80,4,2,1,65,0,0
163916,-80,4,2,11,65,0,0
163993,-80,4,2,1,65,0,0
165141,-80,4,2,11,65,0,0
165217,-80,4,2,1,65,0,0
168355,-80,4,2,1,70,0,0
170804,-74.0740740740741,4,2,1,70,0,0
170881,-74.0740740740741,4,2,1,70,0,0
171569,-74.0740740740741,4,2,5,70,0,0
172029,-100,4,2,96,70,0,0
172564,-100,4,2,96,5,0,0
172641,-90.9090909090909,4,2,1,70,0,0
172870,-90.9090909090909,4,2,1,5,0,0
172947,-90.9090909090909,4,2,1,70,0,0
173253,-80,4,2,1,75,0,1
173483,-80,4,2,1,5,0,1
173559,-80,4,2,1,75,0,1
174478,-80,4,2,2,75,0,1
174707,-80,4,2,2,5,0,1
174784,-80,4,2,1,75,0,1
175626,-80,4,2,1,75,0,1
175702,-80,4,2,1,75,0,1
176314,-80,4,2,1,75,0,1
176391,-80,4,2,1,75,0,1
176467,-80,4,2,1,75,0,1
176544,-80,4,2,1,75,0,1
176620,-80,4,2,1,75,0,1
176850,-80,4,2,1,75,0,1
176927,-80,4,2,1,75,0,1
178074,-80,4,2,1,75,0,1
178151,-80,4,2,1,75,0,1
178840,-80,4,2,1,75,0,1
178916,-80,4,2,1,75,0,1
179146,-80,4,2,1,75,0,1
179222,-80,4,2,1,75,0,1
179376,-80,4,2,1,75,0,1
179605,-80,4,2,1,75,0,1
179682,-80,4,2,1,75,0,1
181059,-80,4,2,2,75,0,1
181212,-80,4,2,1,75,0,1
181824,-80,4,2,2,75,0,1
182131,-80,4,2,1,75,0,1
182437,-80,4,2,2,75,0,1
182590,-80,4,2,11,75,0,1
182666,-80,4,2,11,5,0,1
182743,-80,4,2,1,75,0,1
182819,-80,4,2,5,75,0,1
183049,-80,4,2,1,75,0,1
183279,-80,4,2,1,75,0,1
183355,-80,4,2,1,75,0,1
185421,-80,4,2,1,75,0,1
185498,-80,4,2,2,75,0,1
185728,-80,4,2,2,5,0,1
185804,-80,4,2,1,75,0,1
186493,-80,4,2,1,75,0,1
186569,-80,4,2,1,75,0,1
187947,-80,4,2,4,75,0,1
188177,-80,4,2,4,5,0,1
188253,-80,4,2,4,75,0,1
191620,-80,4,2,1,75,0,1
192539,-80,4,2,5,75,0,1
192845,-80,4,2,1,75,0,1
193074,-80,4,2,1,5,0,1
193151,-80,4,2,1,75,0,1
194069,-80,4,2,2,75,0,1
194299,-80,4,2,2,5,0,1
194376,-80,4,2,1,75,0,1
195217,-80,4,2,1,75,0,1
195294,-80,4,2,1,75,0,1
197131,-80,4,2,1,75,0,1
197207,-80,4,2,1,75,0,1
197284,-80,4,2,1,75,0,1
197360,-80,4,2,1,75,0,1
197437,-80,4,2,1,75,0,1
197666,-80,4,2,1,75,0,1
197743,-80,4,2,1,75,0,1
199656,-80,4,2,1,75,0,1
199733,-80,4,2,1,75,0,1
199962,-80,4,2,1,75,0,1
200039,-80,4,2,1,75,0,1
200192,-80,4,2,1,75,0,1
200651,-80,4,2,2,75,0,1
200804,-80,4,2,1,75,0,1
201416,-80,4,2,2,75,0,1
201722,-80,4,2,1,75,0,1
202029,-80,4,2,2,75,0,1
202182,-80,4,2,11,75,0,1
202258,-80,4,2,11,5,0,1
202335,-80,4,2,1,75,0,1
202411,-80,4,2,5,75,0,1
202641,-80,4,2,1,75,0,1
202870,-80,4,2,1,75,0,1
202947,-80,4,2,1,75,0,1
204095,-80,4,2,1,75,0,1
204171,-80,4,2,1,75,0,1
205090,-80,4,2,2,75,0,1
205319,-80,4,2,2,5,0,1
205396,-80,4,2,1,75,0,1
206085,-80,4,2,1,75,0,1
206161,-80,4,2,1,75,0,1
206927,-80,4,2,5,75,0,1
207233,-80,4,2,1,75,0,1
207539,-80,4,2,4,75,0,1
207768,-80,4,2,4,5,0,1
207845,-80,4,2,4,75,0,1
210677,-80,4,2,4,75,0,1
210753,-80,4,2,4,75,0,1
211212,-80,4,2,1,75,0,1
211901,-80,4,2,1,75,0,1
211978,-80,4,2,1,75,0,1
212360,-80,4,2,1,75,0,1
212437,-400,4,2,98,45,0,0
213508,-133.333333333333,4,2,98,5,0,0
213661,-90.9090909090909,4,2,1,50,0,0
214886,-90.9090909090909,4,2,1,55,0,0
214924,-90.9090909090909,4,2,1,55,0,0
215115,-90.9090909090909,4,2,1,55,0,0
215192,-90.9090909090909,4,2,1,55,0,0
217258,-90.9090909090909,4,2,1,55,0,0
217335,-90.9090909090909,4,2,1,55,0,0
219707,-90.9090909090909,4,2,1,55,0,0
219784,-90.9090909090909,4,2,1,55,0,0
223304,-90.9090909090909,4,2,1,55,0,0
223457,-90.9090909090909,4,2,1,55,0,0
223534,-90.9090909090909,4,2,1,55,0,0
223610,-90.9090909090909,4,2,1,55,0,0
223763,-90.9090909090909,4,2,1,55,0,0
224069,-90.9090909090909,4,2,1,55,0,0
224682,-90.9090909090909,4,2,1,55,0,0
224720,-90.9090909090909,4,2,1,55,0,0
224911,-90.9090909090909,4,2,1,55,0,0
224988,-90.9090909090909,4,2,1,55,0,0
227054,-90.9090909090909,4,2,1,55,0,0
227131,-90.9090909090909,4,2,1,55,0,0
229503,-90.9090909090909,4,2,1,55,0,0
229580,-90.9090909090909,4,2,1,55,0,0
232029,-90.9090909090909,4,2,1,65,0,0
232258,-90.9090909090909,4,2,1,65,0,0
232335,-90.9090909090909,4,2,1,65,0,0
232717,-90.9090909090909,4,2,1,65,0,0
232794,-90.9090909090909,4,2,1,65,0,0
234860,-90.9090909090909,4,2,1,35,0,0
235549,-90.9090909090909,4,2,1,65,0,0
241518,-90.9090909090909,4,2,99,8,0,0

[Colours]
Combo1 : 191,191,191
Combo2 : 255,169,128
Combo3 : 255,170,213
Combo4 : 128,191,255

[HitObjects]
42,79,600,6,0,P|81:72|126:62,1,63.7500024318696,2|0,0:0|0:0,0:0:0:0:
192,27,906,1,2,0:0:0:0:
192,27,1059,2,0,P|182:116|176:181,1,127.500004863739,2|0,0:0|0:0,0:0:0:0:
247,211,1518,2,0,P|286:203|360:260,1,127.500004863739,2|0,0:0|0:0,0:0:0:0:
447,20,2131,5,2,0:0:0:0:
337,105,2437,1,2,0:0:0:0:
472,163,2743,1,2,0:0:0:0:
337,105,3049,6,0,P|284:112|246:115,1,63.7500024318696,2|0,0:0|0:0,0:0:0:0:
200,67,3355,1,2,0:0:0:0:
200,67,3508,2,0,P|171:103|85:98,1,127.500004863739,2|0,0:0|0:0,0:0:0:0:
25,57,3967,1,2,0:0:0:0:
27,261,4273,6,0,B|91:248|91:248|159:286,1,127.500004863739,2|2,0:0|0:0,0:0:0:0:
156,284,4656,1,0,1:0:0:0:
167,290,4733,1,0,1:0:0:0:
177,296,4809,1,0,1:0:0:0:
187,302,4886,2,0,L|192:218,1,85,2|0,0:0|0:0,0:0:0:0:
208,131,5192,1,8,0:0:0:0:
208,131,5345,1,0,0:0:0:0:
381,168,5498,6,0,B|368:238|368:238|399:282|399:282|384:347,1,187.000005706787,6|0,3:2|3:0,0:0:0:0:
290,185,5957,1,2,0:0:0:0:
459,211,6110,2,0,P|470:158|449:105,1,93.5000028533936,0|0,3:0|0:0,0:0:0:0:
290,185,6416,2,0,P|279:238|296:290,1,93.5000028533936,2|0,3:2|0:0,0:0:0:0:
365,85,6722,6,0,P|291:101|212:8,1,187.000005706787,2|0,3:2|3:0,0:0:0:0:
118,198,7182,1,0,0:0:0:0:
118,198,7258,1,0,0:0:0:0:
118,198,7335,2,0,P|114:144|111:68,1,93.5000028533936,2|0,3:2|0:0,0:0:0:0:
289,184,7641,2,0,P|286:231|282:278,1,93.5000028533936,0|0,3:0|0:0,0:0:0:0:
115,356,7947,5,6,3:2:0:0:
115,356,8253,5,8,0:0:0:0:
297,294,8406,1,0,1:2:0:0:
152,168,8559,1,8,0:0:0:0:
217,367,8712,5,8,2:3:0:0:
85,251,8865,1,6,2:3:0:0:
260,194,9018,1,6,2:3:0:0:
96,154,9171,5,14,1:2:0:0:
260,194,9324,2,0,P|285:140|281:92,1,93.5000028533936,10|0,1:2|3:0,0:0:0:0:
205,26,9631,5,14,1:2:0:0:
96,154,9784,2,0,P|130:202|173:223,1,93.5000028533936,10|0,1:2|3:0,0:0:0:0:
259,192,10090,5,14,1:2:0:0:
205,26,10243,2,0,P|148:30|106:58,1,93.5000028533936,10|0,1:2|3:0,0:0:0:0:
185,124,10549,5,14,1:2:0:0:
185,124,10702,1,10,1:2:0:0:
33,231,11620,6,0,P|15:158|3:54,2,152.999995330811,6|0|0,3:2|3:0|3:0,0:0:0:0:
146,264,12539,2,0,P|136:308|120:361,1,76.4999976654053,2|0,3:2|0:0,0:0:0:0:
120,145,12845,6,0,P|180:162|283:171,1,152.999995330811,2|0,3:2|3:0,0:0:0:0:
354,234,13304,2,0,P|368:180|371:124,1,76.4999976654053,2|0,0:0|3:0,0:0:0:0:
306,77,13610,2,0,P|361:87|443:28,1,152.999995330811,2|0,0:0|0:0,0:0:0:0:
490,128,14069,6,0,P|483:185|466:283,2,152.999995330811,2|0|0,3:2|3:0|3:0,0:0:0:0:
377,237,14988,2,0,P|370:180|371:130,1,76.4999976654053,2|0,3:2|0:0,0:0:0:0:
272,204,15294,6,0,P|221:211|183:220,1,76.4999976654053,2|0,3:2|0:0,0:0:0:0:
103,236,15600,2,0,P|122:188|133:150,1,76.4999976654053,2|0,3:2|0:0,0:0:0:0:
159,72,15906,2,0,P|190:112|217:141,1,76.4999976654053,2|0,3:2|0:0,0:0:0:0:
329,22,16212,2,0,P|267:42|228:49,1,76.4999976654053,2|0,3:2|0:0,0:0:0:0:
288,189,16518,6,0,P|339:177|419:244,2,152.999995330811,2|0|0,3:2|3:0|3:0,0:0:0:0:
77,250,17437,2,0,P|128:256|174:265,1,76.4999976654053,2|0,3:2|0:0,0:0:0:0:
263,347,17743,6,0,P|254:303|244:261,1,76.4999976654053,2|0,3:2|0:0,0:0:0:0:
200,189,18049,1,2,3:2:0:0:
341,297,18202,2,0,P|381:338|486:326,1,152.999995330811,2|0,0:0|0:0,0:0:0:0:
436,182,18661,2,0,P|425:236|420:266,1,76.4999976654053,2|0,3:2|0:0,0:0:0:0:
302,187,18967,6,0,P|291:110|290:11,2,152.999995330811,2|0|0,3:2|3:0|3:0,0:0:0:0:
448,90,19886,2,0,P|396:103|359:113,1,76.4999976654053,2|0,3:2|0:0,0:0:0:0:
223,228,20192,6,0,P|280:215|357:282,1,152.999995330811,2|2,3:2|3:2,0:0:0:0:
132,251,20651,1,2,0:0:0:0:
274,297,20804,1,10,2:1:0:0:
153,169,20957,1,10,2:1:0:0:
232,369,21110,1,14,0:0:0:0:
19,321,21263,1,0,1:0:0:0:
19,321,21340,1,0,1:0:0:0:
19,321,21416,6,0,P|25:255|31:211,1,93.5000028533936,6|0,3:2|0:0,0:0:0:0:
196,235,21722,2,0,P|135:262|94:279,1,93.5000028533936,8|0,0:0|0:0,0:0:0:0:
19,321,22029,1,2,0:0:0:0:
19,321,22182,1,0,3:0:0:0:
36,116,22335,2,0,P|90:154|125:181,1,93.5000028533936,10|0,0:0|0:0,0:0:0:0:
288,298,22641,6,0,P|296:238|306:181,1,93.5000028533936,2|0,3:2|0:0,0:0:0:0:
259,131,22947,1,8,0:0:0:0:
233,369,23100,2,0,P|285:325|402:351,1,187.000005706787,2|2,0:0|3:2,0:0:0:0:
463,190,23559,2,0,P|413:209|359:215,1,93.5000028533936,8|0,0:0|0:0,0:0:0:0:
230,246,23865,6,0,P|228:167|251:23,2,187.000005706787,2|8|2,3:2|0:0|0:0,0:0:0:0:
153,111,24631,1,0,3:0:0:0:
315,177,24784,2,0,P|383:169|446:158,1,93.5000028533936,10|0,0:0|0:0,0:0:0:0:
153,111,25090,6,0,P|95:124|43:130,1,93.5000028533936,2|0,3:2|0:0,0:0:0:0:
231,188,25396,2,0,P|242:118|253:69,1,93.5000028533936,10|0,0:0|0:0,0:0:0:0:
261,10,25702,1,2,0:0:0:0:
261,10,25855,1,0,3:0:0:0:
396,72,26008,2,0,P|404:127|409:188,1,93.5000028533936,10|0,0:0|0:0,0:0:0:0:
285,267,26314,6,0,P|221:280|135:191,2,187.000005706787,2|8|2,3:2|0:0|0:0,0:0:0:0:
143,118,27080,1,0,3:0:0:0:
329,188,27233,2,0,P|386:178|440:167,1,93.5000028533936,10|0,0:0|0:0,0:0:0:0:
234,186,27539,6,0,P|241:125|250:77,1,93.5000028533936,2|0,3:2|0:0,0:0:0:0:
346,92,27845,1,10,0:0:0:0:
153,231,27998,2,0,P|95:247|49:249,1,93.5000028533936,2|0,0:0|0:0,0:0:0:0:
3,109,28304,1,2,3:2:0:0:
3,109,28457,2,0,P|64:113|113:127,1,93.5000028533936,8|0,0:0|0:0,0:0:0:0:
327,105,28763,6,0,B|323:150|308:175|308:175|331:210|331:210|315:237|311:299,2,187.000005706787,2|8|2,3:2|0:0|0:0,0:0:0:0:
231,113,29529,1,0,3:0:0:0:
401,265,29682,2,0,P|465:259|512:247,1,93.5000028533936,8|0,0:0|0:0,0:0:0:0:
237,219,29988,5,6,3:2:0:0:
438,167,30141,1,0,3:0:0:0:
231,113,30294,1,8,0:0:0:0:
447,73,30447,1,2,1:2:0:0:
447,73,30523,1,0,1:2:0:0:
447,73,30600,1,10,0:0:0:0:
224,13,30753,1,8,2:3:0:0:
334,182,30906,2,0,L|345:68,1,95.6250036478044,4|0,2:3|0:0,0:0:0:0:
346,65,31212,1,14,2:1:0:0:
63,16,35345,5,0,1:0:0:0:
63,16,35421,1,0,1:0:0:0:
63,16,35498,1,10,0:0:0:0:
160,155,35651,1,4,3:2:0:0:
0,113,35804,2,0,P|70:103|126:90,1,93.5000028533936,10|0,0:0|0:0,0:0:0:0:
393,125,36110,6,0,B|344:135|344:135|326:161|326:161|262:176,1,140.25000428009,14|0,3:2|0:0,0:0:0:0:
242,180,36416,1,0,3:0:0:0:
116,360,36569,2,0,L|133:214,1,140.25000428009,10|0,3:2|0:0,0:0:0:0:
135,198,36876,1,0,3:0:0:0:
272,83,37029,1,10,3:2:0:0:
62,145,37182,1,0,3:0:0:0:
62,145,37258,1,0,3:0:0:0:
62,145,37335,6,0,P|100:114|191:123,1,140.25000428009,14|0,3:2|0:0,0:0:0:0:
203,134,37641,1,0,3:0:0:0:
409,53,37794,2,0,L|399:206,1,140.25000428009,10|0,3:2|0:0,0:0:0:0:
399,215,38100,1,0,3:0:0:0:
213,265,38253,1,10,3:2:0:0:
408,355,38406,1,0,3:0:0:0:
277,380,38559,5,6,3:2:0:0:
285,358,38636,1,0,3:0:0:0:
291,335,38712,1,0,3:0:0:0:
297,312,38789,1,0,3:0:0:0:
300,289,38865,1,8,3:2:0:0:
303,266,38942,1,0,3:0:0:0:
303,243,39018,1,2,3:2:0:0:
303,219,39095,1,0,3:0:0:0:
299,196,39171,2,0,L|285:124,3,46.7500014266968,10|8|8|8,1:2|1:0|1:0|1:0,0:0:0:0:
236,91,39478,5,8,1:2:0:0:
192,73,39554,1,8,1:0:0:0:
145,78,39631,1,8,1:0:0:0:
106,104,39707,1,8,1:0:0:0:
86,148,39784,6,0,B|50:166|23:191|23:191|57:135|65:49,1,223.125008511544,6|0,3:2|0:0,0:0:0:0:
162,41,40396,2,0,B|156:89|156:89|179:123|179:123|172:178,1,140.25000428009,2|0,3:2|0:0,0:0:0:0:
277,268,40702,2,0,L|269:189,3,46.7500014266968,10|0|0|0,0:0|1:0|1:0|1:0,0:0:0:0:
269,188,41008,6,0,P|314:141|416:174,1,159.375,6|0,3:2|0:0,0:0:0:0:
420,172,41314,2,0,L|430:36,1,106.25,8|2,0:0|0:0,0:0:0:0:
265,54,41620,1,2,3:2:0:0:
348,230,41773,1,0,3:0:0:0:
265,54,41927,2,0,P|184:68|126:74,1,106.25,8|0,0:0|0:0,0:0:0:0:
40,203,42233,6,0,B|109:250|109:250|211:216,1,159.375,10|0,2:1|0:0,0:0:0:0:
206,219,42539,2,0,L|194:340,1,106.25,10|0,0:0|3:0,0:0:0:0:
97,368,42845,1,2,0:0:0:0:
292,318,42998,1,0,3:0:0:0:
97,368,43151,2,0,L|85:241,1,106.25,10|0,0:0|0:0,0:0:0:0:
180,167,43457,6,0,P|212:223|359:205,2,212.5,2|8|0,3:2|0:0|3:0,0:0:0:0:
418,140,44222,1,0,3:0:0:0:
279,52,44376,2,0,P|271:125|289:174,1,106.25,10|0,0:0|0:0,0:0:0:0:
80,235,44682,6,0,P|89:175|73:113,1,106.25,2|0,3:2|0:0,0:0:0:0:
3,185,44988,1,10,0:0:0:0:
170,38,45141,2,0,L|181:165,1,106.25,2|0,3:2|0:0,0:0:0:0:
362,104,45447,1,2,3:2:0:0:
221,246,45600,2,0,P|143:239|89:222,1,106.25,8|0,0:0|0:0,0:0:0:0:
330,360,45906,6,0,P|361:302|497:333,2,212.5,2|8|0,3:2|0:0|3:2,0:0:0:0:
422,374,46671,1,0,3:0:0:0:
261,266,46824,2,0,P|254:207|250:133,1,106.25,10|0,0:0|0:0,0:0:0:0:
479,183,47131,6,0,P|405:197|362:202,1,106.25,2|0,3:2|0:0,0:0:0:0:
193,78,47437,1,10,0:0:0:0:
345,2,47590,2,0,P|342:71|331:133,1,106.25,2|0,3:2|0:0,0:0:0:0:
159,231,47896,1,2,3:2:0:0:
159,231,48049,2,0,P|97:227|30:207,1,106.25,8|0,0:0|0:0,0:0:0:0:
257,267,48355,5,2,3:2:0:0:
120,137,48508,1,0,0:0:0:0:
164,358,48661,1,8,0:0:0:0:
351,211,48814,1,2,2:1:0:0:
351,211,48891,1,2,2:1:0:0:
351,211,48967,2,0,P|360:273|349:329,1,106.25,0|0,3:0|3:0,0:0:0:0:
164,358,49273,2,0,P|156:303|166:240,1,106.25,10|2,0:0|0:0,0:0:0:0:
227,30,49580,5,2,3:1:0:0:
265,207,49733,1,0,0:0:0:0:
135,91,49886,5,10,0:0:0:0:
362,150,50039,1,0,3:0:0:0:
153,225,50192,5,2,2:1:0:0:
153,225,50268,1,2,2:1:0:0:
153,225,50345,2,0,L|75:217,1,53.125,4|0,3:2|0:0,0:0:0:0:
273,325,50498,1,10,0:0:0:0:
299,322,50574,1,8,1:0:0:0:
325,319,50651,1,8,1:0:0:0:
351,316,50728,1,8,1:0:0:0:
377,314,50804,6,0,P|433:299|421:166,2,212.5,6|10|2,3:2|0:0|3:2,0:0:0:0:
330,131,51569,1,2,3:2:0:0:
241,240,51722,2,0,P|312:236|372:230,1,106.25,8|2,0:0|0:0,0:0:0:0:
158,306,52029,6,0,P|144:244|140:176,1,106.25,0|0,3:0|0:0,0:0:0:0:
345,25,52335,2,0,P|337:93|326:145,1,106.25,10|0,0:0|3:0,0:0:0:0:
240,70,52641,1,2,0:0:0:0:
401,205,52794,1,0,3:0:0:0:
240,70,52947,2,0,P|167:83|102:93,1,106.25,10|0,0:0|0:0,0:0:0:0:
323,252,53253,6,0,P|394:236|469:308,1,159.375,10|0,2:1|0:0,0:0:0:0:
467,307,53559,1,10,0:0:0:0:
318,158,53712,1,0,0:0:0:0:
243,364,53865,2,0,P|237:300|220:234,1,106.25,2|0,3:2|3:0,0:0:0:0:
217,234,54095,1,2,0:0:0:0:
202,211,54171,1,8,0:0:0:0:
382,319,54324,1,2,0:0:0:0:
20,349,54478,6,0,P|116:326|172:318,1,106.25,6|0,3:2|0:0,0:0:0:0:
336,233,54784,1,10,0:0:0:0:
153,140,54937,1,0,3:0:0:0:
210,255,55090,1,10,0:0:0:0:
86,237,55243,1,0,1:0:0:0:
86,237,55319,1,0,1:0:0:0:
86,237,55396,1,10,0:0:0:0:
270,150,55549,1,8,2:3:0:0:
36,54,55702,6,0,B|118:42|96:109|185:97,1,159.375,14|0,1:2|0:0,0:0:0:0:
207,86,56008,2,0,P|259:63|318:81,1,106.25,8|2,1:2|3:2,0:0:0:0:
511,189,56314,2,0,P|444:187|399:133,1,106.25,8|0,1:2|3:0,0:0:0:0:
308,176,56620,1,8,1:2:0:0:
482,107,56773,1,0,3:0:0:0:
482,107,56850,1,0,3:0:0:0:
482,107,56927,5,8,1:2:0:0:
340,0,57080,1,0,3:0:0:0:
386,258,57233,5,10,1:2:0:0:
161,149,57386,1,0,3:0:0:0:
336,98,57539,5,10,1:2:0:0:
215,307,57692,1,0,3:0:0:0:
336,98,57845,5,10,1:2:0:0:
414,303,57998,1,0,3:0:0:0:
414,303,58074,1,0,3:0:0:0:
414,303,58151,6,0,B|364:297|335:290|335:290|289:322|289:322|251:311|214:306,1,212.5,10|8,1:2|1:2,0:0:0:0:
35,48,58610,1,2,3:2:0:0:
209,149,58763,1,10,1:2:0:0:
5,236,58916,1,0,3:0:0:0:
209,149,59069,1,8,1:2:0:0:
113,282,59222,1,0,3:0:0:0:
113,282,59299,1,0,3:0:0:0:
113,282,59376,6,0,P|103:213|89:155,1,106.25,6|0,3:2|3:0,0:0:0:0:
296,366,59682,2,0,P|297:337|310:288,3,53.125,10|0|0|0,0:0|1:0|1:0|1:0,0:0:0:0:
202,249,59988,2,0,P|207:276|207:322,1,53.125,10|8,0:0|2:3,0:0:0:0:
392,348,60141,2,0,P|396:324|401:282,1,53.125,8|8,2:3|2:3,0:0:0:0:
283,68,60294,5,6,2:3:0:0:
288,109,60370,1,8,1:0:0:0:
293,151,60447,1,8,1:0:0:0:
298,192,60523,1,8,1:0:0:0:
303,234,60600,6,0,P|377:254|447:190,1,159.375,6|0,3:2|0:0,0:0:0:0:
457,188,60906,2,0,L|471:297,1,106.25,8|2,0:0|0:0,0:0:0:0:
210,256,61212,1,2,3:2:0:0:
361,159,61365,1,0,3:0:0:0:
210,256,61518,2,0,P|147:247|86:239,1,106.25,8|0,0:0|0:0,0:0:0:0:
27,6,61824,6,0,P|63:60|168:34,1,159.375,10|0,2:1|0:0,0:0:0:0:
167,33,62131,2,0,L|155:150,1,106.25,10|0,0:0|3:0,0:0:0:0:
210,256,62437,1,2,0:0:0:0:
39,172,62590,1,0,3:0:0:0:
259,90,62743,2,0,P|332:78|402:66,1,106.25,10|0,0:0|0:0,0:0:0:0:
446,223,63049,6,0,B|441:158|428:132|428:132|463:94|463:94|446:62|448:5,2,212.5,2|8|0,3:2|0:0|3:0,0:0:0:0:
349,192,63814,1,0,3:0:0:0:
508,307,63967,2,0,P|426:319|367:328,1,106.25,10|0,0:0|0:0,0:0:0:0:
244,172,64273,6,0,P|319:187|390:195,1,106.25,2|0,3:2|0:0,0:0:0:0:
446,223,64580,1,10,0:0:0:0:
259,382,64733,2,0,P|250:308|242:255,1,106.25,2|0,3:2|0:0,0:0:0:0:
158,336,65039,1,2,3:2:0:0:
355,160,65192,2,0,P|344:232|340:277,1,106.25,8|0,0:0|0:0,0:0:0:0:
158,336,65498,6,0,P|88:356|3:249,2,212.5,2|8|0,3:2|0:0|3:2,0:0:0:0:
103,186,66263,1,0,3:0:0:0:
300,222,66416,2,0,P|212:239|182:243,1,106.25,10|0,0:0|0:0,0:0:0:0:
375,376,66722,6,0,P|390:289|396:251,1,106.25,2|0,3:2|0:0,0:0:0:0:
418,168,67029,1,10,0:0:0:0:
223,36,67182,2,0,P|234:120|242:176,1,106.25,2|0,3:2|0:0,0:0:0:0:
332,74,67488,1,2,3:2:0:0:
131,163,67641,2,0,P|61:148|14:137,1,106.25,8|0,0:0|0:0,0:0:0:0:
194,45,67947,5,2,3:2:0:0:
134,254,68100,1,0,0:0:0:0:
331,224,68253,1,8,0:0:0:0:
211,130,68406,1,2,2:1:0:0:
211,130,68483,1,2,2:1:0:0:
211,130,68559,1,0,3:0:0:0:
376,292,68712,1,0,3:0:0:0:
201,361,68865,2,0,P|209:298|223:222,1,106.25,10|2,0:0|0:0,0:0:0:0:
305,307,69171,5,2,3:1:0:0:
120,237,69324,1,0,0:0:0:0:
296,139,69478,5,10,0:0:0:0:
99,238,69631,1,0,3:0:0:0:
202,112,69784,5,2,2:1:0:0:
202,112,69860,1,2,2:1:0:0:
202,112,69937,2,0,L|213:189,1,53.125,4|0,3:2|0:0,0:0:0:0:
9,368,70090,1,10,0:0:0:0:
14,342,70166,1,8,1:0:0:0:
20,315,70243,1,8,1:0:0:0:
26,289,70319,1,8,1:0:0:0:
32,263,70396,6,0,B|108:284|108:284|158:251|158:251|267:276,2,212.5,6|10|2,3:2|0:0|3:2,0:0:0:0:
187,345,71161,1,2,3:2:0:0:
89,186,71314,2,0,P|81:110|83:44,1,106.25,8|2,0:0|0:0,0:0:0:0:
320,226,71620,6,0,P|316:289|299:352,1,106.25,0|0,3:0|0:0,0:0:0:0:
179,126,71927,2,0,P|270:116|328:105,1,106.25,10|0,0:0|3:0,0:0:0:0:
400,134,72233,1,2,0:0:0:0:
226,213,72386,1,0,3:0:0:0:
400,134,72539,2,0,P|391:70|385:27,1,106.25,10|0,0:0|0:0,0:0:0:0:
489,256,72845,6,0,P|415:248|320:231,1,159.375,10|0,2:1|0:0,0:0:0:0:
304,230,73151,1,10,0:0:0:0:
491,150,73304,1,0,0:0:0:0:
152,136,73457,2,0,P|214:127|273:117,1,106.25,2|0,3:2|3:0,0:0:0:0:
283,115,73687,1,2,0:0:0:0:
308,109,73763,1,8,0:0:0:0:
196,31,73916,1,2,0:0:0:0:
247,222,74069,6,0,P|259:290|265:346,1,106.25,6|0,3:2|0:0,0:0:0:0:
164,296,74376,1,10,0:0:0:0:
335,175,74529,1,0,3:0:0:0:
367,380,74682,1,10,0:0:0:0:
445,220,74835,1,8,1:0:0:0:
445,220,74911,1,8,1:0:0:0:
445,220,74988,1,10,0:0:0:0:
262,339,75141,1,8,2:3:0:0:
454,364,75294,6,0,P|409:303|327:299,1,159.375,14|0,1:2|0:0,0:0:0:0:
308,312,75600,2,0,P|321:244|323:173,1,106.25,8|2,1:2|3:2,0:0:0:0:
87,149,75906,2,0,P|93:217|110:286,1,106.25,8|2,1:2|3:2,0:0:0:0:
392,155,76212,1,8,1:2:0:0:
183,199,76365,1,0,3:0:0:0:
183,199,76442,1,0,3:0:0:0:
183,199,76518,5,8,1:2:0:0:
375,64,76671,1,0,3:0:0:0:
411,247,76824,5,10,1:2:0:0:
192,108,76978,1,0,3:0:0:0:
171,282,77131,5,10,1:2:0:0:
392,155,77284,1,0,3:0:0:0:
201,18,77437,5,10,1:2:0:0:
287,208,77590,1,0,3:0:0:0:
287,208,77666,1,0,3:0:0:0:
287,208,77743,6,0,B|297:152|297:152|278:90,1,106.25,10|0,1:2|3:0,0:0:0:0:
393,66,78049,1,8,1:2:0:0:
198,156,78202,1,0,3:0:0:0:
393,66,78355,2,0,L|398:194,1,106.25,8|0,1:2|3:0,0:0:0:0:
364,281,78661,1,10,1:2:0:0:
506,117,78814,1,0,3:0:0:0:
506,117,78891,1,0,3:0:0:0:
506,117,78967,5,6,3:2:0:0:
294,203,79120,1,0,3:0:0:0:
460,346,79273,2,0,P|465:276|472:217,1,106.25,8|0,0:0|1:0,0:0:0:0:
215,159,79580,6,0,L|211:222,1,53.125,10|0,0:0|0:0,0:0:0:0:
94,377,79733,2,0,L|86:312,1,53.125,8|0,2:3|0:0,0:0:0:0:
66,234,79886,2,0,B|129:248|129:248|166:286|166:286|246:299,1,191.250007295609,4|0,2:3|0:0,0:0:0:0:
265,299,80192,5,14,1:2:0:0:
131,154,80345,1,0,0:0:0:0:
131,154,80498,1,0,3:0:0:0:
177,347,80651,5,14,1:2:0:0:
235,112,80804,1,0,0:0:0:0:
235,112,80957,1,0,3:0:0:0:
375,299,81110,5,14,1:2:0:0:
216,228,81263,1,0,0:0:0:0:
438,216,81416,1,0,3:0:0:0:
344,108,81569,5,14,1:2:0:0:
471,92,81722,1,0,3:0:0:0:
328,225,81876,1,8,2:3:0:0:
328,225,81952,1,4,2:3:0:0:
328,225,82029,1,14,1:2:0:0:
266,37,82182,1,10,1:2:0:0:
493,63,82641,6,0,P|487:129|481:173,1,93.5000028533936,6|0,3:2|0:0,0:0:0:0:
316,149,82947,2,0,P|377:122|418:105,1,93.5000028533936,8|0,0:0|0:0,0:0:0:0:
493,63,83253,1,2,0:0:0:0:
493,63,83406,1,0,3:0:0:0:
476,268,83559,2,0,P|422:230|387:203,1,93.5000028533936,10|0,0:0|0:0,0:0:0:0:
233,247,83865,6,0,P|200:300|174:349,1,93.5000028533936,2|0,3:2|0:0,0:0:0:0:
305,172,84171,1,8,0:0:0:0:
329,357,84324,2,0,P|318:249|302:158,1,187.000005706787,2|2,0:0|3:2,0:0:0:0:
363,95,84784,2,0,P|426:111|492:120,1,93.5000028533936,8|0,0:0|0:0,0:0:0:0:
227,220,85090,6,0,P|177:235|82:155,2,187.000005706787,2|8|2,3:2|0:0|0:0,0:0:0:0:
177,134,85855,1,0,3:0:0:0:
287,290,86008,2,0,P|355:282|418:271,1,93.5000028533936,10|0,0:0|0:0,0:0:0:0:
328,189,86314,6,0,P|338:117|346:64,1,93.5000028533936,2|0,3:2|0:0,0:0:0:0:
512,229,86620,2,0,P|463:215|416:199,1,93.5000028533936,10|0,0:0|0:0,0:0:0:0:
245,135,86927,1,2,0:0:0:0:
245,135,87080,1,0,3:0:0:0:
421,21,87233,2,0,P|429:76|434:137,1,93.5000028533936,10|0,0:0|0:0,0:0:0:0:
280,221,87539,6,0,B|183:245|192:175|99:199,2,187.000005706787,2|8|2,3:2|0:0|0:0,0:0:0:0:
137,108,88304,1,0,3:0:0:0:
135,286,88457,2,0,P|141:354|145:394,1,93.5000028533936,10|0,0:0|0:0,0:0:0:0:
361,277,88763,6,0,P|372:217|377:168,1,93.5000028533936,2|0,3:2|0:0,0:0:0:0:
300,128,89069,1,10,0:0:0:0:
286,335,89222,2,0,P|329:363|406:361,1,93.5000028533936,2|0,0:0|0:0,0:0:0:0:
449,318,89529,1,0,3:0:0:0:
271,239,89682,2,0,P|225:262|188:329,1,93.5000028533936,10|0,0:0|0:0,0:0:0:0:
48,109,89988,6,0,B|93:113|118:128|118:128|153:105|153:105|180:121|242:125,2,187.000005706787,2|8|2,3:2|0:0|0:0,0:0:0:0:
103,30,90753,1,0,3:0:0:0:
307,188,90906,2,0,P|320:121|322:76,1,93.5000028533936,10|0,0:0|0:0,0:0:0:0:
220,27,91212,5,6,3:2:0:0:
193,262,91365,1,0,3:0:0:0:
401,196,91518,1,8,0:0:0:0:
228,149,91671,1,2,1:2:0:0:
228,149,91748,1,0,1:2:0:0:
228,149,91824,1,8,0:0:0:0:
422,74,91978,1,8,2:3:0:0:
450,288,92131,2,0,P|403:284|348:278,1,95.6250036478044,6|0,2:3|0:0,0:0:0:0:
337,277,92437,1,6,3:2:0:0:
36,324,94580,6,0,P|46:262|51:226,1,76.4999976654053,12|0,0:0|1:0,0:0:0:0:
20,173,94809,1,0,1:0:0:0:
20,173,94886,6,0,P|58:228|177:202,2,187.000005706787,2|8|2,3:2|0:0|0:0,0:0:0:0:
188,98,95651,1,0,3:0:0:0:
89,64,95804,2,0,P|100:139|115:187,1,93.5000028533936,10|0,0:0|0:0,0:0:0:0:
278,200,96110,6,0,P|337:206|396:211,1,93.5000028533936,2|0,3:2|0:0,0:0:0:0:
183,296,96416,2,0,P|124:288|75:279,1,93.5000028533936,10|0,0:0|0:0,0:0:0:0:
294,380,96722,2,0,P|287:322|279:264,1,93.5000028533936,2|0,0:0|3:0,0:0:0:0:
365,128,97029,1,10,0:0:0:0:
179,209,97182,1,0,0:0:0:0:
365,128,97335,6,0,L|385:316,2,187.000005706787,2|8|2,3:2|0:0|0:0,0:0:0:0:
286,268,98100,1,0,3:0:0:0:
189,164,98253,2,0,P|251:176|322:184,1,93.5000028533936,10|0,0:0|0:0,0:0:0:0:
434,94,98559,6,0,P|398:55|343:57,1,93.5000028533936,2|0,3:2|0:0,0:0:0:0:
276,93,98865,1,10,0:0:0:0:
462,203,99018,2,0,P|412:212|360:219,1,93.5000028533936,2|0,0:0|0:0,0:0:0:0:
295,277,99324,1,2,3:2:0:0:
461,350,99478,2,0,L|359:334,1,93.5000028533936,8|0,0:0|0:0,0:0:0:0:
168,356,99784,6,0,B|172:311|187:286|187:286|167:255|167:255|188:226|184:162,2,187.000005706787,2|8|2,3:2|0:0|0:0,0:0:0:0:
83,186,100549,1,0,3:0:0:0:
263,236,100702,2,0,P|327:230|374:218,1,93.5000028533936,8|0,0:0|0:0,0:0:0:0:
94,298,101008,5,6,3:2:0:0:
268,233,101161,1,0,3:0:0:0:
83,186,101314,1,8,0:0:0:0:
263,344,101467,1,2,1:2:0:0:
263,344,101544,1,0,1:2:0:0:
263,344,101620,1,10,0:0:0:0:
37,384,101773,1,8,2:3:0:0:
177,239,101927,2,0,L|167:359,1,95.6250036478044,4|0,2:3|0:0,0:0:0:0:
168,356,102233,1,14,2:1:0:0:
148,10,106365,5,0,1:0:0:0:
148,10,106442,1,0,1:0:0:0:
148,10,106518,1,10,0:0:0:0:
197,144,106671,1,4,3:2:0:0:
314,42,106824,2,0,P|256:52|209:59,1,93.5000028533936,10|0,0:0|0:0,0:0:0:0:
103,236,107131,6,0,B|92:185|92:185|111:155|111:155|100:91,1,140.25000428009,14|0,3:2|0:0,0:0:0:0:
98,82,107437,1,0,3:0:0:0:
275,195,107590,2,0,B|265:244|265:244|285:273|285:273|272:331,1,140.25000428009,10|0,3:2|0:0,0:0:0:0:
267,347,107896,1,0,3:0:0:0:
356,219,108049,1,10,3:2:0:0:
199,298,108202,1,0,3:0:0:0:
199,298,108279,1,0,3:0:0:0:
199,298,108355,6,0,P|150:347|78:338,1,140.25000428009,14|0,3:2|0:0,0:0:0:0:
65,330,108661,1,0,3:0:0:0:
140,214,108814,2,0,P|204:199|282:258,1,140.25000428009,10|0,3:2|0:0,0:0:0:0:
281,253,109120,1,0,3:0:0:0:
32,256,109273,1,10,3:2:0:0:
142,47,109427,1,0,3:0:0:0:
0,141,109580,5,6,3:2:0:0:
23,137,109656,1,0,3:0:0:0:
46,139,109733,1,0,3:0:0:0:
67,149,109809,1,0,3:0:0:0:
86,163,109886,1,8,3:2:0:0:
105,175,109962,1,0,3:0:0:0:
128,181,110039,1,2,3:2:0:0:
151,181,110115,1,0,3:0:0:0:
174,174,110192,2,0,L|160:102,3,46.7500014266968,10|8|8|8,1:2|1:0|1:0|1:0,0:0:0:0:
191,56,110498,5,8,1:2:0:0:
230,31,110574,1,8,1:0:0:0:
276,28,110651,1,8,1:0:0:0:
317,50,110728,1,8,1:0:0:0:
339,94,110804,6,0,B|316:149|316:149|377:138|440:147|440:147|408:131|403:104,1,223.125008511544,6|0,3:2|0:0,0:0:0:0:
502,32,111416,2,0,P|457:39|356:3,1,140.25000428009,2|0,3:2|0:0,0:0:0:0:
244,84,111722,2,0,L|235:16,3,46.7500014266968,10|0|0|0,0:0|1:0|1:0|1:0,0:0:0:0:
230,5,112029,6,0,P|189:52|82:41,1,159.375,6|0,3:2|0:0,0:0:0:0:
76,34,112335,2,0,P|81:90|90:151,1,106.25,8|2,0:0|0:0,0:0:0:0:
114,335,112641,1,2,3:2:0:0:
24,215,112794,1,0,3:0:0:0:
205,301,112947,2,0,P|265:295|329:281,1,106.25,8|0,0:0|0:0,0:0:0:0:
372,44,113253,6,0,B|342:121|342:121|381:201,1,159.375,10|0,2:1|0:0,0:0:0:0:
381,210,113559,2,0,P|317:196|259:189,1,106.25,10|0,0:0|3:0,0:0:0:0:
171,182,113865,1,2,0:0:0:0:
341,102,114018,1,0,3:0:0:0:
171,182,114171,2,0,P|156:100|146:37,1,106.25,10|0,0:0|0:0,0:0:0:0:
341,11,114478,6,0,P|398:29|407:165,2,212.5,2|8|0,3:2|0:0|3:0,0:0:0:0:
351,260,115243,1,0,3:0:0:0:
237,106,115396,2,0,P|297:114|364:86,1,106.25,10|0,0:0|0:0,0:0:0:0:
454,253,115702,6,0,P|385:248|340:266,1,106.25,2|0,3:2|0:0,0:0:0:0:
450,160,116008,1,10,0:0:0:0:
248,316,116161,2,0,P|248:244|256:182,1,106.25,2|0,3:2|0:0,0:0:0:0:
348,370,116467,1,2,3:2:0:0:
157,268,116620,2,0,P|77:283|37:288,1,106.25,8|0,0:0|0:0,0:0:0:0:
231,113,116927,6,0,B|272:123|306:129|306:129|335:172|335:172|383:177|442:196,2,212.5,2|8|0,3:2|0:0|3:2,0:0:0:0:
393,88,117692,1,0,3:0:0:0:
255,314,117845,2,0,P|248:255|244:181,1,106.25,10|0,0:0|0:0,0:0:0:0:
49,252,118151,6,0,P|123:266|166:271,1,106.25,2|0,3:2|0:0,0:0:0:0:
318,140,118457,1,10,0:0:0:0:
126,65,118610,2,0,P|129:134|140:196,1,106.25,2|0,3:2|0:0,0:0:0:0:
390,79,118916,1,2,3:2:0:0:
390,79,119069,2,0,P|339:51|270:60,1,106.25,8|0,0:0|0:0,0:0:0:0:
499,31,119376,5,2,3:2:0:0:
315,133,119529,1,0,0:0:0:0:
509,175,119682,1,8,0:0:0:0:
317,277,119835,1,2,2:1:0:0:
317,277,119911,1,2,2:1:0:0:
317,277,119988,1,0,3:0:0:0:
420,121,120141,1,0,3:0:0:0:
420,121,120294,2,0,P|409:209|408:256,1,106.25,10|2,0:0|0:0,0:0:0:0:
396,337,120600,5,2,3:1:0:0:
196,222,120753,1,0,0:0:0:0:
276,382,120906,5,10,0:0:0:0:
317,166,121059,1,0,3:0:0:0:
134,323,121212,5,2,2:1:0:0:
134,323,121289,1,2,2:1:0:0:
134,323,121365,2,0,L|126:269,1,53.125,4|0,3:2|0:0,0:0:0:0:
45,123,121518,1,10,0:0:0:0:
41,149,121595,1,8,1:0:0:0:
37,175,121671,1,8,1:0:0:0:
34,201,121748,1,8,1:0:0:0:
31,227,121824,6,0,P|85:174|221:216,2,212.5,6|10|2,3:2|0:0|3:2,0:0:0:0:
204,83,122590,1,2,3:2:0:0:
129,267,122743,2,0,P|124:343|126:391,1,106.25,8|2,0:0|0:0,0:0:0:0:
309,247,123049,6,0,P|306:181|293:127,1,106.25,0|0,3:0|0:0,0:0:0:0:
242,358,123355,2,0,P|324:358|386:340,1,106.25,10|0,0:0|3:0,0:0:0:0:
417,264,123661,1,2,0:0:0:0:
206,203,123814,1,0,3:0:0:0:
378,94,123967,2,0,P|359:176|351:214,1,106.25,10|0,0:0|0:0,0:0:0:0:
255,281,124273,6,0,P|193:293|116:209,1,159.375,10|0,2:1|0:0,0:0:0:0:
110,212,124580,1,10,0:0:0:0:
72,374,124733,1,0,0:0:0:0:
205,201,124886,2,0,P|197:131|194:76,1,106.25,2|0,3:2|3:0,0:0:0:0:
191,69,125115,1,2,0:0:0:0:
189,42,125192,1,8,0:0:0:0:
87,130,125345,1,2,0:0:0:0:
306,100,125498,6,0,P|402:123|458:131,1,106.25,6|0,3:2|0:0,0:0:0:0:
372,21,125804,1,10,0:0:0:0:
494,184,125957,1,0,3:0:0:0:
271,272,126110,1,10,0:0:0:0:
359,118,126263,1,0,1:0:0:0:
359,118,126340,1,0,1:0:0:0:
359,118,126416,1,10,0:0:0:0:
417,346,126569,1,8,2:3:0:0:
184,357,126722,6,0,B|153:284|153:284|190:197,1,159.375,14|0,1:2|0:0,0:0:0:0:
193,186,127029,2,0,P|139:197|66:202,1,106.25,8|2,1:2|3:2,0:0:0:0:
32,51,127335,2,0,P|105:56|155:66,1,106.25,8|0,1:2|3:0,0:0:0:0:
303,185,127641,1,8,1:2:0:0:
239,13,127794,1,0,3:0:0:0:
239,13,127870,1,0,3:0:0:0:
239,13,127947,5,8,1:2:0:0:
407,197,128100,1,0,3:0:0:0:
192,251,128253,5,10,1:2:0:0:
339,122,128406,1,0,3:0:0:0:
192,251,128559,5,10,1:2:0:0:
395,312,128712,1,0,3:0:0:0:
216,126,128865,5,10,1:2:0:0:
139,353,129018,1,0,3:0:0:0:
139,353,129095,1,0,3:0:0:0:
139,353,129171,6,0,B|215:345|215:345|248:378|248:378|375:365,1,212.5,10|8,1:2|1:2,0:0:0:0:
462,243,129631,1,2,3:2:0:0:
256,176,129784,1,10,1:2:0:0:
442,67,129937,1,0,3:0:0:0:
256,176,130090,1,8,1:2:0:0:
341,27,130243,1,0,3:0:0:0:
341,27,130319,1,0,3:0:0:0:
341,27,130396,6,0,P|344:99|361:167,1,106.25,6|0,3:2|3:0,0:0:0:0:
58,156,130702,2,0,P|90:148|142:131,3,53.125,10|0|0|0,0:0|1:0|1:0|1:0,0:0:0:0:
241,95,131008,2,0,P|208:90|168:75,1,53.125,10|8,0:0|2:3,0:0:0:0:
111,0,131161,2,0,P|103:31|91:73,1,53.125,8|8,2:3|2:3,0:0:0:0:
75,242,131314,5,6,2:3:0:0:
113,223,131391,1,8,1:0:0:0:
155,224,131467,1,8,1:0:0:0:
191,246,131544,1,8,1:0:0:0:
209,284,131620,6,0,P|262:257|359:312,1,159.375,6|0,3:2|0:0,0:0:0:0:
365,314,131927,2,0,P|387:242|410:182,1,106.25,8|2,0:0|0:0,0:0:0:0:
252,160,132233,1,2,3:2:0:0:
276,353,132386,1,0,3:0:0:0:
252,160,132539,2,0,P|186:171|121:183,1,106.25,8|0,0:0|0:0,0:0:0:0:
18,313,132845,6,0,B|97:295|97:295|173:346,1,159.375,10|0,2:1|0:0,0:0:0:0:
180,355,133151,2,0,P|197:291|214:228,1,106.25,10|0,0:0|3:0,0:0:0:0:
288,321,133457,1,2,0:0:0:0:
147,178,133610,1,0,3:0:0:0:
305,226,133763,2,0,P|376:218|436:202,1,106.25,10|0,0:0|0:0,0:0:0:0:
455,100,134069,6,0,P|431:42|291:42,2,212.5,2|8|0,3:2|0:0|3:0,0:0:0:0:
257,144,134835,1,0,3:0:0:0:
396,299,134988,2,0,P|330:296|265:276,1,106.25,10|0,0:0|0:0,0:0:0:0:
190,356,135294,6,0,P|178:304|173:252,1,106.25,2|0,3:2|0:0,0:0:0:0:
362,103,135600,1,10,0:0:0:0:
362,103,135753,2,0,P|357:155|348:208,1,106.25,2|0,3:2|0:0,0:0:0:0:
114,156,136059,1,2,3:2:0:0:
258,30,136212,2,0,P|266:102|267:158,1,106.25,8|0,0:0|0:0,0:0:0:0:
14,147,136518,6,0,P|55:77|189:103,2,212.5,2|8|0,3:2|0:0|3:2,0:0:0:0:
192,196,137284,1,0,3:0:0:0:
70,340,137437,2,0,P|85:268|98:223,1,106.25,10|0,0:0|0:0,0:0:0:0:
269,272,137743,6,0,P|217:298|151:293,1,106.25,2|0,3:2|0:0,0:0:0:0:
108,153,138049,1,10,0:0:0:0:
313,88,138202,2,0,P|321:171|324:220,1,106.25,2|0,3:2|0:0,0:0:0:0:
219,150,138508,1,2,3:2:0:0:
412,266,138661,2,0,P|420:211|426:151,1,106.25,8|0,0:0|0:0,0:0:0:0:
300,18,138967,5,2,3:2:0:0:
326,211,139120,1,0,0:0:0:0:
493,96,139273,1,8,0:0:0:0:
223,182,139427,5,2,2:1:0:0:
223,182,139503,1,2,2:1:0:0:
223,182,139580,1,0,3:0:0:0:
385,76,139733,1,0,3:0:0:0:
247,281,139886,2,0,P|186:268|101:246,1,106.25,10|2,0:0|0:0,0:0:0:0:
0,255,140192,5,2,3:1:0:0:
217,182,140345,1,0,0:0:0:0:
9,128,140498,5,10,0:0:0:0:
66,337,140651,1,0,3:0:0:0:
124,178,140804,1,2,2:1:0:0:
124,178,140881,1,2,2:1:0:0:
124,178,140957,2,0,L|114:100,1,53.125,4|0,3:2|0:0,0:0:0:0:
259,270,141110,1,10,0:0:0:0:
285,272,141187,1,8,1:0:0:0:
311,275,141263,1,8,1:0:0:0:
337,278,141340,1,8,1:0:0:0:
363,281,141416,6,0,P|339:197|210:230,2,212.5,6|10|2,3:2|0:0|3:2,0:0:0:0:
236,380,142182,1,2,3:2:0:0:
142,262,142335,2,0,P|128:190|136:120,1,106.25,8|2,0:0|0:0,0:0:0:0:
340,57,142641,6,0,P|336:120|319:183,1,106.25,0|0,3:0|0:0,0:0:0:0:
402,371,142947,2,0,P|326:357|271:340,1,106.25,10|0,0:0|3:0,0:0:0:0:
371,250,143253,1,2,0:0:0:0:
183,335,143406,1,0,3:0:0:0:
371,250,143559,2,0,P|367:187|350:113,1,106.25,10|0,0:0|0:0,0:0:0:0:
144,157,143865,6,0,P|181:217|281:197,1,159.375,10|0,2:1|0:0,0:0:0:0:
281,200,144171,1,10,0:0:0:0:
75,249,144324,1,0,0:0:0:0:
245,362,144478,2,0,P|184:353|132:342,1,106.25,2|0,3:2|3:0,0:0:0:0:
115,336,144707,1,2,0:0:0:0:
89,327,144784,1,8,0:0:0:0:
323,264,144937,1,2,0:0:0:0:
130,166,145090,6,0,P|121:97|119:27,1,106.25,6|0,3:2|0:0,0:0:0:0:
17,138,145396,1,10,0:0:0:0:
234,86,145549,1,0,3:0:0:0:
33,17,145702,1,10,0:0:0:0:
223,189,145855,1,8,1:0:0:0:
223,189,145932,1,8,1:0:0:0:
223,189,146008,1,10,0:0:0:0:
17,256,146161,1,8,2:3:0:0:
191,97,146314,6,0,B|277:85|262:130|351:119,1,159.375,14|0,1:2|0:0,0:0:0:0:
372,113,146620,2,0,P|361:57|316:17,1,106.25,8|2,1:2|3:2,0:0:0:0:
134,31,146927,2,0,P|106:74|107:127,1,106.25,8|0,1:2|3:0,0:0:0:0:
254,242,147233,1,8,1:2:0:0:
233,7,147386,1,0,3:0:0:0:
233,7,147462,1,0,3:0:0:0:
233,7,147539,5,8,1:2:0:0:
152,251,147692,1,0,3:0:0:0:
393,222,147845,5,10,1:2:0:0:
189,139,147998,1,0,3:0:0:0:
345,311,148151,5,10,1:2:0:0:
277,90,148304,1,0,3:0:0:0:
193,335,148457,5,10,1:2:0:0:
107,112,148610,1,0,3:0:0:0:
107,112,148687,1,0,3:0:0:0:
107,112,148763,6,0,P|100:194|99:240,1,106.25,10|0,1:2|3:0,0:0:0:0:
266,281,149069,1,8,1:2:0:0:
81,366,149222,1,0,3:0:0:0:
266,281,149376,2,0,P|259:213|250:166,1,106.25,8|0,1:2|3:0,0:0:0:0:
233,64,149682,1,10,1:2:0:0:
357,279,149835,1,0,3:0:0:0:
357,279,149911,1,0,3:0:0:0:
357,279,149988,5,6,3:2:0:0:
146,288,150141,1,0,3:0:0:0:
348,173,150294,2,0,P|410:181|468:190,1,106.25,8|0,0:0|1:0,0:0:0:0:
146,288,150600,6,0,P|143:254|151:205,1,53.125,10|0,0:0|0:0,0:0:0:0:
357,279,150753,2,0,P|360:320|352:356,1,53.125,8|0,2:3|0:0,0:0:0:0:
253,370,150906,2,0,L|250:194,1,159.375,4|0,2:3|0:0,0:0:0:0:
250,182,151212,1,6,3:2:0:0:
256,192,151289,12,2,153661,3:2:0:0:
192,227,160396,5,10,0:0:0:0:
71,273,160549,1,8,2:3:0:0:
241,351,160702,1,4,2:3:0:0:
192,134,160855,1,8,0:0:0:0:
8,375,161008,5,6,3:2:0:0:
34,370,161085,1,0,0:0:0:0:
60,365,161161,1,0,0:0:0:0:
86,360,161238,1,0,0:0:0:0:
112,355,161314,2,0,L|174:369,1,53.125
19,283,161467,5,6,3:2:0:0:
45,278,161544,1,0,0:0:0:0:
71,273,161620,1,0,0:0:0:0:
97,268,161697,1,0,0:0:0:0:
123,263,161773,2,0,L|185:277,1,53.125
87,178,161927,5,6,3:2:0:0:
113,173,162003,1,0,0:0:0:0:
139,169,162080,2,0,L|220:182,1,53.125
9,4,162233,5,6,3:2:0:0:
17,29,162309,1,0,0:0:0:0:
25,54,162386,1,0,0:0:0:0:
33,79,162462,1,0,0:0:0:0:
41,104,162539,2,0,L|32:169,1,53.125
114,16,162692,5,6,3:2:0:0:
122,41,162768,1,0,0:0:0:0:
130,66,162845,1,0,0:0:0:0:
138,91,162921,1,0,0:0:0:0:
146,116,162998,2,0,L|137:181,1,53.125
234,78,163151,5,6,3:2:0:0:
242,103,163228,1,0,0:0:0:0:
248,129,163304,2,0,L|239:194,1,53.125
388,21,163457,5,6,3:2:0:0:
413,29,163534,1,0,0:0:0:0:
437,37,163610,1,0,0:0:0:0:
462,45,163687,1,0,0:0:0:0:
486,53,163763,2,0,L|506:-1,1,53.125
361,108,163916,5,6,3:2:0:0:
386,116,163993,1,0,0:0:0:0:
410,124,164069,1,0,0:0:0:0:
435,132,164146,1,0,0:0:0:0:
459,140,164222,2,0,L|518:158,1,53.125
385,216,164376,5,6,3:2:0:0:
410,224,164452,1,0,0:0:0:0:
434,232,164529,2,0,L|418:282,1,53.125
510,380,164682,5,6,3:2:0:0:
484,374,164758,1,0,0:0:0:0:
457,368,164835,1,0,0:0:0:0:
431,362,164911,1,0,0:0:0:0:
404,356,164988,2,0,L|343:369,1,53.125
254,381,165141,5,6,3:2:0:0:
259,355,165217,1,0,0:0:0:0:
264,328,165294,1,0,0:0:0:0:
269,302,165370,1,0,0:0:0:0:
274,275,165447,2,0,L|287:196,1,53.125
453,176,165600,5,6,3:2:0:0:
427,185,165677,1,0,0:0:0:0:
402,194,165753,2,0,L|386:118,1,53.125
321,65,165906,5,6,3:2:0:0:
301,90,165983,1,0,0:0:0:0:
273,106,166059,1,0,0:0:0:0:
241,109,166136,1,0,0:0:0:0:
211,97,166212,2,0,L|214:29,1,53.125
101,22,166365,5,6,3:2:0:0:
105,53,166442,1,0,0:0:0:0:
109,84,166518,1,0,0:0:0:0:
113,115,166595,1,0,0:0:0:0:
117,146,166671,2,0,L|124:220,1,53.125
297,202,166824,5,6,3:2:0:0:
283,230,166901,1,0,0:0:0:0:
258,248,166978,2,0,L|199:242,1,53.125
4,373,167131,5,6,3:2:0:0:
24,342,167207,1,0,0:0:0:0:
56,324,167284,1,0,0:0:0:0:
92,323,167360,1,0,0:0:0:0:
126,338,167437,2,0,L|117:278,1,53.125
219,159,167590,5,6,3:2:0:0:
225,195,167666,1,0,0:0:0:0:
231,231,167743,1,0,0:0:0:0:
237,267,167819,1,0,0:0:0:0:
244,303,167896,2,0,L|255:366,1,53.125
443,343,168049,5,6,3:2:0:0:
413,320,168126,1,0,0:0:0:0:
376,320,168202,2,0,L|363:389,1,53.125
70,242,168355,6,0,B|145:213|145:213|238:265,1,159.375,6|0,3:2|3:0,0:0:0:0:
237,267,168661,1,8,3:2:0:0:
373,200,168814,1,0,1:0:0:0:
397,210,168891,1,0,1:0:0:0:
422,218,168967,6,0,L|419:149,1,53.125,10|0,3:2|3:0,0:0:0:0:
319,11,169120,1,0,3:0:0:0:
311,30,169197,1,2,3:2:0:0:
303,49,169273,2,0,L|309:127,1,53.125,8|0,3:2|3:0,0:0:0:0:
204,269,169427,2,0,L|194:184,1,53.125,2|0,3:2|3:0,0:0:0:0:
70,116,169580,5,10,3:2:0:0:
110,127,169656,1,0,3:0:0:0:
152,123,169733,1,2,3:2:0:0:
190,106,169809,1,0,3:0:0:0:
209,67,169886,2,0,L|203:8,1,53.125,10|0,3:2|3:0,0:0:0:0:
427,159,170039,1,2,3:2:0:0:
423,185,170115,1,0,3:0:0:0:
420,211,170192,6,0,L|336:200,1,53.125,8|0,3:2|3:0,0:0:0:0:
217,327,170345,2,0,L|229:242,1,53.125,2|0,3:2|3:0,0:0:0:0:
298,22,170498,1,10,3:2:0:0:
314,66,170574,1,0,3:0:0:0:
356,88,170651,1,2,3:2:0:0:
404,88,170728,1,0,3:0:0:0:
448,62,170804,6,0,B|434:130|434:130|455:161|455:161|435:254,1,172.125000656605,6|0,3:2|3:0,0:0:0:0:
512,287,171110,5,8,3:2:0:0:
471,265,171187,1,0,3:0:0:0:
425,268,171263,1,0,3:0:0:0:
386,293,171340,1,0,3:0:0:0:
365,333,171416,1,8,3:2:0:0:
328,370,171493,1,0,3:0:0:0:
271,380,171569,5,8,1:0:0:0:
210,361,171646,5,8,1:0:0:0:
175,302,171722,5,8,1:2:0:0:
188,233,171799,5,8,1:0:0:0:
240,187,171876,5,8,1:0:0:0:
308,185,171952,5,8,1:0:0:0:
363,233,172029,6,0,P|259:293|303:171,1,297.5,6|0,3:2|0:0,0:0:0:0:
368,4,172641,6,0,B|354:50|354:50|374:79|374:79|359:137,1,140.25000428009,2|0,3:2|0:0,0:0:0:0:
274,82,172947,2,0,L|216:89,3,46.7500014266968,10|0|0|0,0:0|1:0|1:0|1:0,0:0:0:0:
198,92,173253,6,0,P|155:132|53:100,1,159.375,6|0,3:2|0:0,0:0:0:0:
41,98,173559,2,0,P|47:174|54:220,1,106.25,8|2,0:0|0:0,0:0:0:0:
253,367,173865,1,2,3:2:0:0:
217,196,174018,1,0,3:0:0:0:
74,288,174171,2,0,P|145:298|209:311,1,106.25,8|0,0:0|0:0,0:0:0:0:
466,121,174478,6,0,P|427:171|321:159,1,159.375,10|0,2:1|0:0,0:0:0:0:
314,155,174784,2,0,P|305:229|302:277,1,106.25,10|0,0:0|3:0,0:0:0:0:
442,326,175090,1,2,0:0:0:0:
279,378,175243,1,0,3:0:0:0:
442,326,175396,2,0,P|436:261|428:204,1,106.25,10|0,0:0|0:0,0:0:0:0:
245,81,175702,6,0,P|216:134|67:115,2,212.5,2|8|0,3:2|0:0|3:0,0:0:0:0:
149,64,176467,1,0,3:0:0:0:
297,191,176620,2,0,P|367:188|432:175,1,106.25,10|0,0:0|0:0,0:0:0:0:
465,59,176927,6,0,P|410:47|355:45,1,106.25,2|0,3:2|0:0,0:0:0:0:
231,120,177233,1,10,0:0:0:0:
486,246,177386,2,0,P|497:180|497:128,1,106.25,2|0,3:2|0:0,0:0:0:0:
465,58,177692,1,2,3:2:0:0:
297,191,177845,2,0,P|300:264|308:302,1,106.25,8|0,0:0|0:0,0:0:0:0:
412,373,178151,6,0,P|490:344|454:222,2,212.5,2|8|0,3:2|0:0|3:2,0:0:0:0:
223,226,178916,1,0,3:0:0:0:
368,282,179069,2,0,P|381:208|381:149,1,106.25,10|0,0:0|0:0,0:0:0:0:
211,120,179376,6,0,P|215:187|226:236,1,106.25,2|0,3:2|0:0,0:0:0:0:
315,69,179682,1,10,0:0:0:0:
121,177,179835,2,0,P|65:170|-7:149,1,106.25,2|0,3:2|0:0,0:0:0:0:
191,322,180141,1,2,3:2:0:0:
191,322,180294,2,0,P|248:315|310:297,1,106.25,8|0,0:0|0:0,0:0:0:0:
483,372,180600,5,2,3:2:0:0:
371,244,180753,1,2,3:2:0:0:
512,165,180906,1,8,0:0:0:0:
386,348,181059,1,2,2:1:0:0:
386,348,181136,1,2,2:1:0:0:
386,348,181212,2,0,P|375:290|370:225,1,106.25,0|0,3:0|3:0,0:0:0:0:
512,165,181518,2,0,P|508:245|495:306,1,106.25,10|2,0:0|0:0,0:0:0:0:
252,153,181824,5,2,3:1:0:0:
457,92,181978,1,0,0:0:0:0:
284,237,182131,5,10,0:0:0:0:
231,25,182284,1,0,3:0:0:0:
375,169,182437,5,2,2:1:0:0:
375,169,182513,1,2,2:1:0:0:
375,169,182590,2,0,L|386:242,1,53.125,4|0,3:2|0:0,0:0:0:0:
228,308,182743,1,10,0:0:0:0:
201,305,182819,1,8,1:0:0:0:
174,303,182896,1,8,1:0:0:0:
147,301,182972,1,8,1:0:0:0:
120,299,183049,6,0,P|69:283|90:129,2,212.5,6|10|2,3:2|0:0|3:2,0:0:0:0:
206,101,183814,1,2,3:2:0:0:
275,230,183967,2,0,P|190:220|136:202,1,106.25,8|2,0:0|0:0,0:0:0:0:
0,61,184273,6,0,P|62:48|143:47,1,106.25,0|0,3:0|0:0,0:0:0:0:
271,15,184580,2,0,P|263:83|252:135,1,106.25,10|0,0:0|3:0,0:0:0:0:
79,237,184886,1,2,0:0:0:0:
170,102,185039,1,0,3:0:0:0:
79,237,185192,2,0,P|65:173|59:113,1,106.25,10|0,0:0|0:0,0:0:0:0:
341,153,185498,6,0,P|304:200|198:190,1,159.375,10|0,2:1|0:0,0:0:0:0:
187,187,185804,1,10,0:0:0:0:
352,64,185957,1,0,0:0:0:0:
423,236,186110,2,0,P|431:164|441:102,1,106.25,2|0,3:2|3:0,0:0:0:0:
441,104,186340,1,2,0:0:0:0:
448,78,186416,1,8,0:0:0:0:
257,123,186569,1,2,0:0:0:0:
395,327,186722,6,0,P|462:324|500:288,1,106.25,6|0,3:2|0:0,0:0:0:0:
248,228,187029,1,10,0:0:0:0:
452,162,187182,1,0,3:0:0:0:
195,60,187335,1,10,1:2:0:0:
379,221,187488,1,0,1:0:0:0:
379,221,187564,1,0,1:0:0:0:
379,221,187641,1,10,0:0:0:0:
138,290,187794,1,8,2:3:0:0:
276,94,187947,6,0,P|239:139|131:121,1,159.375,14|0,1:2|0:0,0:0:0:0:
122,118,188253,2,0,P|107:186|102:229,1,106.25,8|2,1:2|3:2,0:0:0:0:
282,328,188559,2,0,P|269:249|254:204,1,106.25,8|0,1:2|3:0,0:0:0:0:
193,57,188865,1,8,1:2:0:0:
179,298,189018,1,0,3:0:0:0:
179,298,189095,1,0,3:0:0:0:
179,298,189171,5,8,1:2:0:0:
11,160,189324,1,0,3:0:0:0:
117,367,189478,5,10,1:2:0:0:
266,177,189631,1,0,3:0:0:0:
38,260,189784,5,10,1:2:0:0:
286,337,189937,1,0,3:0:0:0:
226,94,190090,5,10,1:2:0:0:
124,237,190243,1,0,3:0:0:0:
124,237,190319,1,0,3:0:0:0:
124,237,190396,6,0,B|202:230|202:230|241:264|241:264|329:259,1,212.5,10|8,1:2|1:2,0:0:0:0:
489,54,190855,1,2,3:2:0:0:
278,175,191008,1,10,1:2:0:0:
507,294,191161,1,0,3:0:0:0:
278,175,191314,1,8,1:2:0:0:
433,134,191467,1,0,3:0:0:0:
433,134,191544,1,0,3:0:0:0:
433,134,191620,6,0,P|444:183|440:279,1,106.25,6|0,3:2|3:0,0:0:0:0:
270,316,191927,2,0,P|243:323|199:338,3,53.125,10|0|0|0,0:0|1:0|1:0|1:0,0:0:0:0:
128,363,192233,2,0,P|135:336|144:290,1,53.125,10|8,0:0|2:3,0:0:0:0:
158,215,192386,2,0,P|177:234|212:265,1,53.125,8|8,2:3|2:3,0:0:0:0:
359,371,192539,5,6,2:3:0:0:
366,329,192615,1,8,1:0:0:0:
373,286,192692,1,8,1:0:0:0:
380,244,192768,1,8,1:0:0:0:
387,201,192845,6,0,P|319:217|257:151,1,159.375,6|0,3:2|0:0,0:0:0:0:
244,137,193151,2,0,P|180:149|117:158,1,106.25,8|2,0:0|0:0,0:0:0:0:
345,123,193457,1,2,3:2:0:0:
175,40,193610,1,0,3:0:0:0:
345,123,193763,2,0,P|351:56|354:6,1,106.25,8|0,0:0|0:0,0:0:0:0:
275,322,194069,6,0,P|320:278|414:302,1,159.375,10|0,2:1|0:0,0:0:0:0:
426,315,194376,2,0,P|443:249|461:182,1,106.25,10|0,0:0|3:0,0:0:0:0:
257,93,194682,1,2,0:0:0:0:
448,28,194835,1,0,3:0:0:0:
257,93,194988,2,0,P|264:181|277:229,1,106.25,10|0,0:0|0:0,0:0:0:0:
6,199,195294,6,0,P|40:139|173:157,2,212.5,2|8|0,3:2|0:0|3:0,0:0:0:0:
148,30,196059,1,0,3:0:0:0:
94,205,196212,2,0,P|81:277|76:340,1,106.25,10|0,0:0|0:0,0:0:0:0:
256,376,196518,6,0,P|253:295|241:234,1,106.25,2|0,3:2|0:0,0:0:0:0:
203,149,196824,1,10,0:0:0:0:
433,327,196978,2,0,P|393:298|319:312,1,106.25,2|0,3:2|0:0,0:0:0:0:
171,360,197284,1,2,3:2:0:0:
313,174,197437,2,0,P|325:103|335:37,1,106.25,8|0,0:0|0:0,0:0:0:0:
113,1,197743,6,0,P|52:13|48:154,2,212.5,2|8|0,3:2|0:0|3:2,0:0:0:0:
262,118,198508,1,0,3:0:0:0:
141,220,198661,2,0,P|151:133|165:84,1,106.25,10|0,0:0|0:0,0:0:0:0:
352,7,198967,6,0,P|363:77|363:151,1,106.25,2|0,3:2|0:0,0:0:0:0:
368,240,199273,1,10,0:0:0:0:
180,195,199427,2,0,P|266:181|329:163,1,106.25,2|0,3:2|0:0,0:0:0:0:
452,138,199733,1,2,3:2:0:0:
470,341,199886,2,0,P|400:333|340:318,1,106.25,8|0,0:0|0:0,0:0:0:0:
202,294,200192,5,2,3:2:0:0:
424,243,200345,1,0,0:0:0:0:
236,104,200498,1,8,0:0:0:0:
335,235,200651,1,2,2:1:0:0:
335,235,200728,1,2,2:1:0:0:
335,235,200804,1,0,3:0:0:0:
100,163,200957,1,0,3:0:0:0:
321,339,201110,2,0,P|334:263|333:205,1,106.25,10|2,0:0|0:0,0:0:0:0:
36,98,201416,5,2,3:1:0:0:
205,306,201569,1,0,0:0:0:0:
10,269,201722,5,10,0:0:0:0:
222,129,201876,1,0,3:0:0:0:
125,368,202029,5,2,2:1:0:0:
125,368,202105,1,2,2:1:0:0:
125,368,202182,2,0,P|113:342|110:280,1,53.125,4|0,3:2|0:0,0:0:0:0:
145,182,202335,1,10,0:0:0:0:
161,202,202411,1,8,1:0:0:0:
183,216,202488,1,8,1:0:0:0:
209,223,202564,1,8,1:0:0:0:
232,223,202641,6,0,P|301:217|459:175,2,212.5,6|10|2,3:2|0:0|3:2,0:0:0:0:
426,287,203406,1,2,3:2:0:0:
250,140,203559,2,0,P|242:64|244:-2,1,106.25,8|2,0:0|0:0,0:0:0:0:
439,182,203865,6,0,P|435:245|418:308,1,106.25,0|0,3:0|0:0,0:0:0:0:
365,67,204171,2,0,P|429:63|498:48,1,106.25,10|0,0:0|3:0,0:0:0:0:
221,228,204478,1,2,0:0:0:0:
139,93,204631,1,0,3:0:0:0:
312,282,204784,2,0,P|324:201|330:153,1,106.25,10|0,0:0|0:0,0:0:0:0:
14,324,205090,6,0,P|68:272|163:301,1,159.375,10|0,2:1|0:0,0:0:0:0:
165,301,205396,1,10,0:0:0:0:
17,188,205549,1,0,0:0:0:0:
243,375,205702,2,0,P|251:302|261:250,1,106.25,2|0,3:2|3:0,0:0:0:0:
261,243,205932,1,2,0:0:0:0:
269,217,206008,1,8,0:0:0:0:
95,353,206161,1,2,0:0:0:0:
238,115,206314,6,0,P|317:131|384:141,1,106.25,6|0,3:2|0:0,0:0:0:0:
512,149,206620,1,10,0:0:0:0:
405,0,206773,1,0,3:0:0:0:
505,244,206927,1,10,0:0:0:0:
237,191,207080,1,8,1:0:0:0:
237,191,207156,1,8,1:0:0:0:
237,191,207233,1,10,0:0:0:0:
416,109,207386,1,8,2:3:0:0:
235,284,207539,6,0,P|308:261|375:312,1,159.375,14|0,1:2|0:0,0:0:0:0:
389,324,207845,2,0,P|416:253|423:186,1,106.25,8|2,1:2|3:2,0:0:0:0:
132,45,208151,5,8,1:2:0:0:
392,155,208304,1,0,3:0:0:0:
115,219,208457,5,8,1:2:0:0:
375,64,208610,1,0,3:0:0:0:
375,64,208687,1,0,3:0:0:0:
375,64,208763,5,8,1:2:0:0:
125,135,208916,1,0,3:0:0:0:
407,250,209069,5,10,1:2:0:0:
125,135,209222,1,0,3:0:0:0:
394,153,209376,5,10,1:2:0:0:
105,308,209529,1,0,3:0:0:0:
394,153,209682,5,10,1:2:0:0:
251,342,209835,1,0,3:0:0:0:
251,342,209911,1,0,3:0:0:0:
251,342,209988,6,0,P|233:266|237:202,1,106.25,10|0,1:2|3:0,0:0:0:0:
234,34,210294,1,8,1:2:0:0:
41,203,210447,1,0,3:0:0:0:
234,144,210600,2,0,P|169:134|99:113,1,106.25,8|0,1:2|3:0,0:0:0:0:
48,66,210906,1,10,1:2:0:0:
330,86,211059,1,0,3:0:0:0:
330,86,211136,1,0,3:0:0:0:
330,86,211212,5,6,3:2:0:0:
134,7,211365,1,0,3:0:0:0:
319,191,211518,2,0,P|328:112|330:63,1,106.25,8|0,0:0|1:0,0:0:0:0:
32,159,211824,5,10,0:0:0:0:
232,126,211978,1,8,2:3:0:0:
77,95,212131,5,4,2:3:0:0:
187,193,212284,1,4,2:3:0:0:
77,95,212437,6,0,L|65:256,1,148.75,6|0,0:0|0:0,0:0:0:0:
127,330,213661,5,6,3:2:0:0:
168,351,213738,1,2,3:2:0:0:
214,348,213814,1,2,3:2:0:0:
256,328,213891,1,2,3:2:0:0:
282,289,213967,2,0,L|272:210,3,46.7500014266968,10|2|2|2,3:2|3:2|3:2|3:2,0:0:0:0:
253,196,214273,5,10,3:2:0:0:
251,145,214350,1,2,3:2:0:0:
274,99,214427,1,2,3:2:0:0:
316,70,214503,1,2,3:2:0:0:
366,63,214580,1,10,3:2:0:0:
414,82,214656,1,2,3:2:0:0:
447,120,214733,1,2,3:2:0:0:
458,170,214809,1,2,3:2:0:0:
442,220,214886,6,0,B|337:203|366:266|263:249,1,187.000005706787,6|8,3:2|0:0,0:0:0:0:
118,211,215345,1,2,0:0:0:0:
299,167,215498,1,0,3:0:0:0:
136,113,215651,1,0,3:0:0:0:
299,167,215804,2,0,P|310:110|311:54,1,93.5000028533936,10|0,0:0|0:0,0:0:0:0:
129,20,216110,6,0,P|131:90|142:140,1,93.5000028533936,0|0,3:0|0:0,0:0:0:0:
210,190,216416,1,10,0:0:0:0:
41,132,216569,1,0,3:0:0:0:
210,190,216722,2,0,P|264:183|319:168,1,93.5000028533936,2|0,3:2|3:0,0:0:0:0:
347,60,217029,2,0,P|290:49|219:44,1,93.5000028533936,10|0,0:0|0:0,0:0:0:0:
79,38,217335,6,0,P|82:133|94:235,1,187.000005706787,2|8,3:2|0:0,0:0:0:0:
0,355,217794,1,2,0:0:0:0:
167,310,217947,1,0,3:0:0:0:
11,215,218100,1,0,3:0:0:0:
167,310,218253,2,0,P|177:250|177:196,1,93.5000028533936,10|0,0:0|0:0,0:0:0:0:
402,210,218559,6,0,P|345:231|298:258,1,93.5000028533936,6|0,3:2|0:0,0:0:0:0:
185,50,218865,1,8,0:0:0:0:
274,100,219018,1,0,3:0:0:0:
185,149,219171,5,10,0:0:0:0:
273,0,219324,1,8,2:3:0:0:
371,142,219478,2,0,P|437:133|483:121,1,93.5000028533936,4|0,2:3|0:0,0:0:0:0:
241,233,219784,6,0,P|179:245|88:170,1,187.000005706787,6|8,3:2|0:0,0:0:0:0:
134,28,220243,1,2,0:0:0:0:
188,153,220396,1,0,3:0:0:0:
21,83,220549,1,0,3:0:0:0:
188,153,220702,2,0,P|203:88|209:32,1,93.5000028533936,10|0,0:0|0:0,0:0:0:0:
256,270,221008,6,0,P|192:289|140:312,1,93.5000028533936,2|0,3:2|0:0,0:0:0:0:
323,152,221314,2,0,P|372:198|418:231,1,93.5000028533936,8|0,0:0|3:0,0:0:0:0:
245,375,221620,1,2,0:0:0:0:
137,219,221773,1,0,3:0:0:0:
245,375,221927,2,0,P|258:298|266:249,1,93.5000028533936,8|0,0:0|0:0,0:0:0:0:
470,322,222233,6,0,P|463:253|334:244,1,187.000005706787,2|8,3:2|0:0,0:0:0:0:
157,320,222692,1,0,3:0:0:0:
228,153,222845,1,0,0:0:0:0:
18,210,222998,1,0,3:0:0:0:
157,320,223151,2,0,P|139:240|130:195,1,93.5000028533936,10|2,0:0|0:0,0:0:0:0:
179,81,223457,6,0,P|246:64|319:171,1,187.000005706787,6|10,3:2|0:0,0:0:0:0:
259,269,223916,1,0,0:0:0:0:
105,156,224069,1,10,0:0:0:0:
259,193,224222,1,8,2:3:0:0:
86,315,224376,1,6,2:3:0:0:
105,156,224529,1,4,2:3:0:0:
170,357,224682,6,0,P|241:342|368:346,1,187.000005706787,6|8,3:2|0:0,0:0:0:0:
438,184,225141,1,2,0:0:0:0:
294,252,225294,1,0,3:0:0:0:
466,315,225447,1,0,3:0:0:0:
294,252,225600,2,0,P|286:189|285:116,1,93.5000028533936,10|0,0:0|0:0,0:0:0:0:
447,91,225906,6,0,P|441:163|429:216,1,93.5000028533936,0|0,3:0|0:0,0:0:0:0:
267,68,226212,1,10,0:0:0:0:
419,8,226365,1,0,3:0:0:0:
267,68,226518,2,0,P|205:60|144:50,1,93.5000028533936,2|0,3:2|3:0,0:0:0:0:
67,188,226824,2,0,P|134:183|183:174,1,93.5000028533936,10|0,0:0|0:0,0:0:0:0:
297,344,227131,6,0,P|270:296|141:304,1,187.000005706787,2|8,3:2|0:0,0:0:0:0:
367,270,227590,1,2,0:0:0:0:
190,187,227743,1,0,3:0:0:0:
339,142,227896,1,0,3:0:0:0:
211,358,228049,2,0,P|202:298|201:235,1,93.5000028533936,10|0,0:0|0:0,0:0:0:0:
134,70,228355,6,0,P|191:92|246:122,1,93.5000028533936,6|0,3:2|0:0,0:0:0:0:
425,145,228661,1,8,0:0:0:0:
341,202,228814,1,0,3:0:0:0:
434,240,228967,5,10,0:0:0:0:
329,105,229120,1,8,2:3:0:0:
270,262,229273,2,0,P|254:193|254:126,1,93.5000028533936,4|0,2:3|0:0,0:0:0:0:
357,20,229580,6,0,P|406:53|389:176,1,187.000005706787,6|8,3:2|0:0,0:0:0:0:
196,86,230039,1,2,0:0:0:0:
304,240,230192,1,0,3:0:0:0:
332,108,230345,1,0,3:0:0:0:
168,210,230498,2,0,P|93:200|44:191,1,93.5000028533936,10|0,0:0|0:0,0:0:0:0:
115,29,230804,6,0,P|123:100|132:143,1,93.5000028533936,2|0,3:2|0:0,0:0:0:0:
250,282,231110,2,0,P|262:211|262:146,1,93.5000028533936,8|0,0:0|3:0,0:0:0:0:
267,93,231416,1,2,0:0:0:0:
127,121,231569,1,0,3:0:0:0:
347,234,231722,2,0,P|416:224|464:215,1,93.5000028533936,8|0,0:0|0:0,0:0:0:0:
144,365,232029,5,6,3:2:0:0:
144,365,232335,5,8,0:0:0:0:
168,260,232488,1,0,1:2:0:0:
188,154,232641,1,8,0:0:0:0:
57,292,232794,5,8,2:3:0:0:
270,222,232947,1,6,2:3:0:0:
83,182,233100,1,6,2:3:0:0:
253,335,233253,5,14,1:2:0:0:
368,212,233406,2,0,P|332:163|288:144,1,93.5000028533936,10|0,1:2|3:0,0:0:0:0:
194,177,233712,5,14,1:2:0:0:
253,335,233865,2,0,P|311:328|350:300,1,93.5000028533936,10|0,1:2|3:0,0:0:0:0:
368,212,234171,5,14,1:2:0:0:
194,177,234324,2,0,P|169:229|173:279,1,93.5000028533936,10|0,1:2|3:0,0:0:0:0:
269,242,234631,5,14,1:2:0:0:
269,242,234784,1,10,1:2:0:0:
386,345,235013,5,0,3:0:0:0:
386,345,235090,2,0,L|369:242,1,93.5000028533936,8|8,0:0|2:3,0:0:0:0:
476,238,235396,1,4,2:3:0:0:
271,368,235549,1,6,3:2:0:0:
256,192,235626,12,0,241518,0:0:0:0:
